osu file format v14

[General]
AudioFilename: audio.mp3
AudioLeadIn: 0
PreviewTime: 133850
Countdown: 0
SampleSet: Soft
StackLeniency: 0.4
Mode: 0
LetterboxInBreaks: 0
WidescreenStoryboard: 1

[Editor]
Bookmarks: 102645
DistanceSpacing: 0.5
BeatDivisor: 4
GridSize: 32
TimelineZoom: 1.699999

[Metadata]
Title:Lost Umbrella
TitleUnicode:ロストアンブレラ
Artist:rei sirose
ArtistUnicode:rei sirose
Creator:SMOKELIND
Version:Chiren's Hard
Source:
Tags:白瀬玲 dustcell ema EM A Kudou Chitose 久遠千歳 Kudo vtuber youtube virtual youtuber Japanese J Rock J-Rock JRock Basensorex Chiga DeRandom Otaku Fuju Agatsu nukunukunigirimeshi ぬくぬくにぎりめし 稲葉曇 inabakumori 歌愛ユキ Kaai Yuki vocaloid
BeatmapID:2841495
BeatmapSetID:1340777

[Difficulty]
HPDrainRate:4.5
CircleSize:3.6
OverallDifficulty:6
ApproachRate:8
SliderMultiplier:1.57
SliderTickRate:1

[Events]
//Background and Video events
0,0,"67493108_p0.jpg",0,0
//Break Periods
2,116860,122041
2,134178,139998
//Storyboard Layer 0 (Background)
//Storyboard Layer 1 (Fail)
//Storyboard Layer 2 (Pass)
//Storyboard Layer 3 (Foreground)
//Storyboard Layer 4 (Overlay)
//Storyboard Sound Samples

[TimingPoints]
1040,218.978102189781,4,2,77,47,1,0
8047,-250,4,2,77,57,0,0
12426,-250,4,2,77,77,0,0
13302,-250,4,2,77,57,0,0
19872,-250,4,2,77,57,0,0
20310,-200,4,2,77,77,0,0
34324,-200,4,2,77,67,0,0
34981,-250,4,2,77,67,0,0
36076,-200,4,2,77,67,0,0
36514,-250,4,2,77,67,0,0
37828,-200,4,2,77,67,0,0
38485,-250,4,2,77,67,0,0
39580,-200,4,2,77,67,0,0
40018,-250,4,2,77,67,0,0
41331,-222.222222222222,4,2,77,67,0,0
48339,-250,4,2,77,77,0,0
61915,-153.846153846154,4,2,77,77,0,0
62353,-181.818181818182,4,2,77,87,0,0
68047,-153.846153846154,4,2,77,87,0,0
68704,-181.818181818182,4,2,77,87,0,0
73740,-181.818181818182,4,2,77,87,0,0
74616,-200,4,2,77,77,0,0
80748,-200,4,2,77,57,0,0
81185,-250,4,2,77,57,0,0
81623,-200,4,2,77,77,0,0
88631,-200,4,2,77,67,0,0
94981,-250,4,2,77,57,0,0
95638,-200,4,2,77,67,0,0
100894,-200,4,2,77,77,0,0
102645,-200,4,2,77,67,0,0
103083,-222.222222222222,4,2,77,67,0,0
116660,-222.222222222222,4,2,77,57,0,0
123667,-222.222222222222,4,2,77,77,0,0
124105,-208.333333333333,4,2,77,77,0,0
140748,-238.095238095238,4,2,77,47,0,0
141185,-238.095238095238,4,2,77,57,0,0
146003,-238.095238095238,4,2,77,77,0,0
146441,-181.818181818182,4,2,77,87,0,0
157828,-181.818181818182,4,2,77,87,0,0
158704,-200,4,2,77,77,0,0
172171,-250,4,2,77,77,0,0
172718,-212.765957446809,4,2,77,67,0,0
179726,-212.765957446809,4,2,77,67,0,0

[Colours]
Combo1 : 233,233,233
Combo2 : 128,128,128

[HitObjects]
23,181,8047,6,0,L|106:167,1,62.8,6|10,1:0|0:0,0:0:0:0:
136,98,8485,1,10,0:3:0:0:
136,98,8704,1,10,0:0:0:0:
225,135,8923,2,0,P|250:169|232:226,2,94.2,10|8|10,0:3|0:3|0:0,0:0:0:0:
136,98,9799,6,0,P|121:74|131:31,1,62.8,10|10,0:3|0:0,0:0:0:0:
199,0,10237,1,10,0:3:0:0:
199,0,10456,1,10,0:0:0:0:
270,60,10675,2,0,L|339:41,2,62.8,10|10|2,0:3|0:0|0:0,0:0:0:0:
222,135,11331,2,0,L|231:170,1,31.4,10|2,0:0|0:0,0:0:0:0:
233,180,11550,5,8,0:3:0:0:
319,159,11769,2,0,P|347:184|346:219,1,62.8,10|10,0:0|0:3,0:0:0:0:
298,271,12207,1,10,0:0:0:0:
402,306,12426,5,14,0:0:0:0:
402,306,12645,1,14,0:0:0:0:
172,384,13302,6,0,P|145:377|108:372,2,62.8,6|0|0,1:0|0:0|0:0,0:0:0:0:
249,335,13959,1,0,0:0:0:0:
249,335,14069,1,0,0:0:0:0:
249,335,14178,2,0,P|266:296|240:237,2,94.2,2|0|0,0:0|0:0|0:0,0:0:0:0:
178,207,15054,6,0,P|166:178|178:139,1,62.8,2|0,0:0|0:0,0:0:0:0:
250,108,15492,2,0,P|262:79|247:42,1,62.8
243,45,15821,1,0,0:0:0:0:
243,45,15930,5,2,0:0:0:0:
370,90,16258,1,2,0:0:0:0:
473,10,16587,1,2,0:0:0:0:
512,88,16806,6,0,P|501:120|494:163,2,62.8,2|0|0,0:0|0:0|0:0,0:0:0:0:
475,15,17463,1,0,0:0:0:0:
475,15,17572,1,0,0:0:0:0:
475,15,17682,2,0,P|436:-7|383:8,2,94.2,2|0|0,0:0|0:0|0:0,0:0:0:0:
408,126,18558,6,0,P|401:154|389:186,1,62.8,2|2,0:0|0:0,0:0:0:0:
438,256,18996,2,0,P|466:262|501:275,1,62.8,2|0,0:0|0:0,0:0:0:0:
507,292,19324,1,0,0:0:0:0:
507,292,19434,5,2,0:0:0:0:
503,299,20310,6,0,P|463:330|426:322,1,78.5,4|8,1:0|0:0,0:0:0:0:
349,384,20748,2,0,P|303:360|299:323,1,78.5,0|8,1:0|0:0,0:0:0:0:
285,328,21076,1,8,0:3:0:0:
285,328,21185,6,0,L|307:225,1,78.5,0|8,1:0|0:0,0:0:0:0:
292,233,21514,2,0,L|214:249,1,78.5,0|8,1:0|0:3,0:0:0:0:
206,266,21842,1,8,0:0:0:0:
173,375,22061,6,0,P|131:377|104:351,1,78.5,0|8,1:0|0:0,0:0:0:0:
27,249,22499,2,0,P|72:244|102:265,1,78.5,0|8,1:0|0:0,0:0:0:0:
120,272,22828,1,8,0:3:0:0:
120,272,22937,6,0,L|146:174,1,78.5,0|10,1:0|0:0,0:0:0:0:
155,187,23266,2,0,L|180:92,1,78.5,2|8,1:0|0:3,0:0:0:0:
181,92,23594,1,10,0:0:0:0:
89,18,23813,6,0,P|50:47|57:91,1,78.5,0|8,1:0|0:0,0:0:0:0:
178,99,24251,2,0,P|215:87|264:82,1,78.5,0|8,1:0|0:0,0:0:0:0:
277,91,24580,1,8,0:3:0:0:
277,91,24689,6,0,B|300:123|300:123|287:172,1,78.5,0|8,1:0|0:0,0:0:0:0:
299,178,25018,2,0,L|278:268,1,78.5,0|8,1:0|0:3,0:0:0:0:
276,273,25346,1,8,0:0:0:0:
374,346,25565,6,0,P|409:318|452:328,1,78.5,0|8,1:0|0:0,0:0:0:0:
512,232,26003,2,0,P|475:232|444:208,1,78.5,0|8,1:0|0:0,0:0:0:0:
443,191,26331,1,8,0:3:0:0:
443,191,26441,1,0,1:0:0:0:
376,114,26660,2,0,P|381:95|387:61,2,39.25,10|0|10,0:0|1:0|0:3,0:0:0:0:
284,162,27098,1,10,0:0:0:0:
226,80,27317,6,0,P|187:58|146:73,1,78.5,4|8,1:0|0:0,0:0:0:0:
73,155,27755,2,0,P|112:177|151:161,1,78.5,0|8,1:0|0:0,0:0:0:0:
157,188,28083,1,8,0:3:0:0:
157,188,28193,6,0,L|139:268,1,78.5,0|8,1:0|0:0,0:0:0:0:
155,276,28521,2,0,L|168:361,1,78.5,8|8,0:3|0:3,0:0:0:0:
157,371,28850,1,8,0:0:0:0:
261,299,29069,6,0,B|282:333|282:333|261:386,1,78.5,0|8,1:0|0:0,0:0:0:0:
288,217,29507,2,0,P|344:199|372:222,1,78.5,0|8,1:0|0:0,0:0:0:0:
372,226,29835,1,8,0:3:0:0:
372,226,29945,2,0,L|459:207,1,78.5,0|10,1:0|0:0,0:0:0:0:
460,196,30273,2,0,L|442:119,1,78.5,8|8,0:3|0:3,0:0:0:0:
448,102,30602,1,10,0:0:0:0:
365,42,30821,6,0,P|380:15|443:11,1,78.5,0|8,1:0|0:0,0:0:0:0:
296,118,31258,2,0,P|251:112|200:95,1,78.5,0|8,1:0|0:0,0:0:0:0:
213,89,31587,1,8,0:3:0:0:
213,89,31696,2,0,B|184:64|184:64|128:77,1,78.5,0|8,1:0|0:0,0:0:0:0:
132,85,32025,2,0,L|21:111,1,78.5,0|8,1:0|0:3,0:0:0:0:
39,91,32353,1,8,0:0:0:0:
126,179,32572,5,0,1:0:0:0:
112,269,32791,1,10,0:0:0:0:
98,359,33010,1,2,1:0:0:0:
215,315,33229,1,10,0:0:0:0:
215,315,33339,1,10,0:3:0:0:
215,315,33448,6,0,B|255:312|255:312|286:353,1,78.5,14|8,0:0|0:3,0:0:0:0:
288,359,33777,1,10,0:0:0:0:
393,265,33996,1,8,0:3:0:0:
400,250,34105,2,0,L|390:192,1,39.25,8|8,0:0|0:3,0:0:0:0:
412,191,34324,6,0,L|397:90,1,78.5,4|10,1:0|0:0,0:0:0:0:
453,53,34762,1,10,0:3:0:0:
453,53,34981,2,0,P|400:28|341:57,1,125.6,10|10,0:0|0:0,0:0:0:0:
264,32,35638,2,0,P|260:66|283:104,1,62.8,10|10,0:3|0:0,0:0:0:0:
227,195,36076,6,0,B|192:213|192:213|152:203,1,78.5,6|10,1:0|0:0,0:0:0:0:
90,257,36514,2,0,P|98:284|78:328,2,62.8,10|10|10,0:3|0:0|0:3,0:0:0:0:
23,200,37171,1,10,0:0:0:0:
23,200,37390,2,0,P|13:172|27:138,1,62.8,10|8,0:3|0:0,0:0:0:0:
124,80,37828,6,0,L|108:-19,1,78.5,4|10,1:0|0:0,0:0:0:0:
217,99,38266,1,10,0:3:0:0:
217,99,38485,2,0,P|267:65|336:97,1,125.6,10|10,0:0|0:0,0:0:0:0:
369,161,39142,2,0,P|366:199|337:225,1,62.8,10|10,0:3|0:0,0:0:0:0:
418,304,39580,6,0,B|452:324|452:324|494:312,1,78.5,6|10,1:0|0:0,0:0:0:0:
335,322,40018,2,0,L|322:405,2,62.8,10|10|10,0:3|0:0|0:3,0:0:0:0:
264,271,40675,1,10,0:0:0:0:
264,271,40894,2,0,L|201:310,1,62.8,10|8,0:3|0:0,0:0:0:0:
102,265,41331,6,0,P|82:235|95:195,1,70.6499978439332,4|10,1:0|0:0,0:0:0:0:
159,160,41769,1,10,0:3:0:0:
159,160,41988,1,10,0:0:0:0:
254,97,42207,6,0,P|274:67|263:26,1,70.6499978439332,6|10,1:0|0:0,0:0:0:0:
199,0,42645,1,10,0:3:0:0:
199,0,42864,1,10,0:0:0:0:
98,63,43083,6,0,L|26:48,1,70.6499978439332,6|10,1:0|0:0,0:0:0:0:
14,140,43521,2,0,L|86:155,1,70.6499978439332,10|10,0:3|0:0,0:0:0:0:
140,261,43959,5,6,1:0:0:0:
140,261,44178,1,10,0:0:0:0:
60,293,44397,2,0,P|45:335|65:373,1,70.6499978439332,10|10,0:3|0:0,0:0:0:0:
141,375,44835,6,0,B|173:358|173:358|228:369,1,70.6499978439332,2|8,1:0|0:0,0:0:0:0:
248,282,45273,2,0,B|280:299|280:299|299:352,1,70.6499978439332,2|8,1:0|0:0,0:0:0:0:
423,384,45711,6,0,P|445:346|430:310,1,70.6499978439332,2|8,1:0|0:0,0:0:0:0:
512,247,46149,2,0,P|488:222|434:229,1,70.6499978439332,2|10,1:0|0:0,0:0:0:0:
398,126,46587,6,0,P|361:136|316:141,1,70.6499978439332,6|8,1:0|0:0,0:0:0:0:
258,24,47025,2,0,P|295:34|344:39,1,70.6499978439332,2|10,1:0|0:0,0:0:0:0:
240,123,47463,1,2,1:0:0:0:
240,123,47682,1,10,0:0:0:0:
155,68,47901,2,0,P|134:99|140:139,1,70.6499978439332,10|10,0:0|0:3,0:0:0:0:
41,152,48339,6,0,B|110:132|139:175|124:182|161:221|224:201,1,188.4,6|2,1:0|1:0,0:0:0:0:
287,233,49215,2,0,P|326:289|288:352,1,125.6,2|2,1:0|1:0,0:0:0:0:
233,373,49872,1,2,1:0:0:0:
233,373,50091,6,0,P|176:356|100:345,1,125.6,2|2,1:0|1:0,0:0:0:0:
73,273,50748,1,2,1:0:0:0:
73,273,50967,2,0,P|108:266|153:251,1,62.8,2|0,1:0|1:0,0:0:0:0:
168,186,51404,2,0,P|165:160|128:130,1,62.8,2|0,1:0|1:0,0:0:0:0:
216,260,51842,6,0,P|308:233|316:141,1,188.4,2|0,1:0|1:0,0:0:0:0:
261,96,52718,2,0,B|280:37|280:37|338:77,1,125.6,2|2,1:0|1:0,0:0:0:0:
406,138,53375,1,2,1:0:0:0:
406,138,53594,6,0,P|463:146|506:92,1,125.6,2|2,1:0|1:0,0:0:0:0:
454,33,54251,1,2,1:0:0:0:
454,33,54470,2,0,P|419:35|392:68,1,62.8,2|2,1:0|1:0,0:0:0:0:
298,12,54908,2,0,P|304:53|334:74,1,62.8,2|2,1:0|1:0,0:0:0:0:
250,138,55346,6,0,P|205:106|124:127,1,125.6,6|2,1:0|1:0,0:0:0:0:
65,59,56003,1,2,1:0:0:0:
65,59,56222,2,0,P|88:114|98:182,1,125.6,2|2,1:0|1:0,0:0:0:0:
171,243,56879,1,2,1:0:0:0:
171,243,57098,6,0,P|175:208|191:173,1,62.8,2|2,1:0|1:0,0:0:0:0:
266,154,57536,1,2,1:0:0:0:
266,154,57755,2,0,P|300:158|338:174,1,62.8,2|2,1:0|1:0,0:0:0:0:
406,156,58193,2,0,P|421:128|415:90,2,62.8,2|2|2,1:0|1:0|1:0,0:0:0:0:
445,229,58850,5,0,0:0:0:0:
445,229,61915,6,0,B|399:230|382:265|387:272|387:313|312:323,1,153.074992992783,14|0,0:0|0:0,0:0:0:0:
310,319,62353,5,6,1:0:0:0:
198,286,62572,1,8,0:0:0:0:
187,170,62791,2,0,P|223:154|265:181,1,86.350002635193,2|8,1:0|0:0,0:0:0:0:
346,115,63229,1,2,1:0:0:0:
346,115,63339,1,0,0:0:0:0:
346,115,63448,2,0,P|336:73|329:22,1,86.350002635193,10|2,0:0|0:0,0:0:0:0:
224,0,63886,2,0,P|232:20|237:40,1,43.1750013175965,10|2,0:0|0:0,0:0:0:0:
233,59,64105,6,0,P|196:87|141:73,1,86.350002635193,2|10,1:0|0:0,0:0:0:0:
91,22,64543,1,2,1:0:0:0:
24,83,64762,1,10,0:0:0:0:
89,157,64981,6,0,P|83:199|70:242,1,86.350002635193,2|10,1:0|0:0,0:0:0:0:
53,252,65310,1,0,1:0:0:0:
53,252,65419,2,0,P|22:290|26:325,1,86.350002635193,2|10,0:0|0:0,0:0:0:0:
130,384,65857,5,2,1:0:0:0:
229,330,66076,1,10,0:0:0:0:
229,330,66185,1,2,0:0:0:0:
229,330,66295,2,0,P|228:311|218:274,2,43.1750013175965,2|2|10,1:0|1:0|0:0,0:0:0:0:
333,346,66733,6,0,P|341:306|342:259,1,86.350002635193,2|10,1:0|0:0,0:0:0:0:
340,243,67061,1,2,1:0:0:0:
340,243,67171,1,2,0:0:0:0:
424,181,67390,2,0,P|447:189|472:192,2,43.1750013175965,10|2|2,0:0|0:0|1:0,0:0:0:0:
377,95,67828,1,10,0:0:0:0:
377,95,67937,1,0,0:0:0:0:
377,95,68047,6,0,P|326:58|276:82,1,102.049995328522,2|10,1:0|0:0,0:0:0:0:
279,90,68375,1,10,0:3:0:0:
279,90,68485,1,2,1:0:0:0:
187,39,68704,2,0,P|192:17|193:-13,2,43.1750013175965,10|10|10,0:3|0:3|0:3,0:0:0:0:
104,81,69142,1,10,0:0:0:0:
141,166,69361,5,14,0:0:0:0:
11,276,69689,1,14,0:0:0:0:
11,276,69799,6,0,P|7:233|45:200,1,86.350002635193,6|10,1:0|0:0,0:0:0:0:
112,278,70237,1,2,1:0:0:0:
112,278,70346,1,2,0:0:0:0:
112,278,70456,2,0,P|154:272|211:255,2,86.350002635193,10|2|10,0:0|0:0|0:0,0:0:0:0:
132,368,71112,6,0,P|171:358|219:350,1,86.350002635193,2|10,1:0|0:0,0:0:0:0:
302,384,71550,1,2,1:0:0:0:
364,320,71769,1,10,0:0:0:0:
445,365,71988,6,0,P|468:333|448:281,1,86.350002635193,2|10,1:0|0:0,0:0:0:0:
388,226,72426,2,0,P|365:194|382:142,1,86.350002635193,2|10,0:0|0:0,0:0:0:0:
393,139,72755,1,2,0:0:0:0:
393,139,72864,5,0,1:0:0:0:
462,86,73083,2,0,P|460:67|451:31,2,43.1750013175965,10|2|10,0:0|1:0|0:3,0:0:0:0:
393,139,73521,1,10,0:3:0:0:
310,91,73740,5,6,1:0:0:0:
310,91,73959,1,6,1:0:0:0:
310,91,74616,6,0,P|302:52|336:12,1,78.5,6|8,1:0|0:0,0:0:0:0:
401,132,75054,2,0,P|422:169|413:204,1,78.5,0|8,1:0|0:0,0:0:0:0:
402,219,75383,1,8,0:3:0:0:
402,219,75492,6,0,L|316:208,1,78.5,0|8,1:0|0:0,0:0:0:0:
311,224,75821,2,0,L|230:235,1,78.5,0|8,1:0|0:3,0:0:0:0:
215,226,76149,1,8,0:0:0:0:
122,177,76368,6,0,P|103:222|119:256,1,78.5,0|8,1:0|0:0,0:0:0:0:
42,355,76806,2,0,P|78:342|130:333,1,78.5,0|8,1:0|0:0,0:0:0:0:
134,352,77134,1,8,0:3:0:0:
134,352,77244,2,0,B|167:373|167:373|221:353,1,78.5,2|8,1:0|0:0,0:0:0:0:
212,341,77572,1,0,1:0:0:0:
326,361,77791,1,8,0:3:0:0:
326,361,77901,2,0,L|315:312,1,39.25,10|8,0:0|0:3,0:0:0:0:
309,304,78120,6,0,P|333:276|392:286,1,78.5,2|8,1:0|0:0,0:0:0:0:
486,239,78558,2,0,P|450:236|426:203,1,78.5,0|8,1:0|0:0,0:0:0:0:
415,193,78886,1,8,0:3:0:0:
415,193,78996,6,0,L|435:102,1,78.5,0|8,1:0|0:0,0:0:0:0:
422,98,79324,2,0,L|341:80,1,78.5,0|8,1:0|0:3,0:0:0:0:
332,66,79653,1,8,0:0:0:0:
254,10,79872,6,0,P|224:58|242:98,1,78.5,2|8,1:0|0:0,0:0:0:0:
177,178,80310,2,0,P|138:194|85:157,1,78.5,0|8,1:0|0:0,0:0:0:0:
99,169,80638,1,8,0:3:0:0:
99,169,80748,1,0,1:0:0:0:
231,272,81076,1,0,1:0:0:0:
231,272,81185,2,0,L|216:347,1,62.8,2|8,0:0|0:3,0:0:0:0:
11,354,81623,6,0,B|44:327|44:327|101:345,1,78.5,4|8,1:0|0:0,0:0:0:0:
161,257,82061,2,0,B|193:281|193:281|251:267,1,78.5,0|8,1:0|0:0,0:0:0:0:
247,260,82390,1,8,0:3:0:0:
247,260,82499,2,0,L|333:276,1,78.5,0|8,1:0|0:0,0:0:0:0:
329,293,82828,2,0,L|408:278,1,78.5,8|8,0:3|0:3,0:0:0:0:
424,286,83156,1,8,0:0:0:0:
489,190,83375,6,0,P|486:152|433:127,1,78.5,0|8,1:0|0:0,0:0:0:0:
334,111,83813,2,0,P|307:86|308:44,1,78.5,0|8,1:0|0:0,0:0:0:0:
322,34,84142,1,8,0:3:0:0:
322,34,84251,6,0,P|362:26|405:8,1,78.5,2|8,1:0|0:0,0:0:0:0:
408,3,84580,1,0,1:0:0:0:
482,107,84799,1,8,0:3:0:0:
482,107,84908,2,0,P|454:96|421:91,1,39.25,10|8,0:0|0:3,0:0:0:0:
425,98,85127,6,0,B|403:133|403:133|422:183,1,78.5,2|8,1:0|0:0,0:0:0:0:
343,247,85565,2,0,L|261:233,1,78.5,0|8,1:0|0:0,0:0:0:0:
261,219,85894,1,8,0:3:0:0:
261,219,86003,2,0,P|217:211|184:232,1,78.5,0|8,1:0|0:0,0:0:0:0:
180,244,86331,2,0,P|147:259|108:249,1,78.5,0|8,1:0|0:3,0:0:0:0:
101,229,86660,1,10,0:0:0:0:
7,298,86879,5,0,1:0:0:0:
45,384,87098,1,8,0:0:0:0:
134,343,87317,1,0,1:0:0:0:
263,373,87536,1,8,0:0:0:0:
263,373,87645,1,8,0:3:0:0:
263,373,87755,6,0,L|244:292,1,78.5,4|0,1:0|1:0,0:0:0:0:
254,279,88083,1,8,0:0:0:0:
400,352,88302,1,10,0:0:0:0:
417,358,88412,2,0,L|484:344,1,39.25,8|8,0:3|0:0,0:0:0:0:
474,355,88631,6,0,P|488:323|461:273,1,78.5,4|8,1:0|0:0,0:0:0:0:
374,241,89069,2,0,P|360:209|386:161,1,78.5,8|8,0:3|0:0,0:0:0:0:
395,163,89397,1,8,0:3:0:0:
395,163,89507,2,0,L|520:189,2,117.75,8|8|8,0:3|0:3|0:0,0:0:0:0:
354,67,90383,5,8,0:3:0:0:
270,28,90602,1,8,0:0:0:0:
190,82,90821,2,0,P|184:138|217:168,1,78.5,8|8,0:3|0:0,0:0:0:0:
217,164,91149,1,8,0:3:0:0:
217,164,91258,2,0,B|237:219|237:219|184:291,2,117.75,8|8|8,0:3|0:3|0:0,0:0:0:0:
71,89,92134,6,0,P|34:100|-13:104,1,78.5,8|8,0:3|0:0,0:0:0:0:
21,222,92572,2,0,P|58:210|105:205,1,78.5,8|8,0:3|0:0,0:0:0:0:
120,214,92901,1,8,0:3:0:0:
120,214,93010,2,0,P|143:294|115:328,2,117.75,8|8|8,0:3|0:3|0:0,0:0:0:0:
178,126,93886,5,8,0:3:0:0:
266,101,94105,1,8,0:0:0:0:
316,186,94324,2,0,P|354:181|397:171,1,78.5,8|8,0:3|0:0,0:0:0:0:
411,162,94653,1,8,0:3:0:0:
411,162,94762,1,8,0:3:0:0:
442,244,94981,6,0,P|445:276|451:313,2,62.8,10|10|8,0:0|0:0|0:3,0:0:0:0:
512,135,95638,6,0,P|520:84|487:54,1,78.5,4|8,1:0|0:0,0:0:0:0:
396,9,96076,2,0,P|362:24|318:31,1,78.5,8|8,0:3|0:0,0:0:0:0:
309,22,96404,1,8,0:3:0:0:
309,22,96514,2,0,P|253:8|202:70,2,117.75,8|8|8,0:3|0:3|0:0,0:0:0:0:
365,128,97390,5,8,0:3:0:0:
345,218,97609,1,8,0:0:0:0:
318,308,97828,2,0,P|282:298|242:290,1,78.5,8|8,0:3|0:0,0:0:0:0:
225,293,98156,1,8,0:3:0:0:
225,293,98266,2,0,B|179:335|179:335|202:387,2,117.75,8|8|8,0:3|0:3|0:0,0:0:0:0:
222,186,99142,6,0,P|186:166|149:176,1,78.5,8|8,0:3|0:0,0:0:0:0:
102,256,99580,2,0,P|66:261|30:239,1,78.5,8|8,0:3|0:0,0:0:0:0:
43,226,99908,1,8,0:3:0:0:
43,226,100018,2,0,L|69:104,2,117.75,8|8|8,0:3|0:3|0:0,0:0:0:0:
26,348,100894,5,6,1:0:0:0:
116,382,101112,1,10,0:0:0:0:
183,317,101331,1,10,0:0:0:0:
278,368,101550,5,10,0:0:0:0:
278,368,101660,1,0,0:0:0:0:
278,368,101769,2,0,P|291:316|265:275,1,78.5,2|8,1:0|0:0,0:0:0:0:
265,284,102098,2,0,P|266:247|281:201,1,78.5,10|8,0:0|0:0,0:0:0:0:
268,190,102426,2,0,L|203:173,1,39.25,2|8,1:0|0:0,0:0:0:0:
211,186,102645,5,4,1:0:0:0:
95,177,102864,1,10,0:0:0:0:
95,177,102974,1,0,0:0:0:0:
95,177,103083,2,0,B|69:152|69:152|75:111,1,70.6499978439332,10|10,0:3|0:0,0:0:0:0:
76,100,103412,6,0,P|115:93|156:79,1,70.6499978439332,8|8,0:3|0:3,0:0:0:0:
161,89,103740,1,10,0:0:0:0:
246,33,103959,2,0,L|240:-2,2,35.3249989219666,10|8|10,0:3|0:3|0:0,0:0:0:0:
319,93,104397,6,0,P|314:127|303:172,1,70.6499978439332,6|10,1:0|0:0,0:0:0:0:
408,70,104835,2,0,P|403:36|391:-9,1,70.6499978439332,10|10,0:3|0:0,0:0:0:0:
497,93,105273,6,0,P|492:127|481:169,1,70.6499978439332,10|10,0:3|0:0,0:0:0:0:
489,183,105602,1,8,0:3:0:0:
489,183,105711,2,0,L|494:222,2,35.3249989219666,10|8|8,0:3|0:3|0:0,0:0:0:0:
405,251,106149,5,4,1:0:0:0:
336,189,106368,1,10,0:0:0:0:
300,276,106587,2,0,P|260:294|225:294,1,70.6499978439332,10|10,0:3|0:0,0:0:0:0:
215,296,106915,6,0,P|218:248|215:197,1,70.6499978439332,10|8,0:3|0:3,0:0:0:0:
226,209,107244,1,10,0:0:0:0:
160,144,107463,2,0,L|165:106,2,35.3249989219666,10|8|10,0:3|0:3|0:0,0:0:0:0:
83,200,107901,5,6,1:0:0:0:
16,135,108120,1,10,0:0:0:0:
71,60,108339,2,0,P|98:43|136:45,1,70.6499978439332,10|10,0:3|0:0,0:0:0:0:
204,99,108777,5,10,0:3:0:0:
273,37,108996,1,10,0:0:0:0:
342,98,109215,2,0,P|369:115|410:112,1,70.6499978439332,10|10,0:3|0:0,0:0:0:0:
512,164,109653,5,4,1:0:0:0:
440,223,109872,1,10,0:0:0:0:
497,295,110091,2,0,P|460:315|432:312,1,70.6499978439332,10|10,0:3|0:0,0:0:0:0:
421,306,110419,1,8,0:3:0:0:
421,306,110529,5,6,1:0:0:0:
350,366,110748,1,10,0:0:0:0:
286,298,110967,1,10,0:3:0:0:
286,298,111076,1,8,0:3:0:0:
286,298,111185,2,0,P|288:270|290:235,1,35.3249989219666,10|8,0:0|0:3,0:0:0:0:
289,245,111404,5,6,1:0:0:0:
223,181,111623,1,10,0:0:0:0:
286,113,111842,2,0,P|321:100|363:113,1,70.6499978439332,10|10,0:3|0:0,0:0:0:0:
370,121,112171,1,8,0:3:0:0:
370,121,112280,5,6,1:0:0:0:
439,58,112499,1,10,0:0:0:0:
502,125,112718,2,0,L|493:211,1,70.6499978439332,10|10,0:3|0:0,0:0:0:0:
404,268,113156,6,0,L|395:194,1,70.6499978439332,2|8,1:0|0:0,0:0:0:0:
367,116,113594,1,2,1:0:0:0:
367,116,113813,1,10,0:0:0:0:
297,176,114032,6,0,P|264:176|230:155,1,70.6499978439332,2|8,1:0|0:0,0:0:0:0:
169,95,114470,1,2,1:0:0:0:
169,95,114689,1,10,0:0:0:0:
112,168,114908,6,0,L|120:258,1,70.6499978439332,6|10,1:0|0:0,0:0:0:0:
121,260,115237,1,10,0:0:0:0:
121,260,115346,1,2,1:0:0:0:
72,333,115565,1,10,0:0:0:0:
163,380,115784,5,2,1:0:0:0:
163,380,115894,1,8,0:0:0:0:
163,380,116003,2,0,L|245:370,2,70.6499978439332,10|10|10,0:3|0:0|0:0,0:0:0:0:
199,294,116660,5,6,0:0:0:0:
199,294,122791,6,0,P|209:252|186:191,1,105.9749967659,0|0,1:0|1:0,0:0:0:0:
173,185,123229,2,0,P|164:148|173:114,1,70.6499978439332,8|8,0:0|0:3,0:0:0:0:
232,37,123667,5,12,0:3:0:0:
232,37,123777,1,0,0:0:0:0:
232,37,123886,1,10,0:0:0:0:
136,12,124105,2,0,P|90:22|41:27,1,75.3600018398438,10|8,0:3|0:3,0:0:0:0:
4,102,124543,6,0,P|38:107|78:117,1,75.3600018398438,14|10,0:3|0:0,0:0:0:0:
161,159,124981,2,0,P|171:196|152:234,1,75.3600018398438,10|10,0:3|0:3,0:0:0:0:
149,248,125310,1,8,0:3:0:0:
149,248,125419,5,14,0:3:0:0:
94,321,125638,1,10,0:0:0:0:
177,374,125857,2,0,P|220:361|257:359,1,75.3600018398438,10|10,0:3|0:3,0:0:0:0:
343,376,126295,5,14,0:3:0:0:
298,287,126514,1,10,0:0:0:0:
379,231,126733,2,0,B|403:189|403:189|369:130,1,113.040002759766,10|8,0:3|0:3,0:0:0:0:
358,121,127171,6,0,P|387:100|427:101,1,75.3600018398438,12|10,0:3|0:0,0:0:0:0:
310,190,127609,2,0,P|275:189|242:164,1,75.3600018398438,10|8,0:3|0:3,0:0:0:0:
231,158,127937,1,10,0:3:0:0:
231,158,128047,6,0,L|241:260,1,75.3600018398438,14|10,0:3|0:0,0:0:0:0:
190,313,128485,2,0,B|154:330|154:330|111:317,1,75.3600018398438,10|10,0:0|0:3,0:0:0:0:
110,309,128813,1,8,0:3:0:0:
110,309,128923,6,0,L|119:230,1,75.3600018398438,14|10,0:3|0:0,0:0:0:0:
74,153,129361,2,0,P|42:138|-2:144,1,75.3600018398438,10|10,0:3|0:3,0:0:0:0:
44,19,129799,6,0,P|75:33|102:30,2,50.2400012265625,2|8|8,1:0|0:0|0:0,0:0:0:0:
20,28,130237,1,8,0:3:0:0:
232,89,130675,6,0,B|243:52|243:52|216:18,1,75.3600018398438,6|8,1:0|0:0,0:0:0:0:
136,72,131112,2,0,L|151:149,1,75.3600018398438,0|8,1:0|0:0,0:0:0:0:
146,167,131441,1,8,0:3:0:0:
146,167,131550,6,0,L|164:248,1,75.3600018398438,8|8,0:3|0:0,0:0:0:0:
159,259,131879,1,8,0:3:0:0:
241,311,132098,1,8,0:3:0:0:
241,311,132207,2,0,P|267:317|292:315,1,37.6800009199219,10|0,0:0|0:0,0:0:0:0:
295,311,132426,5,6,1:0:0:0:
375,256,132645,1,4,1:0:0:0:
431,334,132864,1,4,1:0:0:0:
510,275,133083,1,4,1:0:0:0:
510,275,140748,6,0,P|472:243|414:250,1,98.9099969815065,10|0,0:0|0:0,0:0:0:0:
416,258,141185,6,0,L|338:245,1,65.939997987671,8|0,0:3|0:0,0:0:0:0:
296,312,141623,2,0,L|210:328,1,65.939997987671,8|0,0:0|1:0,0:0:0:0:
158,277,142061,6,0,P|145:239|160:205,1,65.939997987671,8|0,0:3|0:0,0:0:0:0:
219,163,142499,2,0,P|232:125|216:93,1,65.939997987671,8|0,0:0|1:0,0:0:0:0:
216,93,142828,1,8,0:0:0:0:
216,93,142937,6,0,B|175:81|148:102|156:110|140:135|93:129,1,131.879995975342,8|8,0:3|0:0,0:0:0:0:
21,168,143594,2,0,P|15:137|3:86,1,65.939997987671,8|0,0:0|1:0,0:0:0:0:
103,41,144032,5,0,1:0:0:0:
166,94,144251,2,0,P|205:111|237:105,1,65.939997987671,8|0,0:0|1:0,0:0:0:0:
246,105,144580,1,8,0:0:0:0:
246,105,144689,2,0,L|236:184,1,65.939997987671,8|0,0:3|0:0,0:0:0:0:
237,170,146003,5,10,0:3:0:0:
349,121,146222,1,10,0:3:0:0:
256,10,146441,6,0,P|242:55|283:97,1,86.350002635193,6|8,1:0|0:0,0:0:0:0:
430,74,146879,2,0,P|436:27|389:-7,1,86.350002635193,2|8,1:0|0:0,0:0:0:0:
349,121,147317,1,2,1:0:0:0:
349,121,147426,1,0,0:0:0:0:
349,121,147536,1,10,0:0:0:0:
375,224,147755,1,2,0:0:0:0:
271,198,147974,1,10,0:0:0:0:
271,198,148083,1,2,0:0:0:0:
271,198,148193,6,0,P|258:238|274:278,1,86.350002635193,2|10,1:0|0:0,0:0:0:0:
338,353,148631,1,2,1:0:0:0:
372,253,148850,1,10,0:0:0:0:
273,277,149069,6,0,P|227:286|183:299,1,86.350002635193,2|10,1:0|0:0,0:0:0:0:
160,185,149507,2,0,P|211:178|250:169,1,86.350002635193,2|10,0:0|0:0,0:0:0:0:
352,172,149945,6,0,B|361:131|361:131|326:96,1,86.350002635193,2|10,1:0|0:0,0:0:0:0:
317,89,150273,1,2,0:0:0:0:
317,89,150383,2,0,L|325:33,1,43.1750013175965,2|2,1:0|1:0,0:0:0:0:
332,26,150602,1,10,0:0:0:0:
225,5,150821,6,0,P|179:31|139:27,1,86.350002635193,2|10,1:0|0:0,0:0:0:0:
131,22,151149,1,2,1:0:0:0:
131,22,151258,2,0,L|144:118,1,86.350002635193,2|10,0:0|0:0,0:0:0:0:
166,120,151587,1,2,0:0:0:0:
166,120,151696,6,0,L|154:212,1,86.350002635193,2|10,1:0|0:0,0:0:0:0:
83,277,152134,1,2,1:0:0:0:
14,197,152353,1,10,0:0:0:0:
14,197,152463,1,10,0:3:0:0:
14,197,152572,6,0,L|25:108,1,86.350002635193,2|10,1:0|0:3,0:0:0:0:
25,93,152901,1,8,0:3:0:0:
25,93,153010,1,8,0:3:0:0:
126,60,153229,2,0,L|120:16,1,43.1750013175965,8|8,0:0|0:0,0:0:0:0:
112,0,153448,5,12,0:0:0:0:
263,62,153777,1,14,0:0:0:0:
263,62,153886,2,0,B|283:100|283:100|263:138,1,86.350002635193,6|10,1:0|0:0,0:0:0:0:
202,218,154324,5,2,1:0:0:0:
202,218,154434,1,2,0:0:0:0:
202,218,154543,2,0,L|217:312,1,86.350002635193,10|2,0:0|0:0,0:0:0:0:
291,370,154981,1,10,0:0:0:0:
368,297,155200,6,0,P|408:283|450:299,1,86.350002635193,2|10,1:0|0:0,0:0:0:0:
511,212,155638,1,2,1:0:0:0:
422,155,155857,6,0,P|408:112|428:71,2,86.350002635193,10|2|10,0:0|1:0|0:0,0:0:0:0:
511,212,156514,1,2,0:0:0:0:
447,297,156733,1,10,0:0:0:0:
447,297,156842,2,0,L|459:355,1,43.1750013175965,2|0,0:0|1:0,0:0:0:0:
353,235,157171,5,10,0:0:0:0:
353,235,157280,1,2,1:0:0:0:
353,235,157390,2,0,P|313:221|272:239,1,86.350002635193,10|10,0:3|0:3,0:0:0:0:
204,307,157828,5,6,1:0:0:0:
204,307,158047,1,6,1:0:0:0:
204,307,158704,6,0,P|144:296|111:293,1,78.5,6|8,1:0|0:0,0:0:0:0:
12,236,159142,2,0,P|48:230|96:219,1,78.5,0|8,1:0|0:0,0:0:0:0:
165,172,159580,2,0,P|172:136|155:100,1,78.5,0|8,1:0|0:0,0:0:0:0:
137,90,159908,2,0,L|217:70,1,78.5,0|0,1:0|0:0,0:0:0:0:
233,72,160237,1,8,0:0:0:0:
305,11,160456,6,0,B|333:40|333:40|325:78,1,78.5,0|8,1:0|0:0,0:0:0:0:
270,158,160894,1,0,1:0:0:0:
270,158,161112,1,8,0:0:0:0:
346,213,161331,2,0,P|408:201|445:199,1,78.5,0|10,1:0|0:0,0:0:0:0:
442,197,161660,2,0,P|465:239|452:275,1,78.5,0|0,1:0|0:0,0:0:0:0:
446,282,161988,1,10,0:0:0:0:
397,361,162207,6,0,P|338:352|296:351,1,78.5,0|8,1:0|0:0,0:0:0:0:
231,383,162645,2,0,B|217:348|217:348|236:309,1,78.5,0|8,1:0|0:0,0:0:0:0:
248,297,162974,1,0,0:0:0:0:
248,297,163083,6,0,B|266:259|266:259|245:225,1,78.5,0|8,1:0|0:0,0:0:0:0:
233,213,163412,2,0,P|191:196|147:214,1,78.5,0|0,1:0|0:0,0:0:0:0:
147,218,163740,1,8,0:0:0:0:
74,276,163959,6,0,P|60:228|46:186,1,78.5,0|8,1:0|0:0,0:0:0:0:
95,125,164397,2,0,P|140:103|176:112,1,78.5,0|8,1:0|0:0,0:0:0:0:
186,122,164726,1,0,0:0:0:0:
186,122,164835,6,0,L|196:39,1,78.5,0|8,1:0|0:0,0:0:0:0:
201,24,165164,2,0,B|239:11|239:11|280:35,1,78.5,0|0,1:0|0:0,0:0:0:0:
282,47,165492,1,8,0:0:0:0:
346,110,165711,5,4,1:0:0:0:
277,177,165930,1,8,0:0:0:0:
346,243,166149,2,0,P|395:232|436:231,1,78.5,2|10,1:0|0:0,0:0:0:0:
492,290,166587,5,0,1:0:0:0:
492,290,166696,1,0,0:0:0:0:
492,290,166806,2,0,L|485:346,1,39.25,8|0,0:0|1:0,0:0:0:0:
486,348,167025,2,0,P|437:337|394:336,1,78.5,2|10,0:0|0:0,0:0:0:0:
326,373,167463,6,0,P|322:328|308:275,1,78.5,0|8,1:0|0:0,0:0:0:0:
387,235,167901,2,0,P|391:190|401:138,1,78.5,0|8,1:0|0:0,0:0:0:0:
326,96,168339,6,0,P|288:82|251:92,1,78.5,0|8,1:0|0:0,0:0:0:0:
240,106,168667,1,2,1:0:0:0:
240,106,168777,2,0,P|231:51|221:16,1,78.5,0|10,0:0|0:0,0:0:0:0:
136,45,169215,6,0,P|145:100|157:141,1,78.5,0|8,1:0|0:0,0:0:0:0:
192,210,169653,2,0,P|152:231|112:225,1,78.5,0|8,1:0|0:0,0:0:0:0:
107,221,169981,1,0,0:0:0:0:
107,221,170091,6,0,P|112:257|122:300,1,78.5,0|8,1:0|0:0,0:0:0:0:
26,317,170529,2,0,P|20:280|8:235,1,78.5,0|8,0:0|0:0,0:0:0:0:
45,154,170967,6,0,P|70:129|115:124,1,78.5,0|8,1:0|0:0,0:0:0:0:
212,74,171404,2,0,P|176:68|146:34,1,78.5,0|8,1:0|0:0,0:0:0:0:
272,8,171842,1,8,0:0:0:0:
272,8,171952,2,0,P|307:17|338:21,1,39.25,0|8,1:0|0:3,0:0:0:0:
325,12,172171,6,0,P|341:52|316:102,1,94.2,8|0,0:3|0:0,0:0:0:0:
255,153,172718,6,0,L|267:243,1,73.789998874054,12|8,0:3|0:0,0:0:0:0:
224,301,173156,1,10,0:3:0:0:
224,301,173266,1,8,0:3:0:0:
223,301,173375,2,0,P|206:300|183:293,1,36.894999437027,8|8,0:0|0:3,0:0:0:0:
173,281,173594,6,0,L|165:241,3,36.894999437027,8|8|8|8,0:3|0:3|0:0|0:3,0:0:0:0:
153,232,174032,2,0,L|146:189,3,36.894999437027,8|8|8|8,0:3|0:3|0:0|0:3,0:0:0:0:
144,177,174470,5,12,0:3:0:0:
66,132,174689,1,8,0:0:0:0:
26,209,174908,2,0,L|41:289,1,73.789998874054,8|8,0:3|0:0,0:0:0:0:
49,303,175237,1,8,0:3:0:0:
49,303,175346,6,0,P|75:293|97:292,3,36.894999437027,8|8|10|8,0:3|0:3|0:0|0:3,0:0:0:0:
100,300,175784,2,0,P|126:310|147:311,3,36.894999437027,10|10|10|8,0:3|0:3|0:0|0:3,0:0:0:0:
151,303,176222,5,12,0:3:0:0:
228,349,176441,1,8,0:0:0:0:
281,281,176660,2,0,P|314:262|358:273,1,73.789998874054,8|8,0:3|0:0,0:0:0:0:
365,282,176988,1,8,0:3:0:0:
365,282,177098,6,0,L|419:273,3,36.894999437027,8|8|8|8,0:3|0:3|0:0|0:3,0:0:0:0:
418,283,177536,2,0,L|474:274,3,36.894999437027,8|8|8|8,0:3|0:3|0:0|0:3,0:0:0:0:
472,271,177974,5,12,0:3:0:0:
512,194,178193,1,8,0:0:0:0:
437,146,178412,2,0,P|422:113|436:75,1,73.789998874054,8|8,0:3|0:0,0:0:0:0:
444,65,178740,1,8,0:3:0:0:
444,65,178850,2,0,P|421:54|396:51,3,36.894999437027,8|8|10|0,0:3|0:3|0:0|1:0,0:0:0:0:
392,51,179288,2,0,P|369:62|342:63,3,36.894999437027,10|0|10|0,0:3|1:0|0:0|1:0,0:0:0:0:
339,60,179726,5,12,0:3:0:0:
267,7,179945,1,10,0:0:0:0:
202,69,180164,2,0,P|149:62|115:62,1,73.789998874054,10|10,0:3|0:0,0:0:0:0:
114,70,180492,1,8,0:3:0:0:
114,70,180602,6,0,P|119:128|120:171,1,73.789998874054,10|10,0:3|0:0,0:0:0:0:
52,204,181040,1,8,0:3:0:0:
52,204,181149,1,8,0:3:0:0:
52,204,181258,2,0,P|49:232|50:255,1,36.894999437027,10|8,0:0|0:3,0:0:0:0:
58,256,181477,5,14,0:3:0:0:
149,229,181696,1,10,0:0:0:0:
233,258,181915,2,0,P|238:316|238:358,1,73.789998874054,10|10,0:3|0:0,0:0:0:0:
236,353,182244,1,8,0:3:0:0:
236,353,182353,6,0,P|278:367|312:358,1,73.789998874054,10|10,0:3|0:0,0:0:0:0:
384,315,182791,1,10,0:3:0:0:
384,315,182901,1,8,0:3:0:0:
384,315,183010,2,0,P|406:308|431:313,1,36.894999437027,8|8,0:0|0:3,0:0:0:0:
437,313,183229,5,12,0:3:0:0:
495,244,183448,1,10,0:0:0:0:
427,184,183667,2,0,P|385:194|350:195,1,73.789998874054,10|10,0:3|0:0,0:0:0:0:
338,186,183996,2,0,P|296:176|259:175,1,73.789998874054,10|8,0:3|0:3,0:0:0:0:
252,187,184324,1,10,0:0:0:0:
176,201,184543,5,8,0:3:0:0:
176,201,184653,1,8,0:3:0:0:
176,201,184762,2,0,P|167:169|168:147,1,36.894999437027,10|8,0:0|0:3,0:0:0:0:
170,147,184981,5,14,0:3:0:0:
211,71,185200,1,10,0:0:0:0:
135,22,185419,2,0,P|97:14|60:29,1,73.789998874054,10|10,0:3|0:0,0:0:0:0:
59,45,185748,1,8,0:3:0:0:
59,45,185857,6,0,L|71:121,1,73.789998874054,10|10,0:3|0:0,0:0:0:0:
15,181,186295,1,10,0:3:0:0:
15,181,186404,1,8,0:3:0:0:
15,181,186514,2,0,L|7:221,1,36.894999437027,8|8,0:0|0:3,0:0:0:0:
5,235,186733,5,4,1:0:0:0:
71,295,186952,1,10,0:0:0:0:
133,230,187171,2,0,P|167:217|207:226,1,73.789998874054,10|10,0:3|0:0,0:0:0:0:
221,238,187499,1,8,0:3:0:0:
221,238,187609,6,0,P|230:202|218:163,1,73.789998874054,6|10,1:0|0:0,0:0:0:0:
156,117,188047,1,10,0:3:0:0:
156,117,188156,1,8,0:3:0:0:
156,117,188266,2,0,P|158:81|159:56,1,36.894999437027,10|8,0:0|0:3,0:0:0:0:
153,62,188485,5,6,1:0:0:0:
232,16,188704,1,10,0:0:0:0:
296,78,188923,2,0,P|336:96|372:88,1,73.789998874054,10|10,0:3|0:0,0:0:0:0:
382,83,189251,1,8,0:3:0:0:
382,83,189361,5,6,1:0:0:0:
452,147,189580,1,10,0:0:0:0:
392,214,189799,2,0,P|382:253|394:294,1,73.789998874054,10|10,0:3|0:0,0:0:0:0:
407,300,190127,1,8,0:3:0:0:
407,300,190237,5,2,1:0:0:0:
332,365,190456,2,0,L|288:363,1,36.894999437027,8|0,0:0|0:0,0:0:0:0:
276,365,190675,1,2,1:0:0:0:
215,300,190894,2,0,L|172:304,1,36.894999437027,10|0,0:0|0:0,0:0:0:0:
159,304,191113,5,2,1:0:0:0:
90,249,191331,1,8,0:0:0:0:
27,312,191550,1,2,1:0:0:0:
27,312,191660,1,8,0:3:0:0:
27,312,191769,2,0,L|37:366,1,36.894999437027,10|0,0:0|0:0,0:0:0:0:
32,366,191988,6,0,P|66:369|124:376,1,73.789998874054,6|10,1:0|0:0,0:0:0:0:
163,302,192426,1,2,1:0:0:0:
246,342,192645,1,10,0:0:0:0:
302,271,192864,5,2,1:0:0:0:
302,271,192974,1,8,0:0:0:0:
302,271,193083,1,10,0:0:0:0:
219,231,193302,2,0,P|207:195|224:159,1,73.789998874054,10|10,0:0|0:3,0:0:0:0:
274,96,193740,5,10,0:3:0:0:
