osu file format v14

[General]
AudioFilename: audio.mp3
AudioLeadIn: 0
PreviewTime: 133850
Countdown: 0
SampleSet: Soft
StackLeniency: 0.4
Mode: 0
LetterboxInBreaks: 0
WidescreenStoryboard: 1

[Editor]
DistanceSpacing: 0.5
BeatDivisor: 4
GridSize: 32
TimelineZoom: 1.699999

[Metadata]
Title:Lost Umbrella
TitleUnicode:ロストアンブレラ
Artist:rei sirose
ArtistUnicode:rei sirose
Creator:SMOKELIND
Version:Basen's Normal
Source:
Tags:白瀬玲 dustcell ema EM A Kudou Chitose 久遠千歳 Kudo vtuber youtube virtual youtuber Japanese J Rock J-Rock JRock Basensorex Chiga DeRandom Otaku Fuju Agatsu nukunukunigirimeshi ぬくぬくにぎりめし 稲葉曇 inabakumori 歌愛ユキ Kaai Yuki vocaloid
BeatmapID:2886576
BeatmapSetID:1340777

[Difficulty]
HPDrainRate:3.8
CircleSize:3.2
OverallDifficulty:4
ApproachRate:5.6
SliderMultiplier:0.6
SliderTickRate:1

[Events]
//Background and Video events
0,0,"67493108_p0.jpg",0,0
//Break Periods
2,13502,19200
2,59050,60805
2,116860,121681
2,133283,140075
//Storyboard Layer 0 (Background)
//Storyboard Layer 1 (Fail)
//Storyboard Layer 2 (Pass)
//Storyboard Layer 3 (Foreground)
//Storyboard Layer 4 (Overlay)
//Storyboard Sound Samples

[TimingPoints]
1040,218.978102189781,4,2,77,47,1,0
8047,-111.111111111111,4,2,77,57,0,0
12426,-111.111111111111,4,2,77,77,0,0
13302,-111.111111111111,4,2,77,57,0,0
19872,-111.111111111111,4,2,77,57,0,0
20310,-100,4,2,77,77,0,0
34324,-111.111111111111,4,2,77,67,0,0
48339,-100,4,2,77,77,0,0
62353,-90.9090909090909,4,2,77,87,0,1
73740,-90.9090909090909,4,2,77,87,0,1
74616,-100,4,2,77,77,0,0
80748,-100,4,2,77,57,0,0
81623,-100,4,2,77,77,0,0
88631,-100,4,2,77,67,0,0
94981,-100,4,2,77,57,0,0
95200,-100,4,2,77,57,0,0
95638,-100,4,2,77,67,0,0
100894,-100,4,2,77,77,0,0
102645,-111.111111111111,4,2,77,67,0,0
116660,-111.111111111111,4,2,77,57,0,0
123229,-100,4,2,77,57,0,0
123667,-100,4,2,77,77,0,0
140748,-100,4,2,77,47,0,0
141185,-111.111111111111,4,2,77,57,0,0
146003,-111.111111111111,4,2,77,77,0,0
146441,-90.9090909090908,4,2,77,87,0,1
157828,-90.9090909090908,4,2,77,87,0,1
158047,-90.9090909090908,4,2,77,87,0,1
158704,-100,4,2,77,77,0,0
172718,-111.111111111111,4,2,77,67,0,0

[Colours]
Combo1 : 233,233,233
Combo2 : 128,128,128

[HitObjects]
61,332,8047,6,0,L|168:318,1,107.999996704102,6|10,1:0|2:3,2:0:0:0:
264,304,8923,1,10,2:3:0:0:
334,371,9361,1,2,2:0:0:0:
429,353,9799,2,0,P|447:302|441:249,1,107.999996704102,10|10,2:3|2:3,2:0:0:0:
444,151,10675,1,10,2:3:0:0:
372,85,11112,2,0,L|318:91,1,53.9999983520508,2|10,2:0|2:0,2:0:0:0:
280,121,11550,6,0,L|172:107,1,107.999996704102,8|10,2:3|2:3,2:0:0:0:
101,172,12426,1,14,2:0:0:0:
101,172,12645,1,14,2:0:0:0:
141,312,13302,5,6,1:0:0:0:
389,108,20310,6,0,L|396:167,1,60,4|8,1:0|2:0,2:0:0:0:
403,221,20748,1,0,1:0:0:0:
423,326,21185,2,0,B|466:339|466:339|528:320,2,90,0|0|8,1:0|1:0|2:0,2:0:0:0:
380,360,22061,2,0,L|320:367,1,60,0|8,1:0|2:0,2:0:0:0:
267,376,22499,1,0,1:0:0:0:
186,304,22937,2,0,B|110:304|144:338|65:335,1,120,0|8,1:0|2:3,2:0:0:0:
30,311,23593,1,10,2:0:0:0:
30,311,23813,6,0,L|22:251,1,60,0|8,1:0|2:0,2:0:0:0:
13,198,24251,1,0,1:0:0:0:
91,123,24689,2,0,B|98:59|98:59|134:31,2,90,0|0|8,1:0|1:0|2:0,2:0:0:0:
130,160,25565,2,0,L|189:152,1,60,0|8,1:0|2:0,2:0:0:0:
243,146,26003,1,0,1:0:0:0:
299,237,26441,2,0,P|354:262|415:253,1,120,0|10,1:0|2:3,2:0:0:0:
464,236,27097,1,10,2:0:0:0:
464,236,27317,6,0,L|456:176,1,60,4|8,1:0|2:0,2:0:0:0:
446,123,27755,1,0,1:0:0:0:
344,84,28193,2,0,B|330:40|330:40|349:-21,2,90,0|8|8,1:0|2:3|2:0,2:0:0:0:
320,132,29069,2,0,L|260:139,1,60,0|8,1:0|2:0,2:0:0:0:
207,150,29507,1,0,1:0:0:0:
143,62,29945,2,0,P|84:54|30:79,1,120,0|0,1:0|2:0,2:0:0:0:
7,129,30602,1,10,2:0:0:0:
7,129,30821,6,0,L|14:188,1,60,0|8,1:0|2:0,2:0:0:0:
23,242,31259,1,0,1:0:0:0:
113,300,31696,2,0,B|105:363|105:363|133:399,2,90,0|0|8,1:0|1:0|2:0,2:0:0:0:
158,271,32572,2,0,L|217:263,1,60,0|10,1:0|2:0,2:0:0:0:
271,257,33010,1,2,1:0:0:0:
332,345,33448,2,0,B|408:345|374:311|453:314,1,120,14|0,2:0|2:0,2:0:0:0:
489,282,34104,1,8,2:0:0:0:
489,282,34324,6,0,P|481:255|477:229,1,53.9999983520508,4|10,1:0|2:0,2:0:0:0:
446,198,34762,1,10,2:3:0:0:
446,198,34981,2,0,P|455:125|450:75,1,107.999996704102,10|10,2:0|2:0,2:0:0:0:
433,46,35638,1,10,2:3:0:0:
344,87,36076,6,0,P|317:95|291:99,1,53.9999983520508,6|10,1:0|2:0,2:0:0:0:
259,136,36514,2,0,P|232:128|206:124,2,53.9999983520508,10|10|10,2:3|2:0|2:3,2:0:0:0:
286,183,37171,1,10,2:0:0:0:
286,183,37390,1,10,2:3:0:0:
245,272,37828,6,0,P|218:264|192:260,1,53.9999983520508,4|10,1:0|2:0,2:0:0:0:
159,295,38266,1,10,2:3:0:0:
159,295,38485,2,0,P|113:331|59:333,1,107.999996704102,10|10,2:0|2:0,2:0:0:0:
19,317,39142,1,10,2:3:0:0:
6,220,39580,6,0,P|13:193|17:167,1,53.9999983520508,6|10,1:0|2:0,2:0:0:0:
53,134,40018,2,0,P|45:107|41:81,2,53.9999983520508,10|10|10,2:3|2:0|2:3,2:0:0:0:
102,156,40675,1,10,2:0:0:0:
102,156,40894,1,10,2:3:0:0:
180,99,41331,6,0,P|206:91|232:87,1,53.9999983520508,4|10,1:0|2:0,2:0:0:0:
281,83,41769,1,10,2:3:0:0:
335,2,42207,2,0,P|361:9|387:13,1,53.9999983520508,6|10,1:0|2:0,2:0:0:0:
436,16,42645,1,10,2:3:0:0:
501,88,43083,2,0,B|507:169|479:127|489:216,1,107.999996704102,6|10,1:0|2:3,2:0:0:0:
415,259,43959,1,6,1:0:0:0:
345,191,44397,1,10,2:3:0:0:
256,231,44835,6,0,P|226:286|241:335,1,107.999996704102,2|2,1:0|1:0,2:0:0:0:
266,372,45492,1,8,2:0:0:0:
266,372,45711,2,0,P|339:363|389:368,1,107.999996704102,2|2,1:0|1:0,2:0:0:0:
455,313,46587,2,0,P|446:240|451:190,1,107.999996704102,6|2,1:0|1:0,2:0:0:0:
420,173,47244,1,10,2:0:0:0:
420,173,47463,2,0,P|393:180|367:184,1,53.9999983520508,2|10,1:0|2:0,2:0:0:0:
318,183,47901,1,10,2:0:0:0:
237,110,48339,6,0,B|161:111|199:153|118:151,1,120,6|2,1:0|1:0,2:0:0:0:
44,219,49215,2,0,P|28:268|78:332,1,120,2|2,1:0|1:0,2:0:0:0:
165,351,50091,2,0,P|234:341|295:350,1,120,2|2,1:0|1:0,2:0:0:0:
365,276,50967,1,2,1:0:0:0:
296,193,51404,1,2,1:0:0:0:
345,96,51842,6,0,B|379:84|397:66|397:66|422:79|457:80,1,120,2|2,1:0|1:0,2:0:0:0:
509,172,52718,2,0,P|495:233|484:303,1,120,2|2,1:0|1:0,2:0:0:0:
393,345,53594,1,2,1:0:0:0:
300,288,54032,1,2,1:0:0:0:
218,358,54470,2,0,B|140:361|188:321|93:329,1,120,2|2,1:0|1:0,2:0:0:0:
31,249,55346,6,0,P|-1:200|14:144,1,120,6|2,1:0|1:0,2:0:0:0:
40,38,56222,2,0,B|76:44|96:37|96:37|100:49|100:49|122:45|166:51,1,120,2|2,1:0|1:0,2:0:0:0:
252,13,57098,1,2,1:0:0:0:
325,99,57536,1,2,1:0:0:0:
325,99,57755,1,2,1:0:0:0:
268,192,58193,1,2,1:0:0:0:
268,192,58412,2,0,P|259:222|254:253,1,60,2|2,1:0|1:0,2:0:0:0:
258,304,58850,5,0,2:0:0:0:
25,26,61915,6,0,L|104:35,1,60,14|0,2:0|2:0,2:0:0:0:
124,77,62353,6,0,B|175:70|175:70|204:93|204:93|256:86,1,132.00000402832,6|2,1:0|1:0,2:0:0:0:
343,17,63229,2,0,L|422:26,1,66.0000020141602,2|10,1:0|2:0,2:0:0:0:
466,37,63667,1,2,2:0:0:0:
510,146,64105,6,0,P|496:190|495:225,1,66.0000020141602,2|10,1:0|2:0,2:0:0:0:
450,249,64543,2,0,P|464:293|465:328,1,66.0000020141602,2|10,1:0|2:0,2:0:0:0:
429,360,64981,2,0,B|346:367|387:318|286:331,1,132.00000402832,2|2,1:0|2:0,2:0:0:0:
187,308,65857,2,0,B|175:263|160:226|160:226|201:188,1,132.00000402832,2|2,1:0|1:0,2:0:0:0:
309,167,66733,2,0,L|299:87,1,66.0000020141602,2|10,1:0|2:0,2:0:0:0:
294,42,67171,1,2,2:0:0:0:
179,9,67609,6,0,P|135:23|100:24,1,66.0000020141602,2|10,1:0|2:0,2:0:0:0:
55,26,68047,1,2,1:0:0:0:
11,136,68485,1,2,1:0:0:0:
100,213,68923,2,0,L|90:292,1,66.0000020141602,10|10,2:3|2:0,2:0:0:0:
86,337,69361,5,14,2:0:0:0:
195,291,69799,2,0,P|239:305|274:306,1,66.0000020141602,6|10,1:0|2:0,2:0:0:0:
303,345,70237,2,0,P|347:331|382:330,1,66.0000020141602,2|10,1:0|2:0,2:0:0:0:
425,339,70674,1,2,2:0:0:0:
509,255,71112,6,0,L|499:175,1,66.0000020141602,2|10,1:0|2:0,2:0:0:0:
447,162,71550,2,0,L|456:82,1,66.0000020141602,2|10,1:0|2:0,2:0:0:0:
422,46,71988,2,0,P|367:13|298:38,1,132.00000402832,2|2,1:0|2:0,2:0:0:0:
241,131,72864,6,0,B|203:127|181:108|181:108|150:121|99:111,1,132.00000402832,0|10,1:0|2:3,2:0:0:0:
30,196,73740,2,0,P|44:240|45:275,1,66.0000020141602,6|6,1:0|1:0,2:0:0:0:
50,319,74178,1,2,2:0:0:0:
144,372,74616,6,0,L|223:362,1,60,6|8,1:0|2:0,2:0:0:0:
257,357,75054,1,0,1:0:0:0:
328,275,75492,2,0,B|371:261|371:261|433:280,2,90,0|0|8,1:0|1:0|2:0,2:0:0:0:
281,247,76368,2,0,L|271:167,1,60,0|8,1:0|2:0,2:0:0:0:
268,133,76806,1,0,1:0:0:0:
327,42,77244,2,0,B|403:42|369:76|448:73,1,120,2|0,1:0|2:0,2:0:0:0:
497,65,77901,1,10,2:0:0:0:
497,65,78120,6,0,L|487:144,1,60,2|8,1:0|2:0,2:0:0:0:
481,178,78558,1,0,1:0:0:0:
390,236,78996,2,0,B|382:299|382:299|410:335,2,90,0|0|8,1:0|1:0|2:0,2:0:0:0:
346,204,79872,2,0,L|266:213,1,60,2|8,1:0|2:0,2:0:0:0:
233,221,80310,1,0,1:0:0:0:
239,328,80748,2,0,P|171:376|93:316,1,180,0|8,1:0|2:3,2:0:0:0:
107,276,81623,6,0,L|116:196,1,60,4|8,1:0|2:0,2:0:0:0:
156,182,82061,1,0,1:0:0:0:
85,101,82499,2,0,B|41:87|41:87|-20:106,2,90,0|8|8,1:0|2:3|2:0,2:0:0:0:
125,64,83375,2,0,L|204:54,1,60,0|8,1:0|2:0,2:0:0:0:
238,48,83813,1,0,1:0:0:0:
308,129,84251,2,0,B|384:129|350:95|429:98,1,120,2|0,1:0|2:0,2:0:0:0:
476,117,84908,1,10,2:0:0:0:
476,117,85127,6,0,L|466:196,1,60,2|8,1:0|2:0,2:0:0:0:
462,230,85564,1,0,1:0:0:0:
379,300,86003,2,0,B|386:363|386:363|358:399,2,90,0|0|10,1:0|1:0|2:0,2:0:0:0:
336,266,86879,2,0,L|256:256,1,60,0|8,1:0|2:0,2:0:0:0:
222,254,87316,1,0,1:0:0:0:
145,331,87755,2,0,P|86:334|44:294,1,120,4|10,1:0|2:0,2:0:0:0:
35,245,88412,1,8,2:3:0:0:
35,245,88631,6,0,P|46:181|49:105,1,120,4|8,1:0|2:3,2:0:0:0:
125,49,89507,1,8,2:3:0:0:
189,97,89835,2,0,P|235:115|281:113,1,90,8|8,2:3|2:0,2:0:0:0:
322,141,90383,2,0,P|347:128|384:123,2,60,8|8|8,2:3|2:0|2:3,2:0:0:0:
251,222,91258,1,8,2:3:0:0:
170,228,91587,2,0,P|152:274|154:320,1,90,8|8,2:3|2:0,2:0:0:0:
178,361,92134,6,0,B|256:364|223:327|296:332,1,120,8|8,2:3|2:3,2:0:0:0:
395,360,93009,1,8,2:3:0:0:
465,318,93339,2,0,P|468:252|474:228,1,90,8|8,2:3|2:0,2:0:0:0:
441,185,93886,2,0,P|436:155|422:128,2,60,8|8|8,2:3|2:0|2:3,2:0:0:0:
363,260,94761,1,8,2:3:0:0:
270,204,95200,1,10,2:0:0:0:
192,279,95638,6,0,P|205:305|210:335,2,60,4|8|8,1:0|2:0|2:3,2:0:0:0:
84,263,96514,1,8,2:3:0:0:
31,201,96842,2,0,P|34:135|40:111,1,90,8|8,2:3|2:0,2:0:0:0:
58,61,97390,6,0,L|137:51,1,60,8|8,2:3|2:0,2:0:0:0:
171,46,97828,1,8,2:3:0:0:
245,123,98266,1,8,2:3:0:0:
311,76,98594,2,0,P|355:67|399:67,1,90,8|8,2:3|2:0,2:0:0:0:
453,77,99142,6,0,P|466:50|471:20,2,60,8|8|8,2:3|2:0|2:3,2:0:0:0:
508,169,100018,1,8,2:3:0:0:
481,245,100346,2,0,P|436:236|392:236,1,90,8|8,2:3|2:0,2:0:0:0:
339,248,100894,6,0,L|259:238,1,60,6|10,1:0|2:0,2:0:0:0:
225,236,101332,1,10,2:0:0:0:
130,288,101770,1,2,1:0:0:0:
158,363,102098,2,0,P|202:354|246:354,1,90,10|2,2:0|1:0,2:0:0:0:
291,335,102645,6,0,P|318:343|344:347,1,53.9999983520508,4|10,1:0|2:0,2:0:0:0:
395,345,103083,1,10,2:3:0:0:
395,345,103302,2,0,P|404:272|399:222,1,107.999996704102,10|10,2:0|2:0,2:0:0:0:
390,190,103959,1,10,2:3:0:0:
468,132,104397,6,0,P|460:105|456:79,1,53.9999983520508,6|10,1:0|2:0,2:0:0:0:
413,55,104835,2,0,P|421:28|425:2,2,53.9999983520508,10|10|10,2:3|2:0|2:3,2:0:0:0:
373,81,105492,1,10,2:0:0:0:
373,81,105711,1,10,2:3:0:0:
282,117,106149,6,0,P|255:112|229:105,1,53.9999983520508,4|10,1:0|2:0,2:0:0:0:
196,77,106587,1,10,2:3:0:0:
196,77,106806,2,0,P|141:78|105:115,1,107.999996704102,10|10,2:0|2:0,2:0:0:0:
85,158,107463,1,10,2:3:0:0:
16,226,107901,6,0,P|24:253|28:279,1,53.9999983520508,6|10,1:0|2:0,2:0:0:0:
61,314,108339,2,0,P|53:341|49:367,2,53.9999983520508,10|10|10,2:3|2:0|2:3,2:0:0:0:
112,308,108996,1,10,2:0:0:0:
112,308,109215,1,10,2:3:0:0:
195,358,109653,6,0,P|222:366|248:370,1,53.9999983520508,4|10,1:0|2:0,2:0:0:0:
295,362,110090,1,10,2:3:0:0:
347,280,110529,2,0,P|374:272|400:268,1,53.9999983520508,6|10,1:0|2:0,2:0:0:0:
447,274,110966,1,10,2:3:0:0:
495,189,111404,2,0,B|498:121|478:149|481:78,1,107.999996704102,6|10,1:0|2:3,2:0:0:0:
397,32,112280,1,6,1:0:0:0:
326,98,112718,1,10,2:3:0:0:
245,43,113156,6,0,P|190:13|141:28,1,107.999996704102,2|2,1:0|1:0,2:0:0:0:
116,60,113813,1,10,2:0:0:0:
116,60,114032,2,0,P|105:133|102:178,1,107.999996704102,2|2,1:0|1:0,2:0:0:0:
18,216,114908,2,0,P|29:289|32:334,1,107.999996704102,6|2,1:0|1:0,2:0:0:0:
73,357,115565,1,10,2:0:0:0:
73,357,115784,2,0,P|100:350|126:346,1,53.9999983520508,2|10,1:0|2:3,2:0:0:0:
174,349,116222,1,10,2:0:0:0:
234,272,116660,5,6,2:0:0:0:
129,211,122791,5,0,1:0:0:0:
171,310,123229,2,0,L|230:317,1,60,8|8,2:0|2:3,2:0:0:0:
262,360,123667,6,0,P|321:351|389:344,1,120,12|10,2:3|2:3,2:0:0:0:
452,263,124543,1,14,2:3:0:0:
368,194,124981,1,10,2:3:0:0:
419,98,125419,2,0,P|461:104|482:110,2,60,14|10|10,2:3|2:0|2:3,2:0:0:0:
349,15,126295,2,0,L|289:22,1,60,14|10,2:3|2:0,2:0:0:0:
235,30,126733,1,10,2:3:0:0:
187,127,127171,6,0,B|118:130|151:96|69:103,1,120,12|10,2:3|2:3,2:0:0:0:
11,192,128047,1,14,2:3:0:0:
100,252,128485,1,10,2:0:0:0:
60,352,128923,2,0,P|30:359|2:362,2,60,14|10|10,2:3|2:0|2:3,2:0:0:0:
165,375,129799,2,0,P|224:366|292:359,1,120,2|8,1:0|2:3,2:0:0:0:
356,279,130675,6,0,P|357:217|305:176,1,120,6|0,1:0|1:0,2:0:0:0:
263,85,131550,1,8,2:3:0:0:
309,18,131879,2,0,P|357:29|404:29,1,90,8|10,2:3|2:0,2:0:0:0:
451,22,132426,2,0,L|458:81,1,60,6|4,1:0|1:0,2:0:0:0:
470,139,132864,1,4,1:0:0:0:
470,139,133083,1,4,1:0:0:0:
260,16,141185,6,0,B|229:26|212:43|212:43|190:31|158:30,1,107.999996704102,8|8,2:3|2:0,2:0:0:0:
98,104,142061,2,0,P|117:158|125:216,1,107.999996704102,8|8,2:3|2:0,2:0:0:0:
88,298,142937,1,8,2:3:0:0:
160,362,143375,1,8,2:0:0:0:
247,318,143813,2,0,B|321:310|291:342|355:337,1,107.999996704102,0|8,1:0|2:0,2:0:0:0:
439,296,144689,5,8,2:3:0:0:
506,18,146003,1,10,2:3:0:0:
506,18,146222,1,10,2:3:0:0:
506,18,146441,6,0,L|427:27,1,66.0000020141602,6|8,1:0|2:0,2:0:0:0:
407,74,146879,2,0,L|328:65,1,66.0000020141602,2|8,1:0|2:0,2:0:0:0:
282,56,147317,1,2,1:0:0:0:
195,137,147755,1,2,2:0:0:0:
104,60,148193,6,0,P|43:76|17:147,1,132.00000402832,2|2,1:0|1:0,2:0:0:0:
19,198,148850,1,10,2:0:0:0:
19,198,149069,2,0,P|30:248|29:287,1,66.0000020141602,2|10,1:0|2:0,2:0:0:0:
30,322,149507,1,2,2:0:0:0:
141,363,149945,6,0,B|222:367|190:329|267:330,1,132.00000402832,2|2,1:0|1:0,2:0:0:0:
315,295,150602,1,10,2:0:0:0:
315,295,150821,2,0,P|365:306|404:305,1,66.0000020141602,2|10,1:0|2:0,2:0:0:0:
439,304,151259,1,2,2:0:0:0:
506,206,151696,6,0,L|497:127,1,66.0000020141602,2|10,1:0|2:0,2:0:0:0:
486,81,152134,2,0,P|436:70|397:71,1,66.0000020141602,2|10,1:0|2:0,2:0:0:0:
375,30,152572,2,0,P|325:41|286:40,1,66.0000020141602,2|10,1:0|2:3,2:0:0:0:
251,34,153010,1,8,2:3:0:0:
185,132,153448,5,12,2:0:0:0:
262,221,153886,1,6,1:0:0:0:
223,333,154324,2,0,P|173:322|134:323,1,66.0000020141602,2|10,1:0|2:0,2:0:0:0:
100,336,154762,1,2,2:0:0:0:
25,243,155200,6,0,B|13:198|-2:161|-2:161|39:123,1,132.00000402832,2|2,1:0|1:0,2:0:0:0:
83,98,155857,1,10,2:0:0:0:
83,98,156076,2,0,P|133:109|172:108,1,66.0000020141602,2|10,1:0|2:0,2:0:0:0:
207,105,156514,1,2,2:0:0:0:
285,16,156952,6,0,B|323:20|345:39|345:39|376:26|427:36,1,132.00000402832,0|10,1:0|2:3,2:0:0:0:
472,53,157609,1,10,2:3:0:0:
472,53,157828,2,0,L|462:132,1,66.0000020141602,6|6,1:0|1:0,2:0:0:0:
456,177,158266,1,2,2:0:0:0:
501,274,158704,6,0,P|468:330|405:336,1,120,6|0,1:0|1:0,2:0:0:0:
321,289,159580,2,0,P|334:233|331:179,1,90,0|0,1:0|1:0,2:0:0:0:
318,125,160237,1,8,2:0:0:0:
318,125,160456,2,0,B|247:132|272:89|183:102,1,120,0|0,1:0|1:0,2:0:0:0:
123,27,161331,2,0,P|66:42|39:96,1,120,0|2,1:0|2:0,2:0:0:0:
38,151,161988,1,10,2:0:0:0:
38,151,162207,6,0,P|50:199|51:220,1,60,0|8,1:0|2:0,2:0:0:0:
55,263,162645,1,0,1:0:0:0:
138,331,163083,2,0,P|188:313|262:318,1,120,0|0,1:0|2:0,2:0:0:0:
311,311,163740,1,8,2:0:0:0:
311,311,163959,6,0,P|359:323|380:324,1,60,0|8,1:0|2:0,2:0:0:0:
423,316,164397,1,0,1:0:0:0:
509,250,164835,2,0,P|514:194|497:154,1,90,0|0,1:0|1:0,2:0:0:0:
443,115,165492,1,8,2:0:0:0:
443,115,165711,6,0,B|372:108|397:151|308:138,1,120,4|2,1:0|1:0,2:0:0:0:
231,189,166587,2,0,P|167:171|106:170,1,120,0|2,1:0|2:0,2:0:0:0:
64,181,167244,1,10,2:0:0:0:
64,181,167463,2,0,P|25:228|33:286,1,120,0|0,1:0|1:0,2:0:0:0:
91,373,168339,2,0,P|155:355|216:354,1,120,0|0,1:0|2:0,2:0:0:0:
255,323,168996,1,10,2:0:0:0:
255,323,169215,6,0,P|258:293|267:264,1,60,0|8,1:0|2:0,2:0:0:0:
288,214,169653,1,0,1:0:0:0:
192,162,170091,2,0,B|185:91|219:123|208:32,1,120,0|0,1:0|2:0,2:0:0:0:
252,11,170748,1,8,2:0:0:0:
252,11,170967,2,0,P|280:19|310:23,1,60,0|8,1:0|2:0,2:0:0:0:
364,19,171405,1,0,1:0:0:0:
462,62,171842,2,0,P|489:98|486:152,1,90,8|8,2:0|2:3,2:0:0:0:
443,254,172718,6,0,L|379:246,1,53.9999983520508,12|8,2:3|2:0,2:0:0:0:
340,241,173156,1,10,2:3:0:0:
286,159,173594,2,0,B|249:163|249:163|226:178|226:178|177:184,1,107.999996704102,8|8,2:3|2:3,2:0:0:0:
94,142,174470,2,0,L|87:88,1,53.9999983520508,12|8,2:3|2:0,2:0:0:0:
81,39,174908,1,8,2:3:0:0:
174,5,175346,1,8,2:3:0:0:
174,5,175565,2,0,B|243:-4|212:31|287:25,1,107.999996704102,10|10,2:0|2:0,2:0:0:0:
313,58,176222,6,0,L|366:51,1,53.9999983520508,12|8,2:3|2:0,2:0:0:0:
415,44,176660,1,8,2:3:0:0:
482,113,177098,2,0,P|464:164|467:228,1,107.999996704102,8|8,2:3|2:3,2:0:0:0:
477,313,177974,2,0,L|423:319,1,53.9999983520508,12|8,2:3|2:0,2:0:0:0:
375,327,178412,1,8,2:3:0:0:
320,253,178850,1,8,2:3:0:0:
320,253,179069,2,0,P|270:230|218:241,1,107.999996704102,10|10,2:0|2:0,2:0:0:0:
177,264,179726,6,0,L|123:257,1,53.9999983520508,12|10,2:3|2:0,2:0:0:0:
78,256,180164,1,10,2:3:0:0:
78,256,180383,2,0,B|84:185|50:218|60:136,1,107.999996704102,10|10,2:0|2:0,2:0:0:0:
67,104,181040,1,8,2:3:0:0:
146,48,181477,6,0,P|173:55|199:59,1,53.9999983520508,14|10,2:3|2:0,2:0:0:0:
232,94,181915,2,0,P|259:86|285:82,2,53.9999983520508,10|10|10,2:3|2:0|2:3,2:0:0:0:
213,141,182572,1,10,2:0:0:0:
213,141,182791,1,10,2:3:0:0:
259,226,183229,6,0,P|266:253|270:279,1,53.9999983520508,12|10,2:3|2:0,2:0:0:0:
287,330,183668,1,10,2:3:0:0:
287,330,183886,2,0,B|356:334|324:298|396:301,1,107.999996704102,10|10,2:0|2:0,2:0:0:0:
434,314,184544,1,8,2:3:0:0:
500,243,184981,6,0,P|493:216|489:190,1,53.9999983520508,14|10,2:3|2:0,2:0:0:0:
454,156,185419,2,0,P|462:129|466:103,2,53.9999983520508,10|10|10,2:3|2:0|2:3,2:0:0:0:
411,175,186076,1,10,2:0:0:0:
411,175,186295,1,10,2:3:0:0:
351,98,186733,6,0,P|324:91|298:87,1,53.9999983520508,4|10,1:0|2:0,2:0:0:0:
249,85,187172,1,10,2:3:0:0:
179,16,187609,2,0,P|152:23|126:27,1,53.9999983520508,6|10,1:0|2:0,2:0:0:0:
77,29,188048,1,10,2:3:0:0:
31,114,188485,2,0,P|50:179|57:237,1,107.999996704102,6|10,1:0|2:3,2:0:0:0:
65,315,189361,1,6,1:0:0:0:
156,347,189799,1,10,2:3:0:0:
224,277,190237,6,0,P|279:247|328:262,1,107.999996704102,2|2,1:0|1:0,2:0:0:0:
367,283,190894,1,10,2:0:0:0:
367,283,191113,2,0,P|440:274|490:279,1,107.999996704102,2|2,1:0|1:0,2:0:0:0:
508,185,191988,2,0,P|499:112|504:62,1,107.999996704102,6|2,1:0|1:0,2:0:0:0:
482,38,192646,1,10,2:0:0:0:
482,38,192864,2,0,P|455:45|429:49,1,53.9999983520508,2|10,1:0|2:0,2:0:0:0:
381,38,193303,1,10,2:0:0:0:
327,118,193740,5,10,2:3:0:0:
