osu file format v14

[General]
AudioFilename: audio.mp3
AudioLeadIn: 0
PreviewTime: 61108
Countdown: 0
SampleSet: Normal
StackLeniency: 0.7
Mode: 3
LetterboxInBreaks: 0
SpecialStyle: 0
WidescreenStoryboard: 1

[Editor]
DistanceSpacing: 0.8
BeatDivisor: 4
GridSize: 32
TimelineZoom: 1.1

[Metadata]
Title:Lost Umbrella (Cut Ver.)
TitleUnicode:ロストアンブレラ (Cut Ver.)
Artist:rei sirose
ArtistUnicode:白瀬玲
Creator:Monheim
Version:Another
Source:
Tags:inabakumori j-rock indie pop rock alternative STEPDWI chordjacks jacks stamina アンチサイクロン Anticyclone The Voc@loid M@ster #774 Etterna Explosion Excitepack 2 Maxim-Miau Maxim Miau Civilization japanese NoNameSteMani
BeatmapID:3586533
BeatmapSetID:1751372

[Difficulty]
HPDrainRate:8
CircleSize:4
OverallDifficulty:8
ApproachRate:5
SliderMultiplier:1.4
SliderTickRate:1

[Events]
//Background and Video events
0,0,"bg.png",0,0
//Break Periods
//Storyboard Layer 0 (Background)
//Storyboard Layer 1 (Fail)
//Storyboard Layer 2 (Pass)
//Storyboard Layer 3 (Foreground)
//Storyboard Layer 4 (Overlay)
//Storyboard Sound Samples

[TimingPoints]
233,437.956204,4,1,1,30,1,0
61546,-100,4,1,1,30,0,1
73371,-100,4,1,1,30,0,0
73809,-100,4,1,1,30,0,1
87276,-100,4,1,1,30,0,0

[HitObjects]
320,192,233,5,0,0:0:0:0:
448,192,233,1,0,0:0:0:0:
448,192,1108,1,0,0:0:0:0:
64,192,1108,1,0,0:0:0:0:
192,192,1984,1,0,0:0:0:0:
64,192,1984,1,0,0:0:0:0:
448,192,3736,1,0,0:0:0:0:
320,192,3736,1,0,0:0:0:0:
448,192,4612,1,0,0:0:0:0:
64,192,4612,1,0,0:0:0:0:
192,192,5488,1,0,0:0:0:0:
64,192,5488,1,0,0:0:0:0:
320,192,7240,1,0,0:0:0:0:
448,192,7240,1,0,0:0:0:0:
192,192,7459,1,0,0:0:0:0:
448,192,7678,1,0,0:0:0:0:
320,192,7787,1,0,0:0:0:0:
192,192,7897,1,0,0:0:0:0:
448,192,8116,1,0,0:0:0:0:
64,192,8116,1,0,0:0:0:0:
192,192,8335,1,0,0:0:0:0:
320,192,8444,1,0,0:0:0:0:
320,192,8663,1,0,0:0:0:0:
192,192,8773,1,0,0:0:0:0:
64,192,8992,1,0,0:0:0:0:
192,192,8992,1,0,0:0:0:0:
320,192,9211,1,0,0:0:0:0:
64,192,9430,1,0,0:0:0:0:
192,192,9539,1,0,0:0:0:0:
320,192,9649,1,0,0:0:0:0:
64,192,9868,1,0,0:0:0:0:
320,192,10087,1,0,0:0:0:0:
192,192,10196,1,0,0:0:0:0:
192,192,10415,1,0,0:0:0:0:
320,192,10524,1,0,0:0:0:0:
320,192,10743,1,0,0:0:0:0:
448,192,10743,1,0,0:0:0:0:
192,192,10962,1,0,0:0:0:0:
448,192,11181,1,0,0:0:0:0:
320,192,11291,1,0,0:0:0:0:
192,192,11400,1,0,0:0:0:0:
64,192,11619,1,0,0:0:0:0:
448,192,11619,1,0,0:0:0:0:
320,192,11619,1,0,0:0:0:0:
448,192,11838,1,0,0:0:0:0:
64,192,11838,1,0,0:0:0:0:
320,192,11838,1,0,0:0:0:0:
448,192,12495,1,0,0:0:0:0:
64,192,12495,1,0,0:0:0:0:
192,192,12714,1,0,0:0:0:0:
320,192,12933,1,0,0:0:0:0:
320,192,13152,1,0,0:0:0:0:
320,192,13262,1,0,0:0:0:0:
64,192,13371,1,0,0:0:0:0:
320,192,13700,1,0,0:0:0:0:
448,192,14028,1,0,0:0:0:0:
64,192,14247,1,0,0:0:0:0:
192,192,14466,1,0,0:0:0:0:
320,192,14685,1,0,0:0:0:0:
320,192,14904,1,0,0:0:0:0:
320,192,15014,1,0,0:0:0:0:
448,192,15123,1,0,0:0:0:0:
448,192,15342,1,0,0:0:0:0:
320,192,15451,1,0,0:0:0:0:
320,192,15670,1,0,0:0:0:0:
192,192,15780,1,0,0:0:0:0:
64,192,15999,1,0,0:0:0:0:
192,192,16218,1,0,0:0:0:0:
320,192,16437,1,0,0:0:0:0:
320,192,16656,1,0,0:0:0:0:
320,192,16765,1,0,0:0:0:0:
64,192,16875,1,0,0:0:0:0:
320,192,17203,1,0,0:0:0:0:
448,192,17532,1,0,0:0:0:0:
64,192,17751,1,0,0:0:0:0:
192,192,17970,1,0,0:0:0:0:
320,192,18189,1,0,0:0:0:0:
192,192,18408,1,0,0:0:0:0:
192,192,18517,1,0,0:0:0:0:
448,192,18627,1,0,0:0:0:0:
64,192,19503,1,0,0:0:0:0:
192,192,19503,1,0,0:0:0:0:
448,192,19503,1,0,0:0:0:0:
64,192,19612,1,0,0:0:0:0:
320,192,19722,1,0,0:0:0:0:
448,192,19722,1,0,0:0:0:0:
192,192,19722,1,0,0:0:0:0:
320,192,19831,1,0,0:0:0:0:
192,192,19941,1,0,0:0:0:0:
448,192,19941,1,0,0:0:0:0:
64,192,19941,1,0,0:0:0:0:
192,192,20050,1,0,0:0:0:0:
64,192,20160,1,0,0:0:0:0:
320,192,20160,1,0,0:0:0:0:
448,192,20160,1,0,0:0:0:0:
192,192,20269,1,0,0:0:0:0:
64,192,20378,1,0,0:0:0:0:
320,192,20378,1,0,0:0:0:0:
448,192,20378,1,0,0:0:0:0:
320,192,20488,1,0,0:0:0:0:
320,192,20597,1,0,0:0:0:0:
64,192,20597,1,0,0:0:0:0:
192,192,20707,1,0,0:0:0:0:
448,192,20707,1,0,0:0:0:0:
64,192,20707,1,0,0:0:0:0:
192,192,20816,1,0,0:0:0:0:
320,192,20926,1,0,0:0:0:0:
64,192,20926,1,0,0:0:0:0:
448,192,21035,1,0,0:0:0:0:
192,192,21035,1,0,0:0:0:0:
320,192,21035,1,0,0:0:0:0:
64,192,21254,1,0,0:0:0:0:
192,192,21254,1,0,0:0:0:0:
448,192,21254,1,0,0:0:0:0:
64,192,21364,1,0,0:0:0:0:
320,192,21473,1,0,0:0:0:0:
448,192,21473,1,0,0:0:0:0:
192,192,21473,1,0,0:0:0:0:
320,192,21583,1,0,0:0:0:0:
192,192,21692,1,0,0:0:0:0:
448,192,21692,1,0,0:0:0:0:
64,192,21692,1,0,0:0:0:0:
192,192,21802,1,0,0:0:0:0:
64,192,21911,1,0,0:0:0:0:
320,192,21911,1,0,0:0:0:0:
448,192,21911,1,0,0:0:0:0:
192,192,22021,1,0,0:0:0:0:
64,192,22130,1,0,0:0:0:0:
320,192,22130,1,0,0:0:0:0:
448,192,22130,1,0,0:0:0:0:
320,192,22240,1,0,0:0:0:0:
64,192,22349,1,0,0:0:0:0:
320,192,22349,1,0,0:0:0:0:
192,192,22459,1,0,0:0:0:0:
448,192,22459,1,0,0:0:0:0:
64,192,22459,1,0,0:0:0:0:
192,192,22568,1,0,0:0:0:0:
192,192,22678,1,0,0:0:0:0:
448,192,22678,1,0,0:0:0:0:
448,192,22787,1,0,0:0:0:0:
320,192,22787,1,0,0:0:0:0:
64,192,22787,1,0,0:0:0:0:
448,192,23006,1,0,0:0:0:0:
320,192,23006,1,0,0:0:0:0:
64,192,23006,1,0,0:0:0:0:
448,192,23116,1,0,0:0:0:0:
192,192,23225,1,0,0:0:0:0:
64,192,23225,1,0,0:0:0:0:
320,192,23225,1,0,0:0:0:0:
192,192,23335,1,0,0:0:0:0:
320,192,23444,1,0,0:0:0:0:
64,192,23444,1,0,0:0:0:0:
448,192,23444,1,0,0:0:0:0:
320,192,23554,1,0,0:0:0:0:
448,192,23663,1,0,0:0:0:0:
192,192,23663,1,0,0:0:0:0:
64,192,23663,1,0,0:0:0:0:
320,192,23773,1,0,0:0:0:0:
448,192,23882,1,0,0:0:0:0:
192,192,23882,1,0,0:0:0:0:
64,192,23882,1,0,0:0:0:0:
192,192,23992,1,0,0:0:0:0:
192,192,24101,1,0,0:0:0:0:
448,192,24101,1,0,0:0:0:0:
320,192,24211,1,0,0:0:0:0:
64,192,24211,1,0,0:0:0:0:
448,192,24211,1,0,0:0:0:0:
320,192,24320,1,0,0:0:0:0:
192,192,24430,1,0,0:0:0:0:
448,192,24430,1,0,0:0:0:0:
64,192,24539,1,0,0:0:0:0:
320,192,24539,1,0,0:0:0:0:
192,192,24539,1,0,0:0:0:0:
448,192,24758,1,0,0:0:0:0:
320,192,24758,1,0,0:0:0:0:
64,192,24758,1,0,0:0:0:0:
448,192,24868,1,0,0:0:0:0:
192,192,24977,1,0,0:0:0:0:
64,192,24977,1,0,0:0:0:0:
320,192,24977,1,0,0:0:0:0:
192,192,25087,1,0,0:0:0:0:
320,192,25196,1,0,0:0:0:0:
64,192,25196,1,0,0:0:0:0:
448,192,25196,1,0,0:0:0:0:
320,192,25305,1,0,0:0:0:0:
448,192,25415,1,0,0:0:0:0:
192,192,25415,1,0,0:0:0:0:
64,192,25415,1,0,0:0:0:0:
320,192,25524,1,0,0:0:0:0:
448,192,25634,1,0,0:0:0:0:
192,192,25634,1,0,0:0:0:0:
64,192,25634,1,0,0:0:0:0:
192,192,25743,1,0,0:0:0:0:
448,192,25853,1,0,0:0:0:0:
192,192,25853,1,0,0:0:0:0:
320,192,25962,1,0,0:0:0:0:
64,192,25962,1,0,0:0:0:0:
448,192,25962,1,0,0:0:0:0:
320,192,26072,1,0,0:0:0:0:
320,192,26181,1,0,0:0:0:0:
64,192,26181,1,0,0:0:0:0:
64,192,26291,1,0,0:0:0:0:
192,192,26291,1,0,0:0:0:0:
448,192,26291,1,0,0:0:0:0:
320,192,26400,1,0,0:0:0:0:
448,192,26400,1,0,0:0:0:0:
448,192,26510,1,0,0:0:0:0:
192,192,26510,1,0,0:0:0:0:
64,192,26510,1,0,0:0:0:0:
64,192,26619,1,0,0:0:0:0:
192,192,26729,1,0,0:0:0:0:
448,192,26729,1,0,0:0:0:0:
320,192,26729,1,0,0:0:0:0:
320,192,26838,1,0,0:0:0:0:
64,192,26948,1,0,0:0:0:0:
448,192,26948,1,0,0:0:0:0:
192,192,26948,1,0,0:0:0:0:
192,192,27057,1,0,0:0:0:0:
448,192,27167,1,0,0:0:0:0:
320,192,27167,1,0,0:0:0:0:
64,192,27167,1,0,0:0:0:0:
192,192,27276,1,0,0:0:0:0:
448,192,27386,1,0,0:0:0:0:
320,192,27386,1,0,0:0:0:0:
64,192,27386,1,0,0:0:0:0:
320,192,27495,1,0,0:0:0:0:
64,192,27605,1,0,0:0:0:0:
320,192,27605,1,0,0:0:0:0:
64,192,27714,1,0,0:0:0:0:
448,192,27714,1,0,0:0:0:0:
192,192,27714,1,0,0:0:0:0:
192,192,27824,1,0,0:0:0:0:
64,192,27933,1,0,0:0:0:0:
320,192,27933,1,0,0:0:0:0:
320,192,28043,1,0,0:0:0:0:
192,192,28043,1,0,0:0:0:0:
448,192,28043,1,0,0:0:0:0:
448,192,28262,1,0,0:0:0:0:
192,192,28262,1,0,0:0:0:0:
64,192,28262,1,0,0:0:0:0:
64,192,28371,1,0,0:0:0:0:
192,192,28481,1,0,0:0:0:0:
448,192,28481,1,0,0:0:0:0:
320,192,28481,1,0,0:0:0:0:
320,192,28590,1,0,0:0:0:0:
64,192,28700,1,0,0:0:0:0:
448,192,28700,1,0,0:0:0:0:
192,192,28700,1,0,0:0:0:0:
192,192,28809,1,0,0:0:0:0:
448,192,28919,1,0,0:0:0:0:
320,192,28919,1,0,0:0:0:0:
64,192,28919,1,0,0:0:0:0:
192,192,29028,1,0,0:0:0:0:
448,192,29138,1,0,0:0:0:0:
320,192,29138,1,0,0:0:0:0:
64,192,29138,1,0,0:0:0:0:
320,192,29247,1,0,0:0:0:0:
320,192,29357,1,0,0:0:0:0:
64,192,29357,1,0,0:0:0:0:
64,192,29466,1,0,0:0:0:0:
448,192,29466,1,0,0:0:0:0:
192,192,29466,1,0,0:0:0:0:
192,192,29576,1,0,0:0:0:0:
448,192,29685,1,0,0:0:0:0:
192,192,29685,1,0,0:0:0:0:
64,192,29795,1,0,0:0:0:0:
320,192,29795,1,0,0:0:0:0:
448,192,29795,1,0,0:0:0:0:
448,192,30014,1,0,0:0:0:0:
320,192,30014,1,0,0:0:0:0:
64,192,30014,1,0,0:0:0:0:
448,192,30123,1,0,0:0:0:0:
192,192,30232,1,0,0:0:0:0:
64,192,30232,1,0,0:0:0:0:
320,192,30232,1,0,0:0:0:0:
192,192,30342,1,0,0:0:0:0:
320,192,30451,1,0,0:0:0:0:
64,192,30451,1,0,0:0:0:0:
448,192,30451,1,0,0:0:0:0:
320,192,30561,1,0,0:0:0:0:
448,192,30670,1,0,0:0:0:0:
192,192,30670,1,0,0:0:0:0:
64,192,30670,1,0,0:0:0:0:
320,192,30780,1,0,0:0:0:0:
448,192,30889,1,0,0:0:0:0:
192,192,30889,1,0,0:0:0:0:
64,192,30889,1,0,0:0:0:0:
192,192,30999,1,0,0:0:0:0:
192,192,31108,1,0,0:0:0:0:
448,192,31108,1,0,0:0:0:0:
320,192,31218,1,0,0:0:0:0:
64,192,31218,1,0,0:0:0:0:
448,192,31218,1,0,0:0:0:0:
320,192,31327,1,0,0:0:0:0:
192,192,31437,1,0,0:0:0:0:
448,192,31437,1,0,0:0:0:0:
64,192,31546,1,0,0:0:0:0:
320,192,31546,1,0,0:0:0:0:
192,192,31546,1,0,0:0:0:0:
448,192,31765,1,0,0:0:0:0:
320,192,31765,1,0,0:0:0:0:
64,192,31765,1,0,0:0:0:0:
448,192,31875,1,0,0:0:0:0:
192,192,31984,1,0,0:0:0:0:
64,192,31984,1,0,0:0:0:0:
320,192,31984,1,0,0:0:0:0:
192,192,32094,1,0,0:0:0:0:
320,192,32203,1,0,0:0:0:0:
64,192,32203,1,0,0:0:0:0:
448,192,32203,1,0,0:0:0:0:
320,192,32313,1,0,0:0:0:0:
448,192,32422,1,0,0:0:0:0:
192,192,32422,1,0,0:0:0:0:
64,192,32422,1,0,0:0:0:0:
320,192,32532,1,0,0:0:0:0:
448,192,32641,1,0,0:0:0:0:
192,192,32641,1,0,0:0:0:0:
64,192,32641,1,0,0:0:0:0:
192,192,32751,1,0,0:0:0:0:
320,192,32751,1,0,0:0:0:0:
192,192,32860,1,0,0:0:0:0:
448,192,32860,1,0,0:0:0:0:
320,192,32970,1,0,0:0:0:0:
448,192,32970,1,0,0:0:0:0:
64,192,32970,1,0,0:0:0:0:
192,192,33079,1,0,0:0:0:0:
320,192,33079,1,0,0:0:0:0:
320,192,33189,1,0,0:0:0:0:
64,192,33189,1,0,0:0:0:0:
192,192,33298,1,0,0:0:0:0:
448,192,33298,1,0,0:0:0:0:
64,192,33298,1,0,0:0:0:0:
448,192,33408,1,0,0:0:0:0:
320,192,33408,1,0,0:0:0:0:
192,192,33517,1,0,0:0:0:0:
64,192,33517,1,0,0:0:0:0:
448,192,33517,1,0,0:0:0:0:
448,192,33736,1,0,0:0:0:0:
192,192,33736,1,0,0:0:0:0:
64,192,33736,1,0,0:0:0:0:
320,192,33955,1,0,0:0:0:0:
320,192,34065,1,0,0:0:0:0:
192,192,34174,1,0,0:0:0:0:
64,192,34174,1,0,0:0:0:0:
64,192,34284,1,0,0:0:0:0:
320,192,34393,1,0,0:0:0:0:
320,192,34503,1,0,0:0:0:0:
192,192,34612,1,0,0:0:0:0:
64,192,34612,1,0,0:0:0:0:
64,192,34722,1,0,0:0:0:0:
320,192,34831,1,0,0:0:0:0:
320,192,34941,1,0,0:0:0:0:
192,192,35050,1,0,0:0:0:0:
64,192,35050,1,0,0:0:0:0:
64,192,35160,1,0,0:0:0:0:
192,192,35269,1,0,0:0:0:0:
320,192,35269,1,0,0:0:0:0:
448,192,35269,1,0,0:0:0:0:
192,192,35488,1,0,0:0:0:0:
320,192,35488,1,0,0:0:0:0:
448,192,35488,1,0,0:0:0:0:
64,192,35707,1,0,0:0:0:0:
64,192,35816,1,0,0:0:0:0:
320,192,35926,1,0,0:0:0:0:
448,192,35926,1,0,0:0:0:0:
448,192,36035,1,0,0:0:0:0:
64,192,36145,1,0,0:0:0:0:
64,192,36254,1,0,0:0:0:0:
320,192,36364,1,0,0:0:0:0:
448,192,36364,1,0,0:0:0:0:
448,192,36473,1,0,0:0:0:0:
64,192,36583,1,0,0:0:0:0:
64,192,36692,1,0,0:0:0:0:
320,192,36802,1,0,0:0:0:0:
448,192,36802,1,0,0:0:0:0:
448,192,36911,1,0,0:0:0:0:
320,192,37021,1,0,0:0:0:0:
64,192,37021,1,0,0:0:0:0:
192,192,37021,1,0,0:0:0:0:
320,192,37240,1,0,0:0:0:0:
192,192,37240,1,0,0:0:0:0:
64,192,37240,1,0,0:0:0:0:
448,192,37459,1,0,0:0:0:0:
448,192,37568,1,0,0:0:0:0:
192,192,37678,1,0,0:0:0:0:
64,192,37678,1,0,0:0:0:0:
192,192,37787,1,0,0:0:0:0:
448,192,37897,1,0,0:0:0:0:
448,192,38006,1,0,0:0:0:0:
64,192,38116,1,0,0:0:0:0:
192,192,38116,1,0,0:0:0:0:
192,192,38225,1,0,0:0:0:0:
448,192,38335,1,0,0:0:0:0:
448,192,38444,1,0,0:0:0:0:
64,192,38554,1,0,0:0:0:0:
192,192,38554,1,0,0:0:0:0:
192,192,38663,1,0,0:0:0:0:
64,192,38773,1,0,0:0:0:0:
448,192,38773,1,0,0:0:0:0:
320,192,38773,1,0,0:0:0:0:
448,192,38992,1,0,0:0:0:0:
64,192,38992,1,0,0:0:0:0:
320,192,38992,1,0,0:0:0:0:
192,192,39211,1,0,0:0:0:0:
192,192,39320,1,0,0:0:0:0:
320,192,39430,1,0,0:0:0:0:
448,192,39430,1,0,0:0:0:0:
320,192,39539,1,0,0:0:0:0:
192,192,39649,1,0,0:0:0:0:
192,192,39758,1,0,0:0:0:0:
320,192,39868,1,0,0:0:0:0:
448,192,39868,1,0,0:0:0:0:
320,192,39977,1,0,0:0:0:0:
192,192,40087,1,0,0:0:0:0:
192,192,40196,1,0,0:0:0:0:
448,192,40305,1,0,0:0:0:0:
320,192,40305,1,0,0:0:0:0:
320,192,40415,1,0,0:0:0:0:
192,192,40524,1,0,0:0:0:0:
64,192,40524,1,0,0:0:0:0:
448,192,40524,1,0,0:0:0:0:
448,192,40743,1,0,0:0:0:0:
192,192,40743,1,0,0:0:0:0:
64,192,40743,1,0,0:0:0:0:
320,192,40962,1,0,0:0:0:0:
320,192,41072,1,0,0:0:0:0:
192,192,41181,1,0,0:0:0:0:
64,192,41181,1,0,0:0:0:0:
64,192,41291,1,0,0:0:0:0:
192,192,41400,1,0,0:0:0:0:
320,192,41400,1,0,0:0:0:0:
448,192,41400,1,0,0:0:0:0:
192,192,41619,1,0,0:0:0:0:
320,192,41619,1,0,0:0:0:0:
448,192,41619,1,0,0:0:0:0:
64,192,41838,1,0,0:0:0:0:
64,192,41948,1,0,0:0:0:0:
320,192,42057,1,0,0:0:0:0:
448,192,42057,1,0,0:0:0:0:
448,192,42167,1,0,0:0:0:0:
320,192,42276,1,0,0:0:0:0:
64,192,42276,1,0,0:0:0:0:
192,192,42276,1,0,0:0:0:0:
320,192,42495,1,0,0:0:0:0:
192,192,42495,1,0,0:0:0:0:
64,192,42495,1,0,0:0:0:0:
448,192,42714,1,0,0:0:0:0:
448,192,42824,1,0,0:0:0:0:
192,192,42933,1,0,0:0:0:0:
64,192,42933,1,0,0:0:0:0:
192,192,43043,1,0,0:0:0:0:
64,192,43152,1,0,0:0:0:0:
448,192,43152,1,0,0:0:0:0:
320,192,43152,1,0,0:0:0:0:
448,192,43371,1,0,0:0:0:0:
64,192,43371,1,0,0:0:0:0:
320,192,43371,1,0,0:0:0:0:
192,192,43590,1,0,0:0:0:0:
192,192,43700,1,0,0:0:0:0:
320,192,43809,1,0,0:0:0:0:
448,192,43809,1,0,0:0:0:0:
320,192,43919,1,0,0:0:0:0:
192,192,44028,1,0,0:0:0:0:
64,192,44028,1,0,0:0:0:0:
448,192,44028,1,0,0:0:0:0:
192,192,44247,1,0,0:0:0:0:
64,192,44247,1,0,0:0:0:0:
64,192,44357,1,0,0:0:0:0:
192,192,44466,1,0,0:0:0:0:
320,192,44466,1,0,0:0:0:0:
448,192,44466,1,0,0:0:0:0:
320,192,44685,1,0,0:0:0:0:
448,192,44685,1,0,0:0:0:0:
448,192,44795,1,0,0:0:0:0:
320,192,44904,1,0,0:0:0:0:
192,192,44904,1,0,0:0:0:0:
64,192,44904,1,0,0:0:0:0:
192,192,45123,1,0,0:0:0:0:
64,192,45123,1,0,0:0:0:0:
192,192,45232,1,0,0:0:0:0:
320,192,45342,1,0,0:0:0:0:
64,192,45342,1,0,0:0:0:0:
448,192,45342,1,0,0:0:0:0:
192,192,45451,1,0,0:0:0:0:
320,192,45561,1,0,0:0:0:0:
448,192,45561,1,0,0:0:0:0:
320,192,45670,1,0,0:0:0:0:
448,192,45780,1,0,0:0:0:0:
192,192,45780,1,0,0:0:0:0:
64,192,45780,1,0,0:0:0:0:
192,192,45999,1,0,0:0:0:0:
320,192,45999,1,0,0:0:0:0:
448,192,45999,1,0,0:0:0:0:
320,192,46108,1,0,0:0:0:0:
192,192,46218,1,0,0:0:0:0:
448,192,46218,1,0,0:0:0:0:
64,192,46218,1,0,0:0:0:0:
192,192,46437,1,0,0:0:0:0:
320,192,46437,1,0,0:0:0:0:
448,192,46437,1,0,0:0:0:0:
448,192,46656,1,0,0:0:0:0:
64,192,46656,1,0,0:0:0:0:
320,192,46656,1,0,0:0:0:0:
448,192,46765,1,0,0:0:0:0:
192,192,46875,1,0,0:0:0:0:
64,192,46875,1,0,0:0:0:0:
320,192,46875,1,0,0:0:0:0:
320,192,47094,1,0,0:0:0:0:
448,192,47094,1,0,0:0:0:0:
64,192,47094,1,0,0:0:0:0:
192,192,47313,1,0,0:0:0:0:
320,192,47313,1,0,0:0:0:0:
64,192,47313,1,0,0:0:0:0:
320,192,47532,1,0,0:0:0:0:
448,192,47532,1,0,0:0:0:0:
192,192,47532,1,0,0:0:0:0:
64,192,47532,1,0,0:0:0:0:
448,192,47751,1,0,0:0:0:0:
448,192,47970,1,0,0:0:0:0:
448,192,48189,1,0,0:0:0:0:
320,192,48408,1,0,0:0:0:0:
192,192,48408,1,0,0:0:0:0:
320,192,48627,1,0,0:0:0:0:
320,192,48846,1,0,0:0:0:0:
320,192,49065,1,0,0:0:0:0:
64,192,49284,1,0,0:0:0:0:
448,192,49284,1,0,0:0:0:0:
64,192,49503,1,0,0:0:0:0:
64,192,49722,1,0,0:0:0:0:
64,192,49941,1,0,0:0:0:0:
192,192,50160,1,0,0:0:0:0:
320,192,50160,1,0,0:0:0:0:
192,192,50378,1,0,0:0:0:0:
192,192,50597,1,0,0:0:0:0:
192,192,50816,1,0,0:0:0:0:
448,192,51035,1,0,0:0:0:0:
64,192,51035,1,0,0:0:0:0:
448,192,51254,1,0,0:0:0:0:
448,192,51473,1,0,0:0:0:0:
448,192,51692,1,0,0:0:0:0:
320,192,51911,1,0,0:0:0:0:
192,192,51911,1,0,0:0:0:0:
320,192,52130,1,0,0:0:0:0:
320,192,52349,1,0,0:0:0:0:
320,192,52568,1,0,0:0:0:0:
64,192,52787,1,0,0:0:0:0:
448,192,52787,1,0,0:0:0:0:
64,192,53006,1,0,0:0:0:0:
64,192,53225,1,0,0:0:0:0:
64,192,53444,1,0,0:0:0:0:
192,192,53663,1,0,0:0:0:0:
320,192,53663,1,0,0:0:0:0:
192,192,53882,1,0,0:0:0:0:
192,192,54101,1,0,0:0:0:0:
192,192,54320,1,0,0:0:0:0:
64,192,54539,1,0,0:0:0:0:
448,192,54539,1,0,0:0:0:0:
448,192,54758,1,0,0:0:0:0:
448,192,54977,1,0,0:0:0:0:
448,192,55196,1,0,0:0:0:0:
320,192,55196,1,0,0:0:0:0:
320,192,55415,1,0,0:0:0:0:
192,192,55415,1,0,0:0:0:0:
320,192,55634,1,0,0:0:0:0:
320,192,55853,1,0,0:0:0:0:
320,192,56072,1,0,0:0:0:0:
448,192,56072,1,0,0:0:0:0:
64,192,56291,1,0,0:0:0:0:
448,192,56291,1,0,0:0:0:0:
64,192,56510,1,0,0:0:0:0:
64,192,56729,1,0,0:0:0:0:
448,192,56729,1,0,0:0:0:0:
64,192,56948,5,0,0:0:0:0:
192,192,56948,1,0,0:0:0:0:
192,192,57167,1,0,0:0:0:0:
320,192,57167,1,0,0:0:0:0:
192,192,57386,1,0,0:0:0:0:
448,192,57386,1,0,0:0:0:0:
192,192,57605,1,0,0:0:0:0:
64,192,57605,1,0,0:0:0:0:
192,192,57824,1,0,0:0:0:0:
448,192,57824,1,0,0:0:0:0:
320,192,58043,5,0,0:0:0:0:
64,192,58919,1,0,0:0:0:0:
448,192,59795,1,0,0:0:0:0:
64,192,61108,1,0,0:0:0:0:
192,192,61108,1,0,0:0:0:0:
320,192,61108,1,0,0:0:0:0:
448,192,61108,1,0,0:0:0:0:
320,192,61546,1,0,0:0:0:0:
448,192,61546,1,0,0:0:0:0:
64,192,61546,1,0,0:0:0:0:
320,192,61656,1,0,0:0:0:0:
448,192,61765,1,0,0:0:0:0:
64,192,61765,1,0,0:0:0:0:
192,192,61875,1,0,0:0:0:0:
320,192,61984,1,0,0:0:0:0:
64,192,61984,1,0,0:0:0:0:
448,192,61984,1,0,0:0:0:0:
448,192,62094,1,0,0:0:0:0:
320,192,62203,1,0,0:0:0:0:
192,192,62203,1,0,0:0:0:0:
64,192,62313,1,0,0:0:0:0:
192,192,62422,1,0,0:0:0:0:
320,192,62422,1,0,0:0:0:0:
448,192,62422,1,0,0:0:0:0:
320,192,62532,1,0,0:0:0:0:
64,192,62532,1,0,0:0:0:0:
192,192,62641,1,0,0:0:0:0:
448,192,62641,1,0,0:0:0:0:
448,192,62751,1,0,0:0:0:0:
192,192,62860,1,0,0:0:0:0:
64,192,62860,1,0,0:0:0:0:
320,192,62860,1,0,0:0:0:0:
64,192,62970,1,0,0:0:0:0:
192,192,63079,1,0,0:0:0:0:
448,192,63079,1,0,0:0:0:0:
64,192,63189,1,0,0:0:0:0:
320,192,63189,1,0,0:0:0:0:
192,192,63298,1,0,0:0:0:0:
64,192,63298,1,0,0:0:0:0:
448,192,63298,1,0,0:0:0:0:
448,192,63408,1,0,0:0:0:0:
320,192,63517,1,0,0:0:0:0:
64,192,63517,1,0,0:0:0:0:
192,192,63627,1,0,0:0:0:0:
64,192,63736,1,0,0:0:0:0:
320,192,63736,1,0,0:0:0:0:
448,192,63736,1,0,0:0:0:0:
320,192,63846,1,0,0:0:0:0:
448,192,63955,1,0,0:0:0:0:
192,192,63955,1,0,0:0:0:0:
64,192,64065,1,0,0:0:0:0:
448,192,64065,1,0,0:0:0:0:
320,192,64174,1,0,0:0:0:0:
192,192,64174,1,0,0:0:0:0:
64,192,64174,1,0,0:0:0:0:
320,192,64284,1,0,0:0:0:0:
192,192,64393,1,0,0:0:0:0:
448,192,64393,1,0,0:0:0:0:
64,192,64503,1,0,0:0:0:0:
192,192,64612,1,0,0:0:0:0:
320,192,64612,1,0,0:0:0:0:
448,192,64612,1,0,0:0:0:0:
192,192,64722,1,0,0:0:0:0:
320,192,64831,1,0,0:0:0:0:
448,192,64831,1,0,0:0:0:0:
64,192,64941,1,0,0:0:0:0:
320,192,65050,1,0,0:0:0:0:
192,192,65050,1,0,0:0:0:0:
448,192,65050,1,0,0:0:0:0:
320,192,65160,1,0,0:0:0:0:
448,192,65269,1,0,0:0:0:0:
64,192,65269,1,0,0:0:0:0:
192,192,65378,1,0,0:0:0:0:
320,192,65378,1,0,0:0:0:0:
448,192,65488,1,0,0:0:0:0:
192,192,65488,1,0,0:0:0:0:
64,192,65488,1,0,0:0:0:0:
320,192,65597,1,0,0:0:0:0:
64,192,65597,1,0,0:0:0:0:
192,192,65707,1,0,0:0:0:0:
448,192,65707,1,0,0:0:0:0:
192,192,65816,1,0,0:0:0:0:
448,192,65926,1,0,0:0:0:0:
64,192,65926,1,0,0:0:0:0:
320,192,65926,1,0,0:0:0:0:
448,192,66035,1,0,0:0:0:0:
320,192,66145,1,0,0:0:0:0:
192,192,66145,1,0,0:0:0:0:
64,192,66254,1,0,0:0:0:0:
448,192,66254,1,0,0:0:0:0:
320,192,66364,1,0,0:0:0:0:
64,192,66364,1,0,0:0:0:0:
192,192,66364,1,0,0:0:0:0:
192,192,66473,1,0,0:0:0:0:
64,192,66583,1,0,0:0:0:0:
448,192,66583,1,0,0:0:0:0:
320,192,66692,1,0,0:0:0:0:
192,192,66692,1,0,0:0:0:0:
64,192,66802,1,0,0:0:0:0:
192,192,66802,1,0,0:0:0:0:
448,192,66802,1,0,0:0:0:0:
448,192,66911,1,0,0:0:0:0:
320,192,67021,1,0,0:0:0:0:
64,192,67021,1,0,0:0:0:0:
192,192,67130,1,0,0:0:0:0:
320,192,67130,1,0,0:0:0:0:
448,192,67240,1,0,0:0:0:0:
192,192,67240,1,0,0:0:0:0:
64,192,67240,1,0,0:0:0:0:
64,192,67349,1,0,0:0:0:0:
192,192,67459,1,0,0:0:0:0:
448,192,67459,1,0,0:0:0:0:
192,192,67568,1,0,0:0:0:0:
320,192,67568,1,0,0:0:0:0:
320,192,67678,1,0,0:0:0:0:
448,192,67678,1,0,0:0:0:0:
64,192,67678,1,0,0:0:0:0:
448,192,67787,1,0,0:0:0:0:
320,192,67897,1,0,0:0:0:0:
64,192,67897,1,0,0:0:0:0:
192,192,68006,1,0,0:0:0:0:
448,192,68006,1,0,0:0:0:0:
320,192,68116,1,0,0:0:0:0:
448,192,68116,1,0,0:0:0:0:
64,192,68116,1,0,0:0:0:0:
64,192,68225,1,0,0:0:0:0:
192,192,68335,1,0,0:0:0:0:
448,192,68335,1,0,0:0:0:0:
320,192,68444,1,0,0:0:0:0:
64,192,68444,1,0,0:0:0:0:
64,192,68554,1,0,0:0:0:0:
192,192,68554,1,0,0:0:0:0:
448,192,68554,1,0,0:0:0:0:
320,192,68882,1,0,0:0:0:0:
64,192,68882,1,0,0:0:0:0:
448,192,68992,1,0,0:0:0:0:
64,192,68992,1,0,0:0:0:0:
192,192,68992,1,0,0:0:0:0:
448,192,69101,1,0,0:0:0:0:
320,192,69211,1,0,0:0:0:0:
192,192,69211,1,0,0:0:0:0:
64,192,69320,1,0,0:0:0:0:
192,192,69430,1,0,0:0:0:0:
320,192,69430,1,0,0:0:0:0:
448,192,69430,1,0,0:0:0:0:
64,192,69539,1,0,0:0:0:0:
320,192,69539,1,0,0:0:0:0:
448,192,69649,1,0,0:0:0:0:
192,192,69649,1,0,0:0:0:0:
448,192,69758,1,0,0:0:0:0:
64,192,69868,1,0,0:0:0:0:
192,192,69868,1,0,0:0:0:0:
320,192,69868,1,0,0:0:0:0:
64,192,69977,1,0,0:0:0:0:
448,192,70087,1,0,0:0:0:0:
192,192,70087,1,0,0:0:0:0:
320,192,70196,1,0,0:0:0:0:
64,192,70305,1,0,0:0:0:0:
448,192,70305,1,0,0:0:0:0:
192,192,70305,1,0,0:0:0:0:
448,192,70415,1,0,0:0:0:0:
320,192,70524,1,0,0:0:0:0:
64,192,70524,1,0,0:0:0:0:
192,192,70634,1,0,0:0:0:0:
64,192,70743,1,0,0:0:0:0:
320,192,70743,1,0,0:0:0:0:
448,192,70743,1,0,0:0:0:0:
320,192,70853,1,0,0:0:0:0:
448,192,70962,1,0,0:0:0:0:
192,192,70962,1,0,0:0:0:0:
64,192,71072,1,0,0:0:0:0:
448,192,71072,1,0,0:0:0:0:
320,192,71181,1,0,0:0:0:0:
192,192,71181,1,0,0:0:0:0:
64,192,71181,1,0,0:0:0:0:
320,192,71291,1,0,0:0:0:0:
64,192,71400,1,0,0:0:0:0:
192,192,71400,1,0,0:0:0:0:
448,192,71510,1,0,0:0:0:0:
192,192,71619,1,0,0:0:0:0:
64,192,71619,1,0,0:0:0:0:
320,192,71619,1,0,0:0:0:0:
320,192,71729,1,0,0:0:0:0:
448,192,71838,1,0,0:0:0:0:
192,192,71838,1,0,0:0:0:0:
64,192,71948,1,0,0:0:0:0:
448,192,71948,1,0,0:0:0:0:
320,192,72057,1,0,0:0:0:0:
192,192,72057,1,0,0:0:0:0:
64,192,72057,1,0,0:0:0:0:
448,192,72167,1,0,0:0:0:0:
192,192,72276,1,0,0:0:0:0:
64,192,72276,1,0,0:0:0:0:
320,192,72386,1,0,0:0:0:0:
448,192,72386,1,0,0:0:0:0:
448,192,72495,1,0,0:0:0:0:
64,192,72495,1,0,0:0:0:0:
192,192,72495,1,0,0:0:0:0:
192,192,72605,1,0,0:0:0:0:
320,192,72605,1,0,0:0:0:0:
64,192,72714,1,0,0:0:0:0:
448,192,72714,1,0,0:0:0:0:
320,192,72824,1,0,0:0:0:0:
64,192,72824,1,0,0:0:0:0:
192,192,72933,1,0,0:0:0:0:
448,192,72933,1,0,0:0:0:0:
320,192,72933,1,0,0:0:0:0:
64,192,73152,1,0,0:0:0:0:
192,192,73152,1,0,0:0:0:0:
320,192,73152,1,0,0:0:0:0:
448,192,73371,1,0,0:0:0:0:
320,192,73809,1,0,0:0:0:0:
448,192,73809,1,0,0:0:0:0:
64,192,73809,1,0,0:0:0:0:
320,192,73919,1,0,0:0:0:0:
192,192,74028,1,0,0:0:0:0:
64,192,74028,1,0,0:0:0:0:
448,192,74028,1,0,0:0:0:0:
192,192,74138,1,0,0:0:0:0:
320,192,74247,1,0,0:0:0:0:
64,192,74247,1,0,0:0:0:0:
448,192,74247,1,0,0:0:0:0:
320,192,74357,1,0,0:0:0:0:
64,192,74466,1,0,0:0:0:0:
320,192,74466,1,0,0:0:0:0:
448,192,74466,1,0,0:0:0:0:
192,192,74576,1,0,0:0:0:0:
448,192,74685,1,0,0:0:0:0:
320,192,74685,1,0,0:0:0:0:
64,192,74685,1,0,0:0:0:0:
192,192,74795,1,0,0:0:0:0:
64,192,74795,1,0,0:0:0:0:
192,192,74904,1,0,0:0:0:0:
320,192,74904,1,0,0:0:0:0:
448,192,74904,1,0,0:0:0:0:
448,192,75014,1,0,0:0:0:0:
64,192,75014,1,0,0:0:0:0:
320,192,75123,1,0,0:0:0:0:
192,192,75123,1,0,0:0:0:0:
64,192,75232,1,0,0:0:0:0:
448,192,75232,1,0,0:0:0:0:
320,192,75342,1,0,0:0:0:0:
64,192,75342,1,0,0:0:0:0:
192,192,75342,1,0,0:0:0:0:
320,192,75451,1,0,0:0:0:0:
192,192,75561,1,0,0:0:0:0:
64,192,75561,1,0,0:0:0:0:
448,192,75561,1,0,0:0:0:0:
192,192,75670,1,0,0:0:0:0:
320,192,75780,1,0,0:0:0:0:
448,192,75780,1,0,0:0:0:0:
64,192,75780,1,0,0:0:0:0:
320,192,75889,1,0,0:0:0:0:
192,192,75999,1,0,0:0:0:0:
448,192,75999,1,0,0:0:0:0:
64,192,75999,1,0,0:0:0:0:
192,192,76108,1,0,0:0:0:0:
448,192,76218,1,0,0:0:0:0:
64,192,76218,1,0,0:0:0:0:
192,192,76218,1,0,0:0:0:0:
320,192,76327,1,0,0:0:0:0:
64,192,76437,1,0,0:0:0:0:
192,192,76437,1,0,0:0:0:0:
448,192,76437,1,0,0:0:0:0:
320,192,76546,1,0,0:0:0:0:
448,192,76546,1,0,0:0:0:0:
320,192,76656,1,0,0:0:0:0:
192,192,76656,1,0,0:0:0:0:
64,192,76656,1,0,0:0:0:0:
64,192,76765,1,0,0:0:0:0:
448,192,76765,1,0,0:0:0:0:
192,192,76875,1,0,0:0:0:0:
320,192,76875,1,0,0:0:0:0:
448,192,76984,1,0,0:0:0:0:
64,192,76984,1,0,0:0:0:0:
192,192,77094,1,0,0:0:0:0:
448,192,77094,1,0,0:0:0:0:
320,192,77094,1,0,0:0:0:0:
192,192,77203,1,0,0:0:0:0:
64,192,77313,1,0,0:0:0:0:
448,192,77313,1,0,0:0:0:0:
320,192,77313,1,0,0:0:0:0:
320,192,77422,1,0,0:0:0:0:
448,192,77532,1,0,0:0:0:0:
64,192,77532,1,0,0:0:0:0:
192,192,77532,1,0,0:0:0:0:
448,192,77641,1,0,0:0:0:0:
64,192,77751,1,0,0:0:0:0:
320,192,77751,1,0,0:0:0:0:
192,192,77751,1,0,0:0:0:0:
320,192,77860,1,0,0:0:0:0:
64,192,77970,1,0,0:0:0:0:
448,192,77970,1,0,0:0:0:0:
320,192,77970,1,0,0:0:0:0:
192,192,78079,1,0,0:0:0:0:
64,192,78189,1,0,0:0:0:0:
320,192,78189,1,0,0:0:0:0:
448,192,78189,1,0,0:0:0:0:
192,192,78298,1,0,0:0:0:0:
64,192,78298,1,0,0:0:0:0:
448,192,78408,1,0,0:0:0:0:
320,192,78408,1,0,0:0:0:0:
192,192,78408,1,0,0:0:0:0:
448,192,78517,1,0,0:0:0:0:
64,192,78517,1,0,0:0:0:0:
192,192,78627,1,0,0:0:0:0:
320,192,78627,1,0,0:0:0:0:
64,192,78736,1,0,0:0:0:0:
448,192,78736,1,0,0:0:0:0:
192,192,78846,1,0,0:0:0:0:
64,192,78846,1,0,0:0:0:0:
320,192,78846,1,0,0:0:0:0:
320,192,78955,1,0,0:0:0:0:
448,192,79065,1,0,0:0:0:0:
64,192,79065,1,0,0:0:0:0:
192,192,79065,1,0,0:0:0:0:
192,192,79174,1,0,0:0:0:0:
64,192,79284,1,0,0:0:0:0:
448,192,79284,1,0,0:0:0:0:
320,192,79284,1,0,0:0:0:0:
64,192,79393,1,0,0:0:0:0:
448,192,79503,1,0,0:0:0:0:
192,192,79503,1,0,0:0:0:0:
320,192,79503,1,0,0:0:0:0:
192,192,79612,1,0,0:0:0:0:
448,192,79722,1,0,0:0:0:0:
192,192,79722,1,0,0:0:0:0:
64,192,79722,1,0,0:0:0:0:
320,192,79831,1,0,0:0:0:0:
448,192,79941,1,0,0:0:0:0:
192,192,79941,1,0,0:0:0:0:
64,192,79941,1,0,0:0:0:0:
320,192,80050,1,0,0:0:0:0:
448,192,80050,1,0,0:0:0:0:
64,192,80160,1,0,0:0:0:0:
192,192,80160,1,0,0:0:0:0:
320,192,80160,1,0,0:0:0:0:
64,192,80269,1,0,0:0:0:0:
448,192,80269,1,0,0:0:0:0:
320,192,80378,1,0,0:0:0:0:
192,192,80378,1,0,0:0:0:0:
448,192,80488,1,0,0:0:0:0:
64,192,80488,1,0,0:0:0:0:
320,192,80597,1,0,0:0:0:0:
448,192,80597,1,0,0:0:0:0:
192,192,80597,1,0,0:0:0:0:
320,192,80816,1,0,0:0:0:0:
448,192,80816,1,0,0:0:0:0:
64,192,80816,1,0,0:0:0:0:
320,192,80926,1,0,0:0:0:0:
192,192,81035,1,0,0:0:0:0:
64,192,81035,1,0,0:0:0:0:
448,192,81035,1,0,0:0:0:0:
192,192,81145,1,0,0:0:0:0:
320,192,81254,1,0,0:0:0:0:
64,192,81254,1,0,0:0:0:0:
448,192,81254,1,0,0:0:0:0:
320,192,81364,1,0,0:0:0:0:
64,192,81473,1,0,0:0:0:0:
448,192,81473,1,0,0:0:0:0:
320,192,81473,1,0,0:0:0:0:
192,192,81583,1,0,0:0:0:0:
448,192,81692,1,0,0:0:0:0:
320,192,81692,1,0,0:0:0:0:
64,192,81692,1,0,0:0:0:0:
192,192,81802,1,0,0:0:0:0:
64,192,81802,1,0,0:0:0:0:
192,192,81911,1,0,0:0:0:0:
320,192,81911,1,0,0:0:0:0:
448,192,81911,1,0,0:0:0:0:
448,192,82021,1,0,0:0:0:0:
64,192,82021,1,0,0:0:0:0:
320,192,82130,1,0,0:0:0:0:
192,192,82130,1,0,0:0:0:0:
64,192,82240,1,0,0:0:0:0:
448,192,82240,1,0,0:0:0:0:
320,192,82349,1,0,0:0:0:0:
64,192,82349,1,0,0:0:0:0:
192,192,82349,1,0,0:0:0:0:
320,192,82459,1,0,0:0:0:0:
192,192,82568,1,0,0:0:0:0:
64,192,82568,1,0,0:0:0:0:
448,192,82568,1,0,0:0:0:0:
192,192,82678,1,0,0:0:0:0:
320,192,82787,1,0,0:0:0:0:
448,192,82787,1,0,0:0:0:0:
64,192,82787,1,0,0:0:0:0:
320,192,82897,1,0,0:0:0:0:
192,192,83006,1,0,0:0:0:0:
448,192,83006,1,0,0:0:0:0:
64,192,83006,1,0,0:0:0:0:
192,192,83116,1,0,0:0:0:0:
448,192,83225,1,0,0:0:0:0:
64,192,83225,1,0,0:0:0:0:
192,192,83225,1,0,0:0:0:0:
320,192,83335,1,0,0:0:0:0:
64,192,83444,1,0,0:0:0:0:
192,192,83444,1,0,0:0:0:0:
448,192,83444,1,0,0:0:0:0:
320,192,83554,1,0,0:0:0:0:
448,192,83554,1,0,0:0:0:0:
320,192,83663,1,0,0:0:0:0:
192,192,83663,1,0,0:0:0:0:
64,192,83663,1,0,0:0:0:0:
64,192,83773,1,0,0:0:0:0:
448,192,83773,1,0,0:0:0:0:
192,192,83882,1,0,0:0:0:0:
320,192,83882,1,0,0:0:0:0:
448,192,83992,1,0,0:0:0:0:
64,192,83992,1,0,0:0:0:0:
192,192,84101,1,0,0:0:0:0:
448,192,84101,1,0,0:0:0:0:
320,192,84101,1,0,0:0:0:0:
192,192,84211,1,0,0:0:0:0:
64,192,84320,1,0,0:0:0:0:
448,192,84320,1,0,0:0:0:0:
320,192,84320,1,0,0:0:0:0:
320,192,84430,1,0,0:0:0:0:
448,192,84539,1,0,0:0:0:0:
64,192,84539,1,0,0:0:0:0:
192,192,84539,1,0,0:0:0:0:
448,192,84649,1,0,0:0:0:0:
64,192,84758,1,0,0:0:0:0:
320,192,84758,1,0,0:0:0:0:
192,192,84758,1,0,0:0:0:0:
320,192,84868,1,0,0:0:0:0:
448,192,84977,1,0,0:0:0:0:
64,192,84977,1,0,0:0:0:0:
320,192,84977,1,0,0:0:0:0:
192,192,85087,1,0,0:0:0:0:
64,192,85196,1,0,0:0:0:0:
320,192,85196,1,0,0:0:0:0:
448,192,85196,1,0,0:0:0:0:
192,192,85305,1,0,0:0:0:0:
64,192,85305,1,0,0:0:0:0:
448,192,85415,1,0,0:0:0:0:
320,192,85415,1,0,0:0:0:0:
192,192,85415,1,0,0:0:0:0:
448,192,85524,1,0,0:0:0:0:
64,192,85524,1,0,0:0:0:0:
192,192,85634,1,0,0:0:0:0:
320,192,85634,1,0,0:0:0:0:
64,192,85743,1,0,0:0:0:0:
448,192,85743,1,0,0:0:0:0:
192,192,85853,1,0,0:0:0:0:
64,192,85853,1,0,0:0:0:0:
320,192,85853,1,0,0:0:0:0:
320,192,85962,1,0,0:0:0:0:
448,192,86072,1,0,0:0:0:0:
64,192,86072,1,0,0:0:0:0:
192,192,86072,1,0,0:0:0:0:
192,192,86181,1,0,0:0:0:0:
64,192,86291,1,0,0:0:0:0:
448,192,86291,1,0,0:0:0:0:
320,192,86291,1,0,0:0:0:0:
64,192,86400,1,0,0:0:0:0:
448,192,86510,1,0,0:0:0:0:
192,192,86510,1,0,0:0:0:0:
320,192,86510,1,0,0:0:0:0:
192,192,86619,1,0,0:0:0:0:
64,192,86729,1,0,0:0:0:0:
448,192,86729,1,0,0:0:0:0:
192,192,86729,1,0,0:0:0:0:
320,192,86838,1,0,0:0:0:0:
448,192,86948,1,0,0:0:0:0:
192,192,86948,1,0,0:0:0:0:
64,192,86948,1,0,0:0:0:0:
320,192,87057,1,0,0:0:0:0:
448,192,87057,1,0,0:0:0:0:
64,192,87167,1,0,0:0:0:0:
192,192,87167,1,0,0:0:0:0:
64,192,87276,1,0,0:0:0:0:
448,192,87276,1,0,0:0:0:0:
320,192,87276,1,0,0:0:0:0:
192,192,87824,1,0,0:0:0:0:
64,192,87824,1,0,0:0:0:0:
448,192,87824,1,0,0:0:0:0:
448,192,87933,1,0,0:0:0:0:
448,192,88043,1,0,0:0:0:0:
192,192,88043,1,0,0:0:0:0:
64,192,88043,1,0,0:0:0:0:
320,192,88262,1,0,0:0:0:0:
320,192,88371,1,0,0:0:0:0:
192,192,88481,1,0,0:0:0:0:
64,192,88481,1,0,0:0:0:0:
64,192,88590,1,0,0:0:0:0:
320,192,88700,1,0,0:0:0:0:
320,192,88809,1,0,0:0:0:0:
192,192,88919,1,0,0:0:0:0:
64,192,88919,1,0,0:0:0:0:
64,192,89028,1,0,0:0:0:0:
320,192,89138,1,0,0:0:0:0:
320,192,89247,1,0,0:0:0:0:
192,192,89357,1,0,0:0:0:0:
64,192,89357,1,0,0:0:0:0:
64,192,89466,1,0,0:0:0:0:
192,192,89576,1,0,0:0:0:0:
320,192,89576,1,0,0:0:0:0:
448,192,89576,1,0,0:0:0:0:
192,192,89685,1,0,0:0:0:0:
192,192,89795,1,0,0:0:0:0:
320,192,89795,1,0,0:0:0:0:
448,192,89795,1,0,0:0:0:0:
64,192,90014,1,0,0:0:0:0:
64,192,90123,1,0,0:0:0:0:
320,192,90232,1,0,0:0:0:0:
448,192,90232,1,0,0:0:0:0:
448,192,90342,1,0,0:0:0:0:
64,192,90451,1,0,0:0:0:0:
64,192,90561,1,0,0:0:0:0:
320,192,90670,1,0,0:0:0:0:
448,192,90670,1,0,0:0:0:0:
448,192,90780,1,0,0:0:0:0:
64,192,90889,1,0,0:0:0:0:
64,192,90999,1,0,0:0:0:0:
320,192,91108,1,0,0:0:0:0:
448,192,91108,1,0,0:0:0:0:
448,192,91218,1,0,0:0:0:0:
320,192,91327,1,0,0:0:0:0:
64,192,91327,1,0,0:0:0:0:
192,192,91327,1,0,0:0:0:0:
320,192,91437,1,0,0:0:0:0:
320,192,91546,1,0,0:0:0:0:
192,192,91546,1,0,0:0:0:0:
64,192,91546,1,0,0:0:0:0:
448,192,91765,1,0,0:0:0:0:
448,192,91875,1,0,0:0:0:0:
192,192,91984,1,0,0:0:0:0:
64,192,91984,1,0,0:0:0:0:
192,192,92094,1,0,0:0:0:0:
448,192,92203,1,0,0:0:0:0:
448,192,92313,1,0,0:0:0:0:
64,192,92422,1,0,0:0:0:0:
192,192,92422,1,0,0:0:0:0:
192,192,92532,1,0,0:0:0:0:
448,192,92641,1,0,0:0:0:0:
448,192,92751,1,0,0:0:0:0:
64,192,92860,1,0,0:0:0:0:
192,192,92860,1,0,0:0:0:0:
192,192,92970,1,0,0:0:0:0:
64,192,93079,1,0,0:0:0:0:
448,192,93079,1,0,0:0:0:0:
320,192,93079,1,0,0:0:0:0:
64,192,93189,1,0,0:0:0:0:
448,192,93298,1,0,0:0:0:0:
64,192,93298,1,0,0:0:0:0:
320,192,93298,1,0,0:0:0:0:
192,192,93517,1,0,0:0:0:0:
192,192,93627,1,0,0:0:0:0:
320,192,93736,1,0,0:0:0:0:
448,192,93736,1,0,0:0:0:0:
320,192,93846,1,0,0:0:0:0:
192,192,93955,1,0,0:0:0:0:
192,192,94065,1,0,0:0:0:0:
320,192,94174,1,0,0:0:0:0:
448,192,94174,1,0,0:0:0:0:
320,192,94284,1,0,0:0:0:0:
192,192,94393,1,0,0:0:0:0:
192,192,94503,1,0,0:0:0:0:
448,192,94612,1,0,0:0:0:0:
320,192,94612,1,0,0:0:0:0:
320,192,94722,1,0,0:0:0:0:
448,192,94831,1,0,0:0:0:0:
64,192,94831,1,0,0:0:0:0:
192,192,94831,1,0,0:0:0:0:
448,192,94941,1,0,0:0:0:0:
64,192,95050,1,0,0:0:0:0:
192,192,95050,1,0,0:0:0:0:
448,192,95050,1,0,0:0:0:0:
320,192,95269,1,0,0:0:0:0:
320,192,95378,1,0,0:0:0:0:
64,192,95488,1,0,0:0:0:0:
192,192,95488,1,0,0:0:0:0:
64,192,95597,1,0,0:0:0:0:
320,192,95707,1,0,0:0:0:0:
320,192,95816,1,0,0:0:0:0:
64,192,95926,1,0,0:0:0:0:
192,192,95926,1,0,0:0:0:0:
64,192,96035,1,0,0:0:0:0:
320,192,96145,1,0,0:0:0:0:
320,192,96254,1,0,0:0:0:0:
64,192,96364,1,0,0:0:0:0:
192,192,96364,1,0,0:0:0:0:
64,192,96473,1,0,0:0:0:0:
448,192,96583,1,0,0:0:0:0:
320,192,96583,1,0,0:0:0:0:
192,192,96583,1,0,0:0:0:0:
192,192,96692,1,0,0:0:0:0:
448,192,96802,1,0,0:0:0:0:
320,192,96802,1,0,0:0:0:0:
192,192,96802,1,0,0:0:0:0:
64,192,97021,1,0,0:0:0:0:
64,192,97130,1,0,0:0:0:0:
448,192,97240,1,0,0:0:0:0:
320,192,97240,1,0,0:0:0:0:
448,192,97349,1,0,0:0:0:0:
64,192,97459,1,0,0:0:0:0:
64,192,97568,1,0,0:0:0:0:
448,192,97678,1,0,0:0:0:0:
320,192,97678,1,0,0:0:0:0:
448,192,97787,1,0,0:0:0:0:
64,192,97897,1,0,0:0:0:0:
64,192,98006,1,0,0:0:0:0:
448,192,98116,1,0,0:0:0:0:
320,192,98116,1,0,0:0:0:0:
448,192,98225,1,0,0:0:0:0:
192,192,98335,1,0,0:0:0:0:
64,192,98335,1,0,0:0:0:0:
320,192,98335,1,0,0:0:0:0:
320,192,98444,1,0,0:0:0:0:
64,192,98554,1,0,0:0:0:0:
192,192,98554,1,0,0:0:0:0:
320,192,98554,1,0,0:0:0:0:
448,192,98773,1,0,0:0:0:0:
448,192,98882,1,0,0:0:0:0:
64,192,98992,1,0,0:0:0:0:
192,192,98992,1,0,0:0:0:0:
192,192,99101,1,0,0:0:0:0:
448,192,99211,1,0,0:0:0:0:
448,192,99320,1,0,0:0:0:0:
192,192,99430,1,0,0:0:0:0:
64,192,99430,1,0,0:0:0:0:
192,192,99539,1,0,0:0:0:0:
448,192,99649,1,0,0:0:0:0:
448,192,99758,1,0,0:0:0:0:
192,192,99868,1,0,0:0:0:0:
64,192,99868,1,0,0:0:0:0:
192,192,99977,1,0,0:0:0:0:
320,192,100087,1,0,0:0:0:0:
448,192,100087,1,0,0:0:0:0:
64,192,100087,1,0,0:0:0:0:
64,192,100196,1,0,0:0:0:0:
320,192,100305,1,0,0:0:0:0:
64,192,100305,1,0,0:0:0:0:
448,192,100305,1,0,0:0:0:0:
192,192,100524,1,0,0:0:0:0:
192,192,100634,1,0,0:0:0:0:
448,192,100743,1,0,0:0:0:0:
320,192,100743,1,0,0:0:0:0:
320,192,100853,1,0,0:0:0:0:
192,192,100962,1,0,0:0:0:0:
192,192,101072,1,0,0:0:0:0:
448,192,101181,1,0,0:0:0:0:
320,192,101181,1,0,0:0:0:0:
320,192,101291,1,0,0:0:0:0:
192,192,101400,1,0,0:0:0:0:
192,192,101510,1,0,0:0:0:0:
320,192,101619,1,0,0:0:0:0:
448,192,101619,1,0,0:0:0:0:
320,192,101729,1,0,0:0:0:0:
192,192,101838,1,0,0:0:0:0:
64,192,101838,1,0,0:0:0:0:
448,192,101838,1,0,0:0:0:0:
448,192,101948,1,0,0:0:0:0:
448,192,102057,1,0,0:0:0:0:
192,192,102057,1,0,0:0:0:0:
64,192,102057,1,0,0:0:0:0:
320,192,102276,1,0,0:0:0:0:
320,192,102386,1,0,0:0:0:0:
192,192,102495,1,0,0:0:0:0:
64,192,102495,1,0,0:0:0:0:
64,192,102605,1,0,0:0:0:0:
192,192,102714,1,0,0:0:0:0:
320,192,102714,1,0,0:0:0:0:
448,192,102714,1,0,0:0:0:0:
192,192,102824,1,0,0:0:0:0:
192,192,102933,1,0,0:0:0:0:
320,192,102933,1,0,0:0:0:0:
448,192,102933,1,0,0:0:0:0:
64,192,103152,1,0,0:0:0:0:
64,192,103262,1,0,0:0:0:0:
320,192,103371,1,0,0:0:0:0:
448,192,103371,1,0,0:0:0:0:
448,192,103481,1,0,0:0:0:0:
320,192,103590,1,0,0:0:0:0:
64,192,103590,1,0,0:0:0:0:
192,192,103590,1,0,0:0:0:0:
320,192,103700,1,0,0:0:0:0:
192,192,103809,1,0,0:0:0:0:
64,192,103809,1,0,0:0:0:0:
320,192,103809,1,0,0:0:0:0:
448,192,104028,1,0,0:0:0:0:
448,192,104138,1,0,0:0:0:0:
192,192,104247,1,0,0:0:0:0:
64,192,104247,1,0,0:0:0:0:
192,192,104357,1,0,0:0:0:0:
64,192,104466,1,0,0:0:0:0:
448,192,104466,1,0,0:0:0:0:
320,192,104466,1,0,0:0:0:0:
64,192,104576,1,0,0:0:0:0:
448,192,104685,1,0,0:0:0:0:
64,192,104685,1,0,0:0:0:0:
320,192,104685,1,0,0:0:0:0:
192,192,104904,1,0,0:0:0:0:
192,192,105014,1,0,0:0:0:0:
320,192,105123,1,0,0:0:0:0:
448,192,105123,1,0,0:0:0:0:
320,192,105232,1,0,0:0:0:0:
192,192,105342,1,0,0:0:0:0:
64,192,105342,1,0,0:0:0:0:
448,192,105342,1,0,0:0:0:0:
192,192,105561,1,0,0:0:0:0:
64,192,105561,1,0,0:0:0:0:
64,192,105670,1,0,0:0:0:0:
192,192,105780,1,0,0:0:0:0:
320,192,105780,1,0,0:0:0:0:
448,192,105780,1,0,0:0:0:0:
320,192,105999,1,0,0:0:0:0:
448,192,105999,1,0,0:0:0:0:
448,192,106108,1,0,0:0:0:0:
320,192,106218,1,0,0:0:0:0:
192,192,106218,1,0,0:0:0:0:
64,192,106218,1,0,0:0:0:0:
192,192,106437,1,0,0:0:0:0:
64,192,106437,1,0,0:0:0:0:
192,192,106546,1,0,0:0:0:0:
320,192,106656,1,0,0:0:0:0:
64,192,106656,1,0,0:0:0:0:
448,192,106656,1,0,0:0:0:0:
320,192,106875,1,0,0:0:0:0:
448,192,106875,1,0,0:0:0:0:
320,192,106984,1,0,0:0:0:0:
448,192,107094,1,0,0:0:0:0:
192,192,107094,1,0,0:0:0:0:
64,192,107094,1,0,0:0:0:0:
192,192,107313,1,0,0:0:0:0:
320,192,107313,1,0,0:0:0:0:
448,192,107313,1,0,0:0:0:0:
320,192,107422,1,0,0:0:0:0:
192,192,107532,1,0,0:0:0:0:
448,192,107532,1,0,0:0:0:0:
64,192,107532,1,0,0:0:0:0:
192,192,107751,1,0,0:0:0:0:
320,192,107751,1,0,0:0:0:0:
448,192,107751,1,0,0:0:0:0:
448,192,107970,1,0,0:0:0:0:
64,192,107970,1,0,0:0:0:0:
320,192,107970,1,0,0:0:0:0:
448,192,108079,1,0,0:0:0:0:
192,192,108189,1,0,0:0:0:0:
64,192,108189,1,0,0:0:0:0:
320,192,108189,1,0,0:0:0:0:
320,192,108408,1,0,0:0:0:0:
448,192,108408,1,0,0:0:0:0:
64,192,108408,1,0,0:0:0:0:
192,192,108627,1,0,0:0:0:0:
320,192,108627,1,0,0:0:0:0:
64,192,108627,1,0,0:0:0:0:
320,192,108846,1,0,0:0:0:0:
448,192,108846,1,0,0:0:0:0:
192,192,108846,1,0,0:0:0:0:
64,192,108846,1,0,0:0:0:0:
448,192,111254,1,0,0:0:0:0:
