osu file format v14

[General]
AudioFilename: Giniro2__.mp3
AudioLeadIn: 0
PreviewTime: 61853
Countdown: 0
SampleSet: Soft
StackLeniency: 0.7
Mode: 0
LetterboxInBreaks: 0
WidescreenStoryboard: 0

[Editor]
Bookmarks: 26109
DistanceSpacing: 1
BeatDivisor: 4
GridSize: 4
TimelineZoom: 1.9

[Metadata]
Title:Giniro no Sora (TV Size)
TitleUnicode:銀色の空 (TV Size)
Artist:redballoon
ArtistUnicode:redballoon
Creator:Repo
Version:Insane
Source:銀魂
Tags:gintama op opening anime japanese jrock rock j-rock jpop pop j-pop first story
BeatmapID:2608174
BeatmapSetID:398812

[Difficulty]
HPDrainRate:6
CircleSize:4
OverallDifficulty:8
ApproachRate:8.5
SliderMultiplier:1.6
SliderTickRate:2

[Events]
//Background and Video events
0,0,"Gintama.jpg",0,0
//Break Periods
//Storyboard Layer 0 (Background)
//Storyboard Layer 1 (Fail)
//Storyboard Layer 2 (Pass)
//Storyboard Layer 3 (Foreground)
//Storyboard Layer 4 (Overlay)
//Storyboard Sound Samples

[TimingPoints]
578,319.148936170213,4,2,2,60,1,0
3131,-125,4,2,2,60,0,0
5684,-83.3333333333333,4,2,2,75,0,1
13184,-83.3333333333333,4,2,2,90,0,0
13822,-100,4,2,2,75,0,0
14460,-125,4,2,2,60,0,0
15099,-125,4,2,2,40,0,0
15897,-83.3333333333333,4,2,2,75,0,1
23556,-125,4,2,2,60,0,0
31216,-100,4,2,2,60,0,0
60418,-100,4,2,2,75,0,0
61854,-83.3333333333333,4,2,2,75,0,1
69354,-83.3333333333333,4,2,2,90,0,0
69992,-100,4,2,2,75,0,0
70631,-125,4,2,2,60,0,0
71269,-125,4,2,2,40,0,0
72067,-83.3333333333333,4,2,2,75,0,1
82280,-100,4,2,2,60,0,0
88663,-100,4,2,2,20,0,0

[Colours]
Combo1 : 255,200,230
Combo2 : 255,64,64
Combo3 : 30,170,255
Combo4 : 128,255,210

[HitObjects]
124,236,3131,6,0,L|128:300,2,64,8|0|4,0:3|0:0|0:3,0:0:0:0:
184,164,3609,1,0,0:0:0:0:
184,164,3689,1,0,0:0:0:0:
184,164,3769,2,0,L|180:100,2,64,8|0|0,0:0|0:0|0:0,0:0:0:0:
256,228,4248,1,8,0:0:0:0:
324,160,4407,5,0,0:0:0:0:
388,232,4567,1,0,0:0:0:0:
420,144,4726,5,8,0:0:0:0:
352,324,4886,1,0,0:0:0:0:
184,164,5046,5,10,0:0:0:0:
185,151,5125,1,0,0:0:0:0:
186,138,5205,1,2,0:0:0:0:
187,125,5285,1,0,0:0:0:0:
188,112,5365,1,2,0:0:0:0:
189,100,5444,1,0,0:0:0:0:
190,87,5524,1,0,0:0:0:0:
191,74,5604,1,0,0:0:0:0:
208,48,5684,6,0,B|260:52|288:100|288:100|320:52|376:48,1,191.999994140625,4|8,3:2|0:0,0:0:0:0:
448,100,6163,1,0,3:0:0:0:
448,100,6322,2,0,P|459:145|442:189,2,95.9999970703126,0|0|8,0:0|0:0|0:0,0:0:0:0:
344,188,6801,2,0,P|384:270|475:284,1,191.999994140625,0|0,3:0|0:0,0:0:0:0:
442,189,7280,1,8,0:0:0:0:
348,104,7439,2,0,B|296:100|268:144|268:144|244:184|180:176,1,191.999994140625,0|0,3:0|0:0,0:0:0:0:
88,176,7918,1,8,0:0:0:0:
279,346,8237,6,0,P|339:294|339:178,1,191.999994140625,0|8,3:0|0:0,0:0:0:0:
200,92,8716,1,0,3:0:0:0:
200,92,8875,2,0,B|240:116|240:116|384:96,1,191.999994140625,0|8,0:0|0:0,0:0:0:0:
308,24,9354,2,0,P|284:92|358:195,1,191.999994140625,0|0,3:0|0:0,0:0:0:0:
480,232,9833,5,8,0:0:0:0:
322,290,9992,1,0,0:0:0:0:
416,301,10152,5,8,0:0:0:0:
342,188,10312,1,8,0:0:0:0:
252,244,10471,5,8,0:3:0:0:
244,328,10631,1,12,0:3:0:0:
128,368,10790,6,0,P|104:280|112:172,1,191.999994140625,0|8,3:2|0:0,0:0:0:0:
128,86,11269,1,0,3:0:0:0:
39,73,11429,1,0,0:0:0:0:
39,73,11588,2,0,P|81:93|133:82,1,95.9999970703126,0|8,0:0|0:0,0:0:0:0:
215,175,11907,6,0,P|306:181|383:111,1,191.999994140625,0|0,3:0|0:0,0:0:0:0:
415,31,12386,1,8,0:0:0:0:
415,31,12546,2,0,B|379:115|379:115|399:219,1,191.999994140625,0|0,3:0|0:0,0:0:0:0:
422,306,13024,1,0,0:0:0:0:
332,344,13184,6,0,B|236:348|236:348|168:276,1,191.999994140625,2|0,0:1|0:0,0:0:0:0:
34,225,13663,5,0,0:0:0:0:
34,225,13822,2,0,B|116:221|116:221|175:283,1,160,2|0,0:1|0:0,0:0:0:0:
80,354,14301,5,0,0:0:0:0:
80,354,14460,2,0,P|110:299|169:276,1,128,2|0,0:1|0:0,0:0:0:0:
258,200,14939,5,0,0:0:0:0:
258,200,15098,2,0,P|227:254|168:275,1,128
34,225,15578,2,0,P|24:176|38:129,1,96,8|0,0:0|0:0,0:0:0:0:
24,96,15897,6,0,B|120:116|120:116|212:80,1,191.999994140625,0|8,3:2|0:0,0:0:0:0:
296,44,16375,1,0,3:0:0:0:
372,104,16535,2,0,P|324:136|276:132,1,95.9999970703126
207,81,16854,1,8,0:0:0:0:
408,24,17014,6,0,L|400:220,1,191.999994140625,0|0,3:0|0:0,0:0:0:0:
392,380,17492,1,8,0:0:0:0:
472,328,17652,2,0,P|408:288|300:352,1,191.999994140625,0|0,3:0|0:0,0:0:0:0:
104,320,18131,2,0,P|172:328|236:280,1,143.999995605469,8|0,0:0|0:0,0:0:0:0:
248,252,18450,1,0,3:0:0:0:
248,252,18769,6,0,P|258:203|252:152,1,95.9999970703126,8|0,0:0|0:0,0:0:0:0:
158,145,19088,2,0,B|196:124|211:71|211:71|214:125|261:165,1,191.999994140625
292,52,19567,2,0,P|328:108|448:88,1,191.999994140625,0|0,3:0|0:0,0:0:0:0:
380,32,20046,5,8,0:0:0:0:
352,152,20205,1,0,0:0:0:0:
420,256,20365,5,8,0:0:0:0:
320,288,20524,1,8,0:0:0:0:
268,372,20684,5,8,0:3:0:0:
184,352,20844,1,4,0:3:0:0:
104,379,21003,6,0,P|167:312|152:221,1,191.999994140625,0|8,3:0|0:0,0:0:0:0:
88,152,21482,1,0,3:0:0:0:
68,63,21641,2,0,P|64:110|88:152,1,95.9999970703126
152,221,21960,1,8,0:0:0:0:
361,122,22120,2,0,P|277:85|204:140,1,191.999994140625,4|0,3:2|0:0,0:0:0:0:
152,221,22599,1,8,0:0:0:0:
248,328,22758,5,8,0:0:0:0:
248,328,22838,1,8,0:0:0:0:
248,328,22918,1,8,0:0:0:0:
324,273,23078,1,8,0:3:0:0:
404,317,23237,1,8,0:3:0:0:
440,305,23397,1,4,0:3:0:0:
256,192,23556,12,0,25790,0:0:0:0:
224,256,26109,6,0,P|276:256|304:140,1,192,4|0,3:2|0:0,0:0:0:0:
240,100,26748,2,0,L|172:104,1,64,8|0,0:0|0:0,0:0:0:0:
116,152,27067,2,0,L|52:148,1,64,0|8,0:0|0:0,0:0:0:0:
164,212,27386,5,2,0:0:0:0:
162,232,27546,1,0,0:0:0:0:
160,252,27705,1,0,0:0:0:0:
212,316,27865,5,10,0:0:0:0:
214,336,28025,1,0,0:0:0:0:
216,356,28184,1,0,0:0:0:0:
272,264,28343,2,0,P|312:249|364:269,1,96,2|0,0:0|0:0,0:0:0:0:
442,307,28663,2,0,P|394:323|364:254,1,128,0|0,3:0|0:0,0:0:0:0:
472,92,29141,5,8,0:0:0:0:
472,92,29221,1,8,0:0:0:0:
472,92,29301,1,8,0:0:0:0:
264,120,29460,1,8,0:3:0:0:
395,284,29619,1,8,0:3:0:0:
384,176,29780,1,4,0:0:0:0:
384,176,30578,2,0,L|380:312,1,128
110,335,31216,6,0,P|88:300|86:251,1,80,0|0,3:0|0:0,0:0:0:0:
124,184,31535,1,8,0:0:0:0:
266,188,31695,2,0,P|246:261|172:272,1,160,0|0,3:0|0:0,0:0:0:0:
124,184,32173,2,0,B|84:176|84:176|36:188,1,80,8|0,0:0|0:0,0:0:0:0:
172,272,32492,5,2,3:2:0:0:
172,272,32652,1,0,0:0:0:0:
200,112,32812,1,10,0:0:0:0:
260,188,32971,1,8,0:0:0:0:
260,188,33051,1,0,0:0:0:0:
260,188,33131,2,0,P|298:208|338:204,1,80,0|2,3:2|0:0,0:0:0:0:
392,136,33450,2,0,P|354:116|314:120,1,80,10|0,0:0|0:0,0:0:0:0:
296,288,33769,6,0,L|376:284,1,80,0|0,3:0|0:0,0:0:0:0:
464,280,34088,1,8,0:0:0:0:
304,368,34248,2,0,P|232:340|220:256,1,160,0|0,3:0|0:0,0:0:0:0:
296,208,34726,2,0,L|296:300,1,80,8|0,0:0|0:0,0:0:0:0:
208,360,35046,5,2,3:2:0:0:
208,360,35205,1,0,0:0:0:0:
296,208,35365,1,10,0:0:0:0:
372,268,35524,1,8,0:0:0:0:
372,268,35604,1,0,0:0:0:0:
372,268,35684,2,0,P|412:272|456:264,1,80
508,188,36003,1,10,0:0:0:0:
432,96,36163,1,0,0:0:0:0:
416,176,36322,6,0,P|476:168|504:72,1,160,0|8,3:0|0:0,0:0:0:0:
460,20,36801,1,0,3:0:0:0:
432,96,36960,2,0,P|348:104|272:60,1,160,0|8,0:0|0:0,0:0:0:0:
232,0,37439,1,0,3:0:0:0:
232,0,37599,6,0,P|240:76|166:135,1,160,0|8,0:0|0:0,0:0:0:0:
10,74,38078,2,0,B|76:32|76:32|156:48,1,160,0|0,3:0|0:0,0:0:0:0:
185,131,38556,2,0,L|104:116,1,80,8|0,0:0|0:0,0:0:0:0:
48,212,38875,6,0,L|52:296,2,80,2|2|0,3:2|0:0|0:0,0:0:0:0:
132,232,39354,2,0,L|136:316,2,80,2|2|0,0:0|0:0|0:0,0:0:0:0:
220,260,39833,1,2,0:0:0:0:
220,260,39992,6,0,B|260:276|260:276|256:148,1,160,2|0,3:2|0:0,0:0:0:0:
312,92,40471,1,8,0:0:0:0:
348,172,40631,2,0,P|380:204|484:184,1,160,2|0,3:2|0:0,0:0:0:0:
483,184,41109,1,8,0:0:0:0:
424,348,41269,5,8,0:3:0:0:
424,348,41349,1,8,0:3:0:0:
424,348,41429,2,0,L|344:344,1,80,4|0,3:2|0:0,0:0:0:0:
208,272,41748,1,8,0:0:0:0:
208,272,41907,2,0,P|288:264|328:200,1,160,0|0,3:0|0:0,0:0:0:0:
212,48,42386,1,8,0:0:0:0:
212,48,42546,2,0,B|188:124|188:124|235:188,1,160,0|0,3:0|0:0,0:0:0:0:
327,201,43024,2,0,L|411:193,1,80,8|0,0:0|3:2,0:0:0:0:
452,100,43343,2,0,L|280:116,1,160,0|8,3:0|0:0,0:0:0:0:
144,252,43982,6,0,P|164:284|168:332,1,80,0|0,3:2|0:2,0:2:0:0:
88,356,44301,1,8,0:0:0:0:
28,292,44460,2,0,L|36:132,2,160,2|2|0,3:2|0:2|0:0,0:0:0:0:
88,356,45258,1,0,3:2:0:0:
88,356,45578,6,0,L|176:352,1,80,8|0,0:0|0:0,0:0:0:0:
283,275,45897,2,0,L|204:272,1,80,0|0,3:0|0:0,0:0:0:0:
288,192,46216,2,0,L|208:188,1,80,8|0,0:0|0:0,0:0:0:0:
68,152,46535,6,0,P|132:108|216:104,1,160,0|8,3:2|0:0,0:0:0:0:
288,44,47014,1,0,3:2:0:0:
288,44,47173,2,0,P|352:88|436:92,1,160,0|8,0:0|0:0,0:0:0:0:
472,16,47652,2,0,L|468:184,1,160,0|0,3:2|0:0,0:0:0:0:
399,230,48131,1,8,0:0:0:0:
435,310,48290,2,0,P|483:258|463:170,1,160,0|0,3:2|0:0,0:0:0:0:
399,230,48769,2,0,L|316:232,1,80,8|0,0:0|0:0,0:0:0:0:
112,248,49088,6,0,B|176:296|176:296|256:292,1,160,0|8,3:0|0:0,0:0:0:0:
320,232,49567,1,0,3:0:0:0:
260,168,49726,2,2,B|152:172|152:172|196:208,1,160,0|10,0:0|0:0,0:0:0:0:
255,292,50205,1,0,0:0:0:0:
340,148,50365,5,2,3:2:0:0:
340,148,50524,1,0,0:0:0:0:
404,208,50684,1,10,0:0:0:0:
468,148,50843,1,8,0:3:0:0:
468,148,50923,1,8,0:3:0:0:
468,148,51003,2,0,L|468:68,1,80,2|0,3:2|0:0,0:0:0:0:
404,8,51322,1,10,0:0:0:0:
404,8,51482,1,0,0:0:0:0:
188,31,51641,6,0,B|220:67|220:67|332:60,1,160,4|8,3:2|0:0,0:0:0:0:
340,148,52120,2,0,L|172:160,1,160,0|0,3:0|0:0,0:0:0:0:
20,124,52599,2,0,L|100:120,1,80,8|0,0:0|0:0,0:0:0:0:
140,236,52918,5,2,3:2:0:0:
140,236,53078,1,0,0:0:0:0:
180,159,53237,1,10,0:0:0:0:
228,232,53397,2,0,L|232:272,2,40,10|0|2,0:0|0:3|0:0,0:3:0:0:
280,160,53716,1,0,3:0:0:0:
280,160,53875,2,0,L|364:156,1,80,10|0,0:0|0:0,0:0:0:0:
459,318,54195,6,0,P|382:308|340:244,1,160,0|8,3:0|0:0,0:0:0:0:
432,228,54673,2,0,B|473:159|473:159|469:79,1,160,0|0,3:0|0:0,0:0:0:0:
384,0,55152,2,0,L|388:92,1,80,8|0,0:0|0:0,0:0:0:0:
359,156,55471,2,0,B|311:138|284:173|284:173|278:126|227:123,1,160,2|10,3:2|0:0,0:0:0:0:
167,167,55950,1,0,0:0:0:0:
101,121,56109,2,0,L|100:38,2,80,10|2|10,0:0|0:0|0:0,0:0:0:0:
184,296,56588,5,0,0:0:0:0:
184,296,56668,1,0,0:0:0:0:
184,296,56748,2,0,P|256:260|344:252,1,160,0|0,3:0|0:0,0:0:0:0:
469,292,57226,2,0,P|401:304|329:240,1,160,0|0,3:0|0:0,0:0:0:0:
362,132,57705,6,0,B|370:80|417:67|417:67|450:104|446:172|420:208,1,240,4|0,3:2|0:0,0:0:0:0:
333,250,58343,6,0,P|296:256|249:246,1,80,8|0,0:0|0:0,0:0:0:0:
179,136,58663,2,0,L|172:216,1,80,0|0,3:2|0:0,0:0:0:0:
115,355,58982,2,0,L|108:276,1,80,8|0,0:0|0:0,0:0:0:0:
64,120,59301,5,0,0:0:0:0:
168,124,59460,1,8,0:0:0:0:
179,136,59620,1,8,0:0:0:0:
252,52,59780,5,0,0:0:0:0:
179,136,59939,1,8,0:0:0:0:
179,136,60099,1,8,0:0:0:0:
212,232,60258,5,0,0:0:0:0:
116,372,60418,2,0,B|84:340|84:340|204:348,1,160,12|0,0:0|0:0,0:0:0:0:
316,308,60897,5,0,0:0:0:0:
398,283,61056,2,0,B|430:315|430:315|310:307,1,160,12|0,0:0|0:0,0:0:0:0:
198,347,61535,1,0,0:0:0:0:
260,60,61854,6,0,B|336:44|348:84|360:120|444:104,1,191.999994140625,0|8,3:0|0:0,0:0:0:0:
412,12,62333,1,0,3:0:0:0:
284,152,62492,2,0,L|288:248,2,95.9999970703126,0|0|8,0:0|0:0|0:0,0:0:0:0:
292,344,62971,6,0,P|344:332|380:212,1,191.999994140625,0|0,3:0|0:0,0:0:0:0:
284,152,63450,1,8,0:0:0:0:
196,116,63609,2,0,P|205:207|289:248,1,191.999994140625,0|0,3:0|0:0,0:0:0:0:
380,212,64088,1,8,0:0:0:0:
100,80,64407,6,0,L|104:276,1,191.999994140625,0|8,3:0|0:0,0:0:0:0:
160,348,64886,1,0,3:0:0:0:
256,336,65046,2,0,P|204:268|96:276,1,191.999994140625,0|8,0:0|0:0,0:0:0:0:
160,348,65524,2,0,B|256:336|256:336|324:268,1,191.999994140625,0|0,3:0|0:0,0:0:0:0:
456,212,66003,5,8,0:0:0:0:
444,60,66163,1,0,0:0:0:0:
296,152,66322,5,8,0:0:0:0:
323,268,66482,1,8,0:0:0:0:
444,296,66641,5,8,0:3:0:0:
456,212,66801,1,4,0:3:0:0:
368,104,66960,6,0,L|176:112,1,191.999994140625,0|8,3:0|0:0,0:0:0:0:
92,160,67439,1,0,3:0:0:0:
180,200,67599,2,0,L|276:196,2,95.9999970703126,0|0|8,0:0|0:0|0:0,0:0:0:0:
88,352,68078,6,0,B|78:308|104:260|104:260|131:298|197:297,1,191.999994140625,0|0,3:0|0:0,0:0:0:0:
372,344,68556,1,8,0:0:0:0:
372,344,68716,2,0,B|412:304|412:304|268:320,1,191.999994140625,0|0,3:0|0:0,0:0:0:0:
216,376,69195,1,8,0:0:0:0:
176,112,69354,6,0,B|272:96|272:96|356:144,1,191.999994140625,2|0,0:1|0:0,0:0:0:0:
503,167,69833,5,0,0:0:0:0:
503,167,69992,2,0,B|420:180|420:180|348:139,1,160,2|0,0:1|0:0,0:0:0:0:
370,24,70471,5,0,0:0:0:0:
370,24,70631,2,0,P|381:90|347:147,1,128,2|0,0:1|0:0,0:0:0:0:
337,260,71109,5,0,0:0:0:0:
337,260,71269,2,0,P|325:193|359:136,1,128
208,200,71748,2,0,L|212:300,1,96,10|0,0:0|0:0,0:0:0:0:
212,336,72067,6,0,B|144:340|144:340|100:308|100:308|28:312,1,191.999994140625,0|8,3:2|0:0,0:0:0:0:
68,224,72546,1,0,3:0:0:0:
19,143,72705,2,0,P|36:98|24:53,2,95.9999970703126,0|0|8,0:0|0:0|0:0,0:0:0:0:
68,224,73184,6,0,B|160:184|160:184|256:200,1,191.999994140625,0|0,3:0|0:0,0:0:0:0:
343,296,73663,1,8,0:0:0:0:
343,296,73822,2,0,P|283:304|251:196,1,191.999994140625,0|0,3:0|0:0,0:0:0:0:
412,80,74301,2,0,L|408:228,1,143.999995605469,8|0,0:0|0:0,0:0:0:0:
404,368,74620,5,0,3:0:0:0:
404,368,74939,2,0,P|300:360|300:360,1,95.9999970703126,8|0,0:0|0:0,0:0:0:0:
236,296,75258,2,0,B|204:316|204:316|172:292|172:292|116:328|60:300,1,191.999994140625,0|8,3:0|0:0,0:0:0:0:
80,152,75737,2,0,B|84:116|100:92|100:92|128:128|128:180|108:224,1,191.999994140625,0|0,3:0|0:0,0:0:0:0:
63,301,76216,5,8,0:0:0:0:
0,160,76375,1,0,0:0:0:0:
97,40,76535,5,8,0:0:0:0:
208,121,76695,1,8,0:0:0:0:
112,214,76854,5,8,0:3:0:0:
104,128,77014,1,4,0:3:0:0:
220,16,77173,6,0,P|248:108|228:200,1,191.999994140625,0|8,3:0|0:0,0:0:0:0:
184,288,77652,1,0,3:0:0:0:
184,288,77812,2,0,P|132:280|92:300,2,95.9999970703126,0|0|8,0:0|0:0|0:0,0:0:0:0:
394,259,78290,6,0,P|291:256|227:199,1,191.999994140625,0|0,3:0|0:0,0:0:0:0:
247,105,78769,1,8,0:0:0:0:
302,290,78929,5,0,0:0:0:0:
307,308,79008,1,0,0:0:0:0:
307,327,79088,1,8,0:0:0:0:
303,346,79168,1,8,0:0:0:0:
294,363,79248,1,0,0:0:0:0:
131,205,79407,2,0,L|230:199,1,95.9999970703126,8|0,0:0|0:0,0:0:0:0:
320,120,79726,5,0,0:0:0:0:
367,237,79886,1,8,0:0:0:0:
219,56,80046,1,8,0:0:0:0:
444,116,80205,1,0,0:0:0:0:
226,199,80365,1,8,0:0:0:0:
354,4,80524,1,8,0:0:0:0:
367,237,80684,1,0,0:0:0:0:
219,56,80843,6,0,B|112:48|148:116|40:112,1,191.999994140625,12|0,0:0|0:0,0:0:0:0:
64,16,81322,1,0,0:0:0:0:
200,156,81482,1,8,0:0:0:0:
200,156,81562,1,8,0:0:0:0:
200,156,81641,1,8,0:0:0:0:
172,292,81801,5,4,0:3:0:0:
232,232,81960,1,8,0:3:0:0:
140,216,82120,1,8,0:3:0:0:
236,348,82280,5,0,3:0:0:0:
403,254,82599,2,0,L|400:173,1,80,10|0,0:0|0:0,0:0:0:0:
332,293,82918,2,0,P|358:324|403:333,1,80,2|0,3:2|0:0,0:0:0:0:
470,306,83237,1,10,0:0:0:0:
400,174,83397,6,0,B|354:171|332:210|332:210|309:170|253:182,1,160
121,239,83875,2,0,P|160:238|192:215,1,80,10|0,0:0|0:0,0:0:0:0:
133,79,84195,2,0,L|135:158,1,80,2|0,3:2|0:0,0:0:0:0:
269,339,84514,6,0,L|264:173,1,160,10|4,0:0|0:0,0:0:0:0:
256,192,84913,12,0,88663,0:0:0:0:
