osu file format v14

[General]
AudioFilename: Giniro2__.mp3
AudioLeadIn: 0
PreviewTime: 61853
Countdown: 0
SampleSet: Soft
StackLeniency: 0.7
Mode: 0
LetterboxInBreaks: 0
WidescreenStoryboard: 0

[Editor]
Bookmarks: 26109
DistanceSpacing: 1.2
BeatDivisor: 4
GridSize: 4
TimelineZoom: 1.9

[Metadata]
Title:Giniro no Sora (TV Size)
TitleUnicode:銀色の空 (TV Size)
Artist:redballoon
ArtistUnicode:redballoon
Creator:Repo
Version:Hard
Source:銀魂
Tags:gintama op opening anime japanese jrock rock j-rock jpop pop j-pop first story
BeatmapID:867141
BeatmapSetID:398812

[Difficulty]
HPDrainRate:5
CircleSize:3.8
OverallDifficulty:6
ApproachRate:7
SliderMultiplier:1.4
SliderTickRate:1

[Events]
//Background and Video events
0,0,"Gintama.jpg",0,0
//Break Periods
//Storyboard Layer 0 (Background)
//Storyboard Layer 1 (Fail)
//Storyboard Layer 2 (Pass)
//Storyboard Layer 3 (Foreground)
//Storyboard Layer 4 (Overlay)
//Storyboard Sound Samples

[TimingPoints]
578,319.148936170213,4,2,2,60,1,0
3131,-125,4,2,2,60,0,0
5684,-100,4,2,2,75,0,1
13184,-100,4,2,2,90,0,0
13822,-100,4,2,2,75,0,0
14460,-100,4,2,2,60,0,0
15099,-100,4,2,2,40,0,0
15897,-100,4,2,2,75,0,1
23556,-125,4,2,2,60,0,0
31216,-100,4,2,2,60,0,0
60418,-100,4,2,2,75,0,0
61854,-83.3333333333333,4,2,2,75,0,1
69354,-83.3333333333333,4,2,2,90,0,0
69992,-83.3333333333333,4,2,2,75,0,0
70631,-83.3333333333333,4,2,2,60,0,0
71269,-83.3333333333333,4,2,2,40,0,0
72067,-83.3333333333333,4,2,2,75,0,1
82280,-100,4,2,2,60,0,0
88663,-100,4,2,2,20,0,0

[Colours]
Combo1 : 255,200,230
Combo2 : 255,64,64
Combo3 : 30,170,255
Combo4 : 128,255,210

[HitObjects]
151,95,3131,6,0,L|147:207,1,112,8|4,0:3|3:0,0:0:0:0:
200,272,3609,1,0,0:0:0:0:
200,272,3689,1,0,0:0:0:0:
204,276,3769,2,0,P|232:260|264:256,1,56,8|0,0:0|0:0,0:0:0:0:
320,300,4088,2,0,L|376:304,1,56,0|8,0:0|0:0,0:0:0:0:
504,228,4567,5,0,0:0:0:0:
444,179,4726,2,0,P|424:205|422:231,1,56,8|0,0:0|0:0,0:0:0:0:
431,307,5046,2,0,L|307:299,1,112
100,348,5684,6,0,P|160:312|164:232,1,140,4|8,3:2|0:0,0:0:0:0:
140,168,6163,1,0,3:0:0:0:
140,168,6322,2,0,L|144:96,2,70,0|0|8,0:0|0:0|0:0,0:0:0:0:
224,176,6801,2,0,B|256:148|256:148|356:152,1,140,0|0,3:0|0:0,0:0:0:0:
411,212,7280,1,8,0:0:0:0:
411,212,7439,2,0,B|379:240|379:240|279:236,1,140,0|0,3:0|0:0,0:0:0:0:
220,292,7918,1,8,0:0:0:0:
68,224,8237,6,0,P|60:152|104:108,1,140,0|8,3:0|0:0,0:0:0:0:
140,184,8716,1,0,3:0:0:0:
140,184,8875,2,0,B|208:200|208:200|284:180,1,140,0|8,0:0|0:0,0:0:0:0:
348,224,9354,2,0,P|356:152|312:108,1,140,0|0,3:0|0:0,0:0:0:0:
232,112,9833,6,0,L|232:40,1,70
152,80,10152,2,0,L|152:150,1,70
72,184,10471,2,0,L|72:114,1,70
124,252,10790,6,0,B|152:276|152:276|260:268,1,140,0|8,3:0|0:0,0:0:0:0:
328,224,11269,1,0,3:0:0:0:
380,292,11429,2,0,L|376:372,2,70,0|0|8,0:0|0:0|0:0,0:0:0:0:
456,256,11907,2,0,P|424:196|452:120,1,140,0|0,3:0|0:0,0:0:0:0:
512,80,12386,1,8,0:0:0:0:
512,80,12546,2,0,L|372:88,1,140,0|0,3:0|0:0,0:0:0:0:
288,92,13024,1,8,0:0:0:0:
187,143,13184,6,0,P|169:210|210:264,1,140,2|0,0:1|0:0,0:0:0:0:
255,192,13663,1,2,0:0:0:0:
330,232,13822,6,0,P|367:290|345:355,1,140,2|0,0:1|0:0,0:0:0:0:
280,302,14301,1,2,0:0:0:0:
220,360,14460,6,0,L|72:364,1,140,2|0,0:1|0:0,0:0:0:0:
7,323,14939,1,2,0:0:0:0:
69,240,15099,6,0,L|217:244,1,140
272,186,15578,2,0,P|326:170|378:198,1,105,2|0,0:0|0:0,0:0:0:0:
384,220,15897,6,0,P|436:160|424:104,1,140,0|8,3:0|0:0,0:0:0:0:
372,40,16375,1,0,3:0:0:0:
300,84,16535,1,0,0:0:0:0:
300,84,16695,2,0,L|224:84,1,70,0|8,0:0|0:0,0:0:0:0:
160,36,17014,2,0,B|184:68|184:68|184:172,1,140,0|0,3:0|0:0,0:0:0:0:
104,156,17492,1,8,0:0:0:0:
104,156,17652,2,0,B|80:188|80:188|80:292,1,140,0|0,3:0|0:0,0:0:0:0:
132,356,18131,2,0,P|180:328|232:332,1,105,8|0,0:0|0:0,0:0:0:0:
260,344,18450,1,0,3:0:0:0:
376,264,18769,6,0,L|372:190,1,70,8|0,0:0|0:0,0:0:0:0:
438,141,19088,2,0,B|371:162|371:162|297:150|297:149,1,140,0|8,3:0|0:0,0:0:0:0:
244,88,19567,2,0,P|212:56|176:132,1,140,0|0,3:0|0:0,0:0:0:0:
107,245,20046,6,0,L|104:176,1,70,8|0,0:0|0:0,0:0:0:0:
188,200,20365,2,0,L|191:269,1,70,8|0,0:0|0:0,0:0:0:0:
275,293,20684,2,0,L|272:224,1,70,8|0,0:0|0:0,0:0:0:0:
352,248,21003,6,0,B|420:264|420:264|488:244,1,140,0|8,3:0|0:0,0:0:0:0:
480,164,21482,1,0,3:0:0:0:
480,164,21641,2,0,P|404:144|336:176,1,140,0|8,0:0|0:0,0:0:0:0:
272,224,22120,2,0,B|225:278|225:278|149:299,1,140,4|0,3:2|0:0,0:0:0:0:
97,241,22599,1,8,0:0:0:0:
97,241,22758,2,0,P|129:161|245:146,1,210,0|8,3:0|0:0,0:0:0:0:
256,192,23556,12,0,25790,0:0:0:0:
368,84,26109,6,0,B|392:172|336:156|356:252,1,168,4|0,3:2|0:0,0:0:0:0:
374,325,26748,2,0,L|436:320,1,56,8|0,0:0|0:0,0:0:0:0:
295,302,27067,2,0,L|233:307,1,56,0|8,0:0|0:0,0:0:0:0:
164,336,27386,2,0,L|104:340,2,56,2|0|0,0:0|0:0|0:0,0:0:0:0:
156,256,27865,2,0,L|96:260,2,56,10|0|0,0:0|0:0|0:0,0:0:0:0:
208,188,28343,2,0,P|244:200|292:196,1,84,8|0,0:0|0:0,0:0:0:0:
308,176,28663,6,0,P|360:176|384:244,1,112,0|0,3:0|0:0,0:0:0:0:
362,319,29141,1,8,0:0:0:0:
362,319,29221,1,8,0:0:0:0:
362,319,29301,2,0,L|300:319,1,56,8|0,0:0|0:0,0:0:0:0:
231,279,29620,1,8,0:3:0:0:
195,359,29780,1,4,0:0:0:0:
140,352,30737,6,0,L|200:360,1,56
36,340,31216,6,0,L|32:268,1,70,0|0,3:0|0:0,0:0:0:0:
100,220,31535,1,8,0:0:0:0:
100,220,31695,2,0,L|104:148,1,70,0|0,0:0|3:0,0:0:0:0:
144,76,32014,1,0,0:0:0:0:
192,144,32173,2,0,P|224:156|260:152,1,70,8|0,0:0|0:0,0:0:0:0:
332,108,32492,1,2,3:2:0:0:
332,108,32652,1,0,0:0:0:0:
416,124,32812,2,0,L|420:236,1,105,10|2,0:0|0:0,0:0:0:0:
420,264,33131,2,0,P|384:260|348:276,1,70,0|2,3:0|0:0,0:0:0:0:
364,356,33450,2,0,P|398:360|430:347,1,70,10|0,0:0|0:0,0:0:0:0:
284,320,33769,5,0,3:0:0:0:
284,320,33929,2,0,L|208:320,1,70,0|8,0:0|0:0,0:0:0:0:
140,356,34248,2,0,P|120:312|120:216,1,140,0|0,3:0|0:0,0:0:0:0:
180,168,34726,2,0,P|192:128|180:88,1,70,8|0,0:0|3:0,0:0:0:0:
132,44,35046,1,2,3:2:0:0:
132,44,35205,1,0,0:0:0:0:
108,124,35365,2,0,P|64:144|4:120,1,105,10|2,0:0|0:0,0:0:0:0:
0,96,35684,1,0,3:0:0:0:
248,48,36003,2,0,L|320:52,1,70,10|0,0:0|0:0,0:0:0:0:
404,56,36322,6,0,B|420:112|397:125|376:140|392:196,1,140,0|8,3:0|0:0,0:0:0:0:
456,244,36801,2,0,P|408:228|340:304,1,140,0|0,3:0|0:0,0:0:0:0:
328,364,37280,1,8,0:0:0:0:
268,304,37439,2,0,L|124:312,1,140,0|0,3:0|0:0,0:0:0:0:
60,260,37918,1,8,0:0:0:0:
106,190,38078,2,0,P|142:234|122:318,2,140,0|0|0,3:0|0:0|0:0,0:0:0:0:
60,120,38875,5,2,0:0:0:0:
60,120,39035,2,0,L|136:116,1,70,2|0,0:0|0:0,0:0:0:0:
197,176,39354,1,2,0:0:0:0:
197,176,39514,2,0,L|273:172,1,70,2|0,0:0|0:0,0:0:0:0:
346,204,39833,1,2,0:0:0:0:
408,148,39992,2,0,B|384:180|384:180|392:292,1,140,0|0,3:0|0:0,0:0:0:0:
456,332,40471,1,8,0:0:0:0:
456,332,40631,2,0,B|480:300|480:300|472:188,1,140
408,148,41109,1,8,0:0:0:0:
332,231,41269,5,8,0:3:0:0:
332,231,41349,1,8,0:3:0:0:
332,231,41429,2,0,B|260:235|260:235|196:195,1,140,4|8,3:2|0:0,0:0:0:0:
126,233,41907,2,0,P|142:301|107:368,1,140,0|0,3:0|0:0,0:0:0:0:
36,344,42386,1,8,0:0:0:0:
36,344,42546,2,0,B|0:288|0:288|0:212,1,140,0|0,3:0|0:0,0:0:0:0:
4,132,43024,2,0,P|40:136|68:160,1,70,10|0,0:0|0:0,0:0:0:0:
104,80,43343,2,0,P|133:101|145:136,1,70,2|0,3:2|0:0,0:0:0:0:
216,84,43663,2,0,P|230:117|223:153,1,70,10|0,0:0|0:0,0:0:0:0:
304,176,43982,6,0,P|284:244|308:320,1,140,0|8,3:0|0:0,0:0:0:0:
372,352,44460,2,0,B|436:324|436:324|472:256,2,140,0|0|8,3:0|0:0|0:0,0:0:0:0:
301,309,45258,1,0,3:0:0:0:
168,208,45578,2,0,P|132:200|92:212,1,70,10|0,0:0|0:0,0:0:0:0:
60,280,45897,2,0,P|71:315|101:343,1,70,2|0,3:2|0:0,0:0:0:0:
176,348,46216,2,0,P|200:320|210:280,1,70,10|0,0:0|0:0,0:0:0:0:
256,220,46535,6,0,P|300:236|376:176,1,140,0|8,3:0|0:0,0:0:0:0:
448,152,47014,2,0,L|300:144,1,140,0|0,3:0|0:0,0:0:0:0:
240,92,47492,1,8,0:0:0:0:
184,152,47652,2,0,P|140:168|60:112,1,140,0|0,3:0|0:0,0:0:0:0:
68,36,48131,1,8,0:0:0:0:
68,36,48290,2,0,B|112:36|136:12|136:12|128:48|136:80,1,140,0|0,3:0|0:0,0:0:0:0:
184,152,48769,2,0,L|188:231,1,70,8|0,0:0|0:0,0:0:0:0:
133,313,49088,6,0,B|193:337|237:310|237:310|280:282|338:306,1,210,0|0,3:0|0:0,0:0:0:0:
412,336,49726,2,0,P|372:296|372:204,1,140,0|8,3:0|0:0,0:0:0:0:
412,144,50205,1,0,3:0:0:0:
412,144,50365,2,0,L|492:136,2,70,2|0|10,0:0|0:0|0:0,0:0:0:0:
348,88,50843,1,2,0:0:0:0:
348,88,50923,1,0,0:0:0:0:
348,88,51003,2,0,B|272:92,1,70,0|2,0:0|0:0,0:0:0:0:
204,132,51322,2,0,P|168:140|104:104,1,105,10|0,0:0|0:0,0:0:0:0:
84,88,51641,6,0,B|120:168|82:192|48:216|88:304,2,210,4|0|8,3:2|0:0|0:0,0:0:0:0:
164,240,52918,2,0,L|240:232,2,70,2|0|10,0:0|0:0|0:0,0:0:0:0:
172,324,53397,1,2,0:0:0:0:
172,324,53476,1,0,0:0:0:0:
172,324,53556,2,0,L|248:316,1,70,0|2,3:0|0:0,0:0:0:0:
312,272,53875,2,0,P|360:256|416:272,1,105,10|0,0:0|0:0,0:0:0:0:
432,296,54195,6,0,P|412:256|436:92,2,210,0|0|8,3:0|0:0|0:0,0:0:0:0:
263,276,55471,2,0,L|266:345,2,70,2|0|10,3:2|0:0|0:0,0:0:0:0:
183,281,55950,1,2,0:0:0:0:
183,281,56030,1,0,0:0:0:0:
183,281,56109,2,0,P|145:288|116:310,1,70,0|2,3:0|0:0,0:0:0:0:
92,224,56429,2,0,P|104:188|100:152,1,70,10|0,0:0|0:0,0:0:0:0:
88,124,56668,5,8,0:3:0:0:
64,100,56748,2,0,P|128:120|208:92,1,140,0|0,3:0|0:0,0:0:0:0:
260,48,57226,2,0,P|240:112|268:192,1,140,0|0,3:0|0:0,0:0:0:0:
340,152,57705,2,0,P|416:116|440:216,1,210,4|0,3:2|0:0,0:0:0:0:
396,284,58343,2,0,L|320:288,1,70
248,324,58663,2,0,B|216:300|216:300|108:304,1,140,0|8,3:0|0:0,0:0:0:0:
44,152,59301,6,0,P|72:128|108:120,1,70,8|0,0:0|0:0,0:0:0:0:
188,172,59620,2,0,P|160:196|124:204,1,70,8|0,0:0|0:0,0:0:0:0:
33,116,59939,2,0,L|113:120,1,70,8|8,0:0|0:0,0:0:0:0:
188,172,60258,1,0,0:0:0:0:
276,128,60418,2,0,B|340:100|340:100|416:112,1,140,4|0,0:0|0:0,0:0:0:0:
424,196,60897,1,8,0:0:0:0:
424,196,61056,2,0,P|360:228|288:224,1,140,4|0,3:2|0:0,0:0:0:0:
200,192,61535,1,8,3:0:0:0:
0,74,61854,6,0,B|1:18|48:-7|48:-7|118:47|118:147|69:221,1,335.999989746094,0|8,3:0|0:0,0:0:0:0:
188,356,62812,1,0,0:0:0:0:
248,300,62971,2,0,L|420:292,1,167.999994873047,0|0,3:0|0:0,0:0:0:0:
480,348,63450,1,8,0:0:0:0:
480,348,63609,2,0,P|444:312|436:196,1,167.999994873047
448,116,64088,2,0,L|312:124,1,125.999996154785,8|0,0:0|0:0,0:0:0:0:
300,144,64407,6,0,P|248:48|144:112,1,251.999992309571,0|0,3:0|0:0,0:0:0:0:
92,172,65046,2,0,B|104:296|104:296|120:248,1,167.999994873047,8|0,0:0|0:0,0:0:0:0:
192,216,65524,2,0,B|240:204|272:236|300:264|352:252,1,167.999994873047,0|0,3:0|0:0,0:0:0:0:
424,216,66003,6,0,L|444:132,1,83.9999974365235,8|0,0:0|0:0,0:0:0:0:
364,74,66322,2,0,L|357:158,1,83.9999974365235,8|0,0:0|0:0,0:0:0:0:
288,212,66641,2,0,L|275:126,1,83.9999974365235,8|0,0:0|0:0,0:0:0:0:
220,272,66960,6,0,P|116:348|44:192,1,335.999989746094,0|8,3:0|0:0,0:0:0:0:
4,124,67758,1,0,0:0:0:0:
84,104,67918,1,0,0:0:0:0:
164,80,68078,2,0,B|212:116|212:116|324:104,1,167.999994873047,0|0,3:0|0:0,0:0:0:0:
392,64,68556,1,8,0:0:0:0:
392,64,68716,2,0,B|356:112|356:112|368:224,1,167.999994873047,0|0,3:0|0:0,0:0:0:0:
380,304,69195,1,8,0:0:0:0:
284,346,69354,6,0,B|236:302|209:327|177:355|116:330,1,167.999994873047,2|0,0:1|0:0,0:0:0:0:
58,290,69833,1,0,0:0:0:0:
58,290,69992,2,0,P|16:233|38:141,1,167.999994873047,2|0,0:1|0:0,0:0:0:0:
90,73,70471,1,2,0:0:0:0:
180,136,70631,6,0,B|220:104|220:104|264:148|328:124,1,167.999994873047,2|0,0:1|0:0,0:0:0:0:
372,44,71109,1,2,0:0:0:0:
475,136,71269,6,0,B|435:104|435:104|391:148|327:124,1,167.999994873047
280,44,71748,1,2,0:0:0:0:
105,222,72067,6,0,B|204:173|265:229|327:286|427:243,1,335.999989746094,0|8,3:0|0:0,0:0:0:0:
324,41,73024,1,0,0:0:0:0:
311,124,73184,2,0,P|348:167|379:82,1,167.999994873047,0|0,3:0|0:0,0:0:0:0:
485,97,73663,1,8,0:0:0:0:
485,97,73822,2,0,P|480:179|426:241,1,167.999994873047,0|0,3:0|0:0,0:0:0:0:
337,268,74301,2,0,B|277:248|277:248|208:270,1,125.999996154785,8|0,0:0|0:0,0:0:0:0:
187,279,74620,1,0,3:0:0:0:
18,282,74939,6,0,P|-2:236|13:184,1,83.9999974365235,8|0,0:0|0:0,0:0:0:0:
28,120,75258,2,0,L|200:128,1,167.999994873047,0|8,3:0|0:0,0:0:0:0:
272,164,75737,2,0,B|256:224|284:272|284:272|320:256|324:224,1,167.999994873047,0|0,3:0|0:0,0:0:0:0:
368,160,76216,6,0,L|453:148,1,83.9999974365235,8|0,0:0|0:0,0:0:0:0:
492,240,76535,2,0,L|408:244,1,83.9999974365235,8|0,0:0|0:0,0:0:0:0:
356,320,76854,2,0,L|444:332,1,83.9999974365235,8|0,0:0|0:0,0:0:0:0:
268,360,77173,6,0,B|284:284|196:220|196:220|116:164|136:72,1,335.999989746094,0|8,3:0|0:0,0:0:0:0:
296,20,78131,1,0,0:0:0:0:
368,60,78290,2,0,B|336:100|336:100|200:92,1,167.999994873047,0|0,3:0|0:0,0:0:0:0:
136,76,78769,1,8,0:0:0:0:
56,48,78929,2,0,P|56:112|144:160,1,167.999994873047,0|0,3:0|0:0,0:0:0:0:
220,172,79407,1,8,0:0:0:0:
380,120,79726,5,0,3:0:0:0:
456,152,79886,1,8,0:0:0:0:
464,236,80046,1,8,0:0:0:0:
396,284,80205,1,0,0:0:0:0:
396,284,80285,1,0,0:0:0:0:
396,284,80365,2,0,L|304:280,2,83.9999974365235,8|8|0,0:0|0:0|0:0,0:0:0:0:
328,364,80843,6,0,P|260:352|232:256,1,167.999994873047,12|0,0:0|0:0,0:0:0:0:
280,200,81322,1,0,0:0:0:0:
280,200,81482,2,0,P|348:188|376:92,1,167.999994873047,8|0,0:0|0:0,0:0:0:0:
328,36,81960,1,8,0:3:0:0:
244,27,82120,1,8,0:3:0:0:
174,115,82280,6,0,L|34:111,2,140,0|10|2,3:0|0:0|3:2,0:0:0:0:
312,210,83237,1,10,0:0:0:0:
250,268,83397,2,0,P|227:208|262:142,1,140,0|0,3:0|0:0,0:0:0:0:
381,206,83875,2,0,L|312:210,1,70,10|0,0:0|0:0,0:0:0:0:
250,268,84195,2,0,L|180:271,1,70,2|0,3:2|0:0,0:0:0:0:
113,323,84514,2,0,P|130:262|108:185,1,140,10|4,0:0|0:0,0:0:0:0:
256,192,84913,12,0,88663,0:0:0:0:
