osu file format v14

[General]
AudioFilename: audio.mp3
AudioLeadIn: 0
PreviewTime: 38261
Countdown: 0
SampleSet: Soft
StackLeniency: 0.4
Mode: 0
LetterboxInBreaks: 0
WidescreenStoryboard: 1

[Editor]
DistanceSpacing: 1
BeatDivisor: 4
GridSize: 4
TimelineZoom: 1

[Metadata]
Title:Like a pop'n music
TitleUnicode:Like a pop'n music
Artist:red glasses
ArtistUnicode:red glasses
Creator:Log Off Now
Version:Normal
Source:pop'n music 20 fantasia
Tags:japanese video game ポップンミュージック 20 ファンタジア sunny park ayu yuuji yoshizawa nonuplet nonet 吉澤裕司 ゆーじ ポップンポップ
BeatmapID:2384435
BeatmapSetID:1139462

[Difficulty]
HPDrainRate:3
CircleSize:3.2
OverallDifficulty:4
ApproachRate:5
SliderMultiplier:1
SliderTickRate:1

[Events]
//Background and Video events
0,0,"poppin.jpg",0,0
//Break Periods
//Storyboard Layer 0 (Background)
//Storyboard Layer 1 (Fail)
//Storyboard Layer 2 (Pass)
//Storyboard Layer 3 (Foreground)
//Storyboard Layer 4 (Overlay)
//Storyboard Sound Samples

[TimingPoints]
2892,340.909090909091,4,2,1,65,1,0
8176,-100,4,2,1,75,0,0
16528,-100,4,2,1,65,0,0
38346,-100,4,2,1,80,0,1
58630,-100,4,2,1,70,0,0
71244,-100,4,2,2,50,0,0
76528,-100,4,2,1,55,0,0
79085,-100,4,2,1,60,0,0
82153,-100,4,2,1,63,0,0
82323,-100,4,2,1,66,0,0
82494,-100,4,2,1,69,0,0
82664,-100,4,2,1,72,0,0
82835,-100,4,2,1,75,0,0
83005,-100,4,2,1,78,0,0
83176,-100,4,2,1,80,0,0
83517,-100,4,2,1,70,0,0
83687,-100,4,2,1,80,0,1
93914,-100,4,2,1,80,0,0
105164,-100,4,2,1,60,0,0
106528,-100,4,2,1,40,0,0
107892,-100,4,2,1,20,0,0
109255,-100,4,2,1,10,0,0
110278,-100,4,2,1,5,0,0
110534,-100,4,2,1,50,0,0

[Colours]
Combo1 : 255,216,98
Combo2 : 126,254,171
Combo3 : 98,169,255
Combo4 : 248,118,137

[HitObjects]
33,232,2892,6,0,L|104:242,1,50,4|2,1:2|0:0,0:0:0:0:
116,275,3232,2,0,L|229:262,1,100,2|2,1:2|1:2,0:0:0:0:
265,257,3744,1,2,0:0:0:0:
313,169,4085,2,0,P|281:123|286:74,1,100,2|2,0:0|0:0,0:0:0:0:
307,36,4596,1,2,1:2:0:0:
307,36,4767,1,2,0:0:0:0:
388,93,5107,1,2,0:0:0:0:
467,32,5448,5,2,0:0:0:0:
506,123,5789,1,2,0:0:0:0:
506,123,5960,2,0,P|489:171|492:234,1,100,2|2,1:2|1:2,0:0:0:0:
506,266,6471,1,2,0:0:0:0:
439,340,6812,2,0,B|415:320|415:320|325:335,1,100,2|2,0:0|0:0,0:0:0:0:
298,344,7323,1,2,1:2:0:0:
298,344,7494,1,4,0:3:0:0:
226,273,7835,1,10,0:0:0:0:
288,195,8176,6,0,L|278:77,1,100,12|10,0:0|0:0,0:0:0:0:
272,45,8687,1,10,1:2:0:0:
184,93,9028,1,10,1:2:0:0:
184,93,9198,1,10,0:0:0:0:
88,61,9539,2,0,L|96:160,1,100,14|10,0:0|0:0,0:0:0:0:
72,205,10051,1,10,1:2:0:0:
72,205,10221,1,10,1:2:0:0:
134,283,10562,1,14,0:0:0:0:
223,237,10903,5,14,0:0:0:0:
275,322,11244,1,10,0:0:0:0:
275,322,11414,2,0,P|305:310|384:316,1,100,10|10,1:2|1:2,0:0:0:0:
414,338,11926,1,10,0:0:0:0:
472,256,12267,2,0,L|460:141,1,100,14|10,0:0|0:0,0:0:0:0:
459,106,12778,1,10,1:2:0:0:
459,106,12948,1,14,0:0:0:0:
366,143,13289,1,14,0:0:0:0:
291,76,13630,1,14,0:0:0:0:
256,192,13801,12,2,15164,0:0:0:0:
105,145,16528,6,0,L|117:259,2,100,4|0|0,1:2|1:0|1:2,0:0:0:0:
171,70,17551,1,0,1:0:0:0:
171,70,17721,2,0,P|218:100|270:96,1,100,2|2,0:0|0:0,0:0:0:0:
307,76,18232,1,2,1:2:0:0:
307,76,18403,1,2,0:0:0:0:
388,133,18744,2,0,L|444:124,2,50,2|0|8,0:0|1:2|0:0,0:0:0:0:
321,208,19426,1,2,0:0:0:0:
321,208,19596,2,0,L|329:330,1,100,2|0,1:2|1:0,0:0:0:0:
242,359,20278,5,0,1:0:0:0:
242,359,20448,2,0,P|199:337|130:336,1,100,6|0,1:2|1:0,0:0:0:0:
103,351,20960,1,8,0:0:0:0:
103,351,21130,2,0,L|91:229,1,100,6|0,1:2|1:0,0:0:0:0:
88,201,21642,1,8,0:0:0:0:
180,218,21982,6,0,L|192:104,2,100,4|0|2,1:2|1:0|1:2,0:0:0:0:
171,321,23005,1,0,1:0:0:0:
171,321,23176,2,0,P|218:306|277:310,1,100,8|2,0:0|1:2,0:0:0:0:
308,278,23687,1,2,1:2:0:0:
380,346,24028,1,0,1:0:0:0:
470,292,24369,1,0,1:0:0:0:
470,292,24539,1,8,0:0:0:0:
434,204,24880,1,8,0:0:0:0:
434,204,25051,1,2,1:2:0:0:
482,116,25392,2,0,P|479:71|484:12,1,100,0|0,1:0|1:0,0:0:0:0:
433,7,25903,6,0,B|386:23|386:23|329:6,1,100,14|0,0:0|1:0,0:0:0:0:
301,42,26414,1,8,0:0:0:0:
301,42,26585,2,0,P|321:96|318:146,1,100,6|8,1:2|0:3,0:0:0:0:
290,178,27096,1,8,0:3:0:0:
292,277,27437,6,0,B|377:267|338:319|453:304,1,150,4|2,1:2|1:2,0:0:0:0:
475,275,28119,1,10,0:0:0:0:
475,275,28289,1,2,0:0:0:0:
428,186,28630,2,0,L|440:63,1,100,4|0,1:2|0:0,0:0:0:0:
395,58,29142,2,0,L|387:-12,2,50,2|6|2,1:2|1:2|0:0,0:0:0:0:
357,90,29653,1,2,0:0:0:0:
287,162,29994,6,0,P|254:150|191:164,1,100,12|0,0:0|0:0,0:0:0:0:
149,188,30505,2,0,L|43:178,1,100,0|8,1:0|0:0,0:0:0:0:
9,208,31017,1,8,0:3:0:0:
49,299,31357,2,0,P|95:281|163:283,1,100,4|8,1:2|0:0,0:0:0:0:
180,316,31869,1,2,0:0:0:0:
254,249,32210,2,0,L|262:179,1,50,10|0,0:0|0:0,0:0:0:0:
220,168,32551,2,0,L|212:98,1,50,8|8,0:0|0:0,0:0:0:0:
197,71,32892,5,4,1:2:0:0:
272,6,33232,1,0,1:0:0:0:
320,93,33573,2,0,P|370:110|428:96,1,100,0|0,1:0|1:0,0:0:0:0:
498,158,34255,2,0,L|512:50,2,100,2|2|2,1:3|1:3|1:3,0:0:0:0:
412,210,35278,1,2,1:3:0:0:
461,296,35619,6,0,L|510:290,2,50,4|0|8,1:2|1:0|0:0,0:0:0:0:
383,360,36301,1,8,0:3:0:0:
333,353,36471,1,8,0:0:0:0:
283,345,36642,1,4,1:2:0:0:
232,258,36982,5,12,0:0:0:0:
294,179,37323,2,0,L|288:113,1,50,8|4,0:0|0:3,0:0:0:0:
283,79,37664,1,10,0:0:0:0:
283,79,37835,1,10,0:0:0:0:
134,55,38346,6,0,L|126:0,2,50,6|2|8,1:2|0:0|0:0,0:0:0:0:
76,137,39028,2,0,L|83:186,1,50,2|2,1:2|1:2,0:0:0:0:
94,235,39369,1,8,0:0:0:0:
94,235,39539,2,0,P|138:212|193:219,1,100,2|2,1:2|1:2,0:0:0:0:
226,247,40051,1,8,0:0:0:0:
313,198,40392,6,0,L|321:143,2,50,2|2|10,1:2|1:2|0:0,0:0:0:0:
338,241,40903,2,0,L|348:348,1,100,2|2,0:0|0:0,0:0:0:0:
390,366,41414,1,10,0:0:0:0:
459,293,41755,2,0,L|511:300,2,50,0|0|8,1:0|1:0|0:0,0:0:0:0:
454,242,42267,6,0,L|444:142,1,100,6|0,1:2|1:0,0:0:0:0:
370,74,42948,1,6,1:2:0:0:
286,128,43289,1,0,1:0:0:0:
215,57,43630,6,0,L|105:69,1,100,6|0,1:2|1:0,0:0:0:0:
79,33,44142,1,10,0:0:0:0:
17,111,44482,2,0,L|24:173,1,50,0|0,1:0|1:0,0:0:0:0:
33,214,44823,1,8,0:0:0:0:
33,214,44994,6,0,P|81:192|147:200,1,100,6|0,1:2|1:0,0:0:0:0:
163,228,45505,1,10,0:0:0:0:
163,228,45676,1,6,1:2:0:0:
308,183,46187,5,8,0:0:0:0:
308,183,46357,1,4,1:2:0:0:
377,254,46698,2,0,L|370:315,2,50,10|10|4,0:0|0:0|1:2,0:0:0:0:
459,196,47380,5,10,0:0:0:0:
452,146,47550,1,10,0:0:0:0:
444,96,47721,1,4,1:2:0:0:
353,53,48062,6,0,L|360:-8,2,50,10|10|4,0:0|0:0|1:2,0:0:0:0:
272,110,48744,1,12,0:0:0:0:
272,110,48914,1,12,0:0:0:0:
331,190,49255,6,0,L|383:183,2,50,4|2|8,1:2|0:0|0:0,0:0:0:0:
270,269,49937,2,0,L|221:262,1,50,0|2,1:0|1:2,0:0:0:0:
170,260,50278,1,8,0:0:0:0:
170,260,50448,2,0,P|193:216|186:161,1,100,2|2,1:2|1:2,0:0:0:0:
156,128,50960,1,8,0:0:0:0:
226,56,51301,6,0,L|281:64,2,50,0|2|8,1:0|1:2|0:0,0:0:0:0:
194,17,51812,2,0,L|87:27,1,100,2|2,0:0|0:0,0:0:0:0:
71,70,52323,1,10,0:0:0:0:
124,154,52664,6,0,L|179:146,2,50,0|0|8,1:0|1:0|0:0,0:0:0:0:
90,192,53176,2,0,P|104:236|100:292,1,100,6|0,1:2|1:0,0:0:0:0:
85,339,53687,1,8,0:0:0:0:
85,339,53857,1,6,1:2:0:0:
175,381,54198,1,0,1:0:0:0:
245,310,54539,6,0,P|236:244|245:195,1,100,6|0,1:2|1:0,0:0:0:0:
272,172,55051,2,0,P|317:195|370:192,1,100,10|0,0:0|1:0,0:0:0:0:
466,222,55732,1,8,0:0:0:0:
466,222,55903,2,0,L|453:105,1,100,6|0,1:2|1:0,0:0:0:0:
449,72,56414,1,10,0:0:0:0:
449,72,56585,1,6,1:2:0:0:
324,155,57096,5,8,0:0:0:0:
324,155,57267,2,0,P|265:121|216:122,1,100,4|0,1:2|1:0,0:0:0:0:
193,148,57778,1,12,0:0:0:0:
109,92,58119,2,0,L|114:38,2,50,8|8|4,0:0|0:3|0:3,0:0:0:0:
72,126,58630,1,4,1:2:0:0:
324,368,59823,5,8,0:0:0:0:
394,297,60164,2,0,L|385:190,1,100,6|8,1:2|0:0,0:0:0:0:
380,147,60676,1,2,0:0:0:0:
380,147,60846,1,2,1:2:0:0:
292,194,61187,1,10,0:0:0:0:
218,125,61528,2,0,L|224:63,2,50,0|2|10,1:0|0:0|0:0,0:0:0:0:
139,187,62210,2,0,L|145:249,2,50,2|2|8,1:2|1:2|0:0,0:0:0:0:
50,140,62892,6,0,B|62:37|62:37|21:-7,2,150,2|2|10,1:2|0:0|0:0,0:0:0:0:
39,239,64255,1,2,1:2:0:0:
135,213,64596,1,10,0:0:0:0:
196,291,64937,2,0,L|269:284,1,50,2|10,1:2|0:0,0:0:0:0:
279,248,65278,2,0,L|352:255,1,50,10|2,0:0|0:0,0:0:0:0:
361,290,65619,5,4,1:2:0:0:
435,223,65960,2,0,L|429:166,1,50,10|2,0:0|0:0,0:0:0:0:
392,139,66301,2,0,L|400:33,1,100,2|10,1:2|0:0,0:0:0:0:
308,81,66982,2,0,P|257:62|198:62,1,100,2|10,1:2|0:0,0:0:0:0:
111,55,67664,2,0,L|118:-9,2,50,2|2|8,1:2|0:0|0:0,0:0:0:0:
44,130,68346,6,0,L|53:235,1,100,6|10,1:2|0:0,0:0:0:0:
126,297,69028,2,0,L|119:356,2,50,2|10|10,1:2|0:0|0:0,0:0:0:0:
172,277,69539,2,0,B|225:272|208:298|277:291,1,100,6|10,1:2|0:0,0:0:0:0:
353,236,70221,1,10,0:0:0:0:
389,334,70562,1,8,0:0:0:0:
389,334,70732,1,10,0:0:0:0:
472,272,71073,6,0,B|434:220|461:171|461:171|427:123|453:66,1,200,4|8,1:2|0:0,0:0:0:0:
271,181,72437,2,0,B|136:170|195:246|69:228,1,200,8|8,0:0|0:0,0:0:0:0:
44,33,73801,2,0,B|81:64|81:64|242:47,1,200,8|8,0:0|0:0,0:0:0:0:
336,156,74994,6,0,L|323:276,1,100,2|2,0:0|0:0,0:0:0:0:
227,279,75676,2,0,L|237:179,1,100,2|2,0:0|0:0,0:0:0:0:
208,138,76187,1,10,0:2:0:0:
259,52,76528,6,0,P|313:70|371:61,1,100,4|0,1:2|1:0,0:0:0:0:
446,108,77210,2,0,P|428:162|437:220,1,100,0|0,1:0|1:0,0:0:0:0:
487,287,77892,1,0,1:0:0:0:
413,354,78232,1,0,1:0:0:0:
328,300,78573,1,0,1:0:0:0:
249,361,78914,1,0,1:0:0:0:
249,361,79085,1,2,0:0:0:0:
173,295,79426,6,0,L|114:304,2,50,2|0|2,0:0|1:2|0:0,0:0:0:0:
239,220,80107,2,0,L|298:229,2,50,2|0|2,0:0|1:2|0:0,0:0:0:0:
177,140,80789,2,0,L|118:149,2,50,2|0|2,0:0|1:2|0:0,0:0:0:0:
238,60,81471,2,0,L|297:69,1,50,2|2,0:0|1:2,0:0:0:0:
313,110,81812,6,0,L|429:90,1,100,2|8,0:0|0:0,0:0:0:0:
454,119,82323,1,8,1:2:0:0:
395,200,82664,1,8,1:2:0:0:
444,286,83005,1,8,1:2:0:0:
444,286,83176,1,10,0:0:0:0:
380,363,83517,5,0,1:0:0:0:
380,363,83687,2,0,P|314:336|266:338,1,100,12|0,0:0|1:0,0:0:0:0:
221,258,84369,2,0,L|228:196,1,50,8|2,0:0|0:0,0:0:0:0:
233,158,84710,2,0,P|167:185|119:183,1,100,4|8,1:2|0:0,0:0:0:0:
49,141,85392,6,0,L|42:79,2,50,0|2|8,1:0|1:2|0:0,0:0:0:0:
16,178,85903,2,0,L|29:293,1,100,2|2,0:0|0:0,0:0:0:0:
34,326,86414,1,10,0:0:0:0:
123,280,86755,1,0,1:0:0:0:
190,353,87096,5,10,0:0:0:0:
190,353,87267,2,0,L|306:340,1,100,4|0,1:2|1:0,0:0:0:0:
368,280,87948,1,4,1:2:0:0:
300,206,88289,1,0,1:0:0:0:
371,136,88630,6,0,L|359:19,1,100,4|0,1:2|1:0,0:0:0:0:
402,8,89142,2,0,P|448:28|510:22,1,100,10|0,0:0|1:0,0:0:0:0:
464,120,89823,1,10,0:0:0:0:
464,120,89994,6,0,L|474:219,1,100,4|0,1:2|1:0,0:0:0:0:
443,259,90505,1,10,0:0:0:0:
443,259,90676,1,4,1:2:0:0:
317,177,91187,5,10,0:0:0:0:
317,177,91357,2,0,B|213:174|258:222|165:209,1,150,6|8,1:2|0:0,0:0:0:0:
98,145,92210,2,0,L|106:89,2,50,8|4|4,0:3|0:3|0:3,0:0:0:0:
62,180,92721,1,6,1:2:0:0:
381,38,93914,5,8,0:0:0:0:
457,102,94255,2,0,L|512:94,2,50,4|2|10,1:2|0:0|0:0,0:0:0:0:
398,183,94937,2,0,L|339:173,1,50,10|2,0:0|1:2,0:0:0:0:
310,142,95278,2,0,L|251:152,1,50,8|2,0:0|1:2,0:0:0:0:
228,189,95619,5,8,0:0:0:0:
149,127,95960,2,0,L|157:72,2,50,10|2|8,0:0|1:2|0:0,0:0:0:0:
111,160,96471,2,0,L|122:274,1,100,2|2,1:2|1:2,0:0:0:0:
130,308,96982,5,12,0:0:0:0:
222,268,97323,1,10,0:0:0:0:
284,346,97664,2,0,L|343:336,1,50,10|2,0:0|1:2,0:0:0:0:
372,305,98005,2,0,L|431:315,1,50,8|2,0:0|1:2,0:0:0:0:
470,323,98346,6,0,L|457:205,1,100,8|8,0:3|0:0,0:0:0:0:
495,188,98857,1,2,1:3:0:0:
414,128,99198,1,2,1:3:0:0:
332,185,99539,6,0,L|219:169,1,100,14|2,0:0|1:2,0:0:0:0:
205,128,100051,1,14,0:0:0:0:
268,50,100392,1,2,1:2:0:0:
268,50,100562,1,2,1:2:0:0:
179,4,100903,6,0,L|66:20,1,100,2|2,1:2|1:2,0:0:0:0:
32,34,101414,1,10,0:0:0:0:
32,34,101585,1,2,1:2:0:0:
97,109,101926,1,2,1:2:0:0:
26,180,102267,6,0,L|39:295,1,100,6|12,1:2|0:0,0:0:0:0:
41,329,102778,1,12,0:0:0:0:
126,277,103119,1,12,0:0:0:0:
126,277,103289,1,12,0:0:0:0:
197,346,103630,6,0,P|245:324|302:325,1,100,12|8,0:2|0:0,0:0:0:0:
329,290,104142,2,0,L|322:228,1,50,8|8,0:3|0:3,0:0:0:0:
290,202,104482,2,0,L|297:140,1,50,4|4,0:3|0:3,0:0:0:0:
339,125,104823,1,0,1:0:0:0:
339,125,104994,1,6,1:2:0:0:
256,192,105164,12,8,110534,0:0:0:0:
