osu file format v14

[General]
AudioFilename: audio.mp3
AudioLeadIn: 0
PreviewTime: 38261
Countdown: 0
SampleSet: Soft
StackLeniency: 0.4
Mode: 0
LetterboxInBreaks: 0
WidescreenStoryboard: 0

[Editor]
DistanceSpacing: 1.4
BeatDivisor: 4
GridSize: 32
TimelineZoom: 1

[Metadata]
Title:Like a pop'n music
TitleUnicode:Like a pop'n music
Artist:red glasses
ArtistUnicode:red glasses
Creator:Log Off Now
Version:Let's Start!
Source:pop'n music 20 fantasia
Tags:japanese video game ポップンミュージック 20 ファンタジア sunny park ayu yuuji yoshizawa nonuplet nonet 吉澤裕司 ゆーじ ポップンポップ
BeatmapID:2380150
BeatmapSetID:1139462

[Difficulty]
HPDrainRate:5.5
CircleSize:3.8
OverallDifficulty:9
ApproachRate:9.3
SliderMultiplier:1.4
SliderTickRate:1

[Events]
//Background and Video events
0,0,"poppin.jpg",0,0
//Break Periods
//Storyboard Layer 0 (Background)
//Storyboard Layer 1 (Fail)
//Storyboard Layer 2 (Pass)
//Storyboard Layer 3 (Foreground)
//Storyboard Layer 4 (Overlay)
//Storyboard Sound Samples

[TimingPoints]
2892,340.909090909091,4,2,1,65,1,0
8176,-100,4,2,1,75,0,0
16528,-100,4,2,1,65,0,0
20448,-83.3333333333333,4,2,1,65,0,0
21130,-100,4,2,1,65,0,0
25903,-83.3333333333333,4,2,1,65,0,0
26585,-100,4,2,1,65,0,0
27437,-125,4,2,1,65,0,0
32892,-100,4,2,1,65,0,0
37323,-83.3333333333333,4,2,1,65,0,0
38346,-83.3333333333333,4,2,1,80,0,1
42267,-76.9230769230769,4,2,1,80,0,1
44142,-83.3333333333333,4,2,1,80,0,1
53176,-76.9230769230769,4,2,1,80,0,1
54880,-83.3333333333333,4,2,1,80,0,1
58630,-83.3333333333333,4,2,1,70,0,0
71244,-83.3333333333333,4,2,2,50,0,0
71755,-111.111111111111,4,2,2,50,0,0
76443,-111.111111111111,4,2,2,5,0,0
76528,-90.9090909090909,4,2,1,55,0,0
79085,-90.9090909090909,4,2,1,60,0,0
82153,-90.9090909090909,4,2,1,63,0,0
82323,-90.9090909090909,4,2,1,66,0,0
82494,-90.9090909090909,4,2,1,69,0,0
82664,-90.9090909090909,4,2,1,72,0,0
82835,-90.9090909090909,4,2,1,75,0,0
83005,-90.9090909090909,4,2,1,78,0,0
83176,-90.9090909090909,4,2,1,80,0,0
83517,-90.9090909090909,4,2,1,70,0,0
83687,-83.3333333333333,4,2,1,80,0,1
87267,-76.9230769230769,4,2,1,80,0,1
89142,-83.3333333333333,4,2,1,80,0,1
91357,-71.4285714285714,4,2,1,80,0,1
91698,-83.3333333333333,4,2,1,80,0,1
93914,-90.9090909090909,4,2,1,80,0,0
98346,-76.9230769230769,4,2,1,80,0,0
98857,-90.9090909090909,4,2,1,80,0,0
105164,-90.9090909090909,4,2,1,60,0,0
106528,-90.9090909090909,4,2,1,40,0,0
107892,-90.9090909090909,4,2,1,20,0,0
109255,-90.9090909090909,4,2,1,10,0,0
110278,-90.9090909090909,4,2,1,5,0,0
110534,-90.9090909090909,4,2,1,50,0,0

[Colours]
Combo1 : 255,216,98
Combo2 : 126,254,171
Combo3 : 98,169,255
Combo4 : 248,118,137

[HitObjects]
223,182,2892,5,4,1:2:0:0:
164,260,3062,1,2,0:0:0:0:
85,109,3232,2,0,L|178:121,1,70,2|0,1:2|0:0,0:0:0:0:
317,139,3573,1,2,1:2:0:0:
183,244,3744,2,0,P|231:222|265:226,1,70,2|0,0:0|1:0,0:0:0:0:
352,297,4085,6,0,B|328:254|328:254|349:140,1,140,2|2,0:0|0:0,0:0:0:0:
370,12,4596,1,2,1:2:0:0:
461,105,4767,2,0,L|369:91,1,70,2|0,0:0|1:0,0:0:0:0:
275,34,5107,2,0,P|310:94|307:116,1,70,2|0,0:0|1:0,0:0:0:0:
190,196,5448,1,2,0:0:0:0:
225,103,5619,5,0,1:0:0:0:
269,243,5789,1,2,0:0:0:0:
99,194,5960,2,0,L|191:180,1,70,2|0,1:2|0:0,0:0:0:0:
347,151,6301,1,2,1:2:0:0:
227,312,6471,2,0,L|237:242,1,70,2|0,0:0|1:0,0:0:0:0:
256,102,6812,6,0,P|290:145|383:127,1,140,2|2,0:0|0:0,0:0:0:0:
489,73,7323,1,2,1:2:0:0:
322,0,7494,2,0,L|330:72,1,70,4|0,0:3|1:0,0:0:0:0:
182,232,7835,5,10,0:0:0:0:
226,86,8005,1,0,1:0:0:0:
254,331,8176,1,12,0:0:0:0:
128,168,8346,1,0,1:0:0:0:
320,51,8517,5,10,0:0:0:0:
331,253,8687,2,0,L|240:242,1,70,10|0,1:2|0:0,0:0:0:0:
112,123,9028,5,10,1:2:0:0:
101,325,9198,2,0,L|192:314,1,70,10|0,0:0|1:0,0:0:0:0:
256,127,9539,6,0,L|347:138,1,70,14|0,0:0|1:0,0:0:0:0:
398,317,9880,1,10,0:0:0:0:
194,201,10051,1,10,1:2:0:0:
404,42,10221,2,0,L|334:50,1,70,10|0,1:2|1:0,0:0:0:0:
172,232,10562,5,14,0:0:0:0:
214,28,10732,1,0,1:0:0:0:
328,276,10903,2,0,L|258:268,1,70,14|0,0:0|1:0,0:0:0:0:
53,132,11244,5,10,0:0:0:0:
157,382,11414,2,0,L|165:312,1,70,10|0,1:2|0:0,0:0:0:0:
137,77,11755,5,10,1:2:0:0:
10,313,11926,2,0,L|80:321,1,70,10|0,0:0|1:0,0:0:0:0:
295,117,12267,6,0,L|225:125,1,70,14|0,0:0|1:0,0:0:0:0:
20,213,12607,1,10,0:0:0:0:
226,331,12778,1,10,1:2:0:0:
100,85,12948,6,0,L|108:155,1,70,14|0,0:0|1:0,0:0:0:0:
269,339,13289,2,0,L|277:269,1,70,14|0,0:0|1:0,0:0:0:0:
304,21,13630,1,14,0:0:0:0:
256,192,13801,12,2,15164,0:0:0:0:
90,111,15846,5,2,1:2:0:0:
143,350,16017,1,2,1:2:0:0:
110,222,16528,6,0,P|146:225|194:232,1,70,4|2,1:2|0:0,0:0:0:0:
229,299,16869,2,0,P|261:293|313:289,1,70,0|2,1:0|0:0,0:0:0:0:
334,213,17210,2,0,P|371:216|418:223,1,70,0|2,1:2|0:0,0:0:0:0:
460,295,17551,1,0,1:0:0:0:
497,115,17721,5,2,0:0:0:0:
497,115,17806,1,2,0:0:0:0:
497,115,17892,2,0,P|455:138|407:142,1,70,0|2,1:2|0:0,0:0:0:0:
283,70,18232,1,2,1:2:0:0:
371,18,18403,2,0,P|366:54|364:98,1,70,2|0,0:0|1:0,0:0:0:0:
349,244,18744,1,2,0:0:0:0:
276,165,18914,1,0,1:2:0:0:
451,87,19085,6,0,P|445:126|444:167,1,70,8|0,0:0|1:0,0:0:0:0:
427,321,19426,1,2,0:0:0:0:
263,267,19596,2,0,P|291:235|387:230,2,140,2|0|0,1:2|1:0|1:0,0:0:0:0:
64,163,20448,6,0,L|245:178,1,167.999994873047,6|0,1:2|1:0,0:0:0:0:
45,81,20960,1,8,0:0:0:0:
86,254,21130,6,0,L|230:268,1,140,6|0,1:2|1:0,0:0:0:0:
64,163,21642,1,8,0:0:0:0:
0,330,21812,1,8,0:3:0:0:
0,330,21897,1,8,0:3:0:0:
0,330,21982,6,0,P|37:331|79:338,1,70,4|2,1:2|0:0,0:0:0:0:
185,207,22323,1,0,1:0:0:0:
106,252,22494,1,2,0:0:0:0:
180,375,22664,1,2,1:2:0:0:
260,285,22835,2,0,P|218:286|181:293,1,70,2|0,0:0|1:0,0:0:0:0:
313,362,23176,5,8,0:0:0:0:
280,192,23346,1,0,1:0:0:0:
358,275,23517,1,2,0:0:0:0:
372,141,23687,1,2,1:2:0:0:
267,217,23857,2,0,P|223:200|188:197,1,70,2|0,0:0|1:0,0:0:0:0:
125,320,24198,1,2,0:0:0:0:
204,280,24369,1,2,1:2:0:0:
128,111,24539,5,8,0:0:0:0:
112,233,24710,1,0,1:0:0:0:
47,48,24880,1,10,0:0:0:0:
201,191,25051,2,0,P|252:144|333:155,2,140,2|0|0,1:2|1:0|1:0,0:0:0:0:
248,378,25903,6,0,B|283:333|283:333|278:210,1,167.999994873047,14|0,0:0|1:0,0:0:0:0:
370,374,26414,1,8,0:0:0:0:
201,278,26585,6,0,B|196:184|196:184|226:147,1,140,6|8,1:2|0:3,0:0:0:0:
365,294,27096,1,8,0:3:0:0:
281,225,27267,1,4,0:3:0:0:
281,225,27352,1,4,0:3:0:0:
281,225,27437,6,0,L|406:211,1,112,4|0,1:2|0:0,0:0:0:0:
469,162,27948,1,2,1:2:0:0:
443,372,28119,1,10,0:0:0:0:
365,294,28289,2,0,L|432:285,1,56,2|0,0:0|0:0,0:0:0:0:
500,158,28630,6,0,P|459:109|469:44,1,112,4|0,1:2|0:0,0:0:0:0:
401,190,29142,1,2,1:2:0:0:
301,23,29312,1,6,1:2:0:0:
375,61,29482,1,2,0:0:0:0:
294,163,29653,2,0,L|303:86,1,56,2|0,0:0|1:0,0:0:0:0:
129,12,29994,6,0,L|142:145,1,112,12|0,0:0|0:0,0:0:0:0:
151,210,30505,1,0,1:0:0:0:
222,111,30676,1,2,0:0:0:0:
57,35,30846,1,8,0:0:0:0:
139,123,31017,2,0,L|133:51,1,56,8|4,0:3|0:3,0:0:0:0:
16,195,31357,6,0,P|73:186|129:230,1,112,4|8,1:2|0:0,0:0:0:0:
109,337,31869,1,2,0:0:0:0:
51,269,32039,1,0,1:0:0:0:
231,176,32210,5,10,0:0:0:0:
189,357,32380,1,0,0:0:0:0:
156,134,32551,1,8,0:0:0:0:
261,306,32721,1,8,0:0:0:0:
261,306,32806,1,8,0:0:0:0:
261,306,32892,6,0,L|354:292,1,70,4|0,1:2|0:0,0:0:0:0:
462,226,33232,2,0,L|393:216,1,70,0|0,1:0|0:0,0:0:0:0:
283,138,33573,2,0,L|295:221,1,70,0|0,1:0|0:0,0:0:0:0:
410,384,33914,2,0,L|422:301,1,70,0|0,1:0|0:0,0:0:0:0:
436,121,34255,5,2,1:3:0:0:
373,236,34426,1,2,0:0:0:0:
341,71,34596,1,2,1:3:0:0:
475,218,34767,1,2,0:0:0:0:
493,24,34937,1,2,1:3:0:0:
411,139,35107,1,2,0:0:0:0:
288,12,35278,2,0,L|298:81,1,70,2|0,1:3|0:0,0:0:0:0:
340,276,35619,5,4,1:2:0:0:
383,47,35789,1,0,1:0:0:0:
178,195,35960,2,0,L|247:184,1,70,8|0,0:0|0:0,0:0:0:0:
422,132,36301,5,8,0:3:0:0:
418,153,36386,1,8,0:0:0:0:
415,175,36471,1,8,0:0:0:0:
412,197,36556,1,8,0:0:0:0:
409,219,36642,2,0,L|395:319,1,70,4|0,1:2|0:0,0:0:0:0:
132,77,36982,5,12,0:0:0:0:
220,285,37153,1,8,0:0:0:0:
220,285,37238,1,8,0:0:0:0:
220,285,37323,2,0,L|230:224,1,41.9999987182618,8|8,0:0|0:3,0:0:0:0:
144,162,37494,2,0,L|149:207,1,41.9999987182618,4|0,0:3|1:0,0:0:0:0:
172,357,37664,5,10,0:0:0:0:
224,78,37835,1,10,0:0:0:0:
210,57,38346,5,6,1:2:0:0:
164,334,38517,1,2,0:0:0:0:
62,54,38687,1,8,0:0:0:0:
267,294,38857,1,2,0:0:0:0:
340,19,39028,5,2,1:2:0:0:
45,164,39198,1,2,1:2:0:0:
294,285,39369,1,8,0:0:0:0:
188,41,39539,6,0,L|198:156,1,83.9999974365235,2|0,1:2|0:0,0:0:0:0:
210,369,39880,1,2,1:2:0:0:
301,100,40051,1,8,0:0:0:0:
118,273,40221,1,2,0:0:0:0:
80,64,40392,5,2,1:2:0:0:
237,251,40562,1,2,1:2:0:0:
28,168,40732,1,10,0:0:0:0:
284,4,40903,6,0,L|274:119,1,83.9999974365235,2|0,0:0|1:0,0:0:0:0:
259,267,41244,1,2,0:0:0:0:
84,113,41414,2,0,B|179:101|132:180|260:163,1,167.999994873047,10|0,0:0|1:0,0:0:0:0:
396,21,41926,1,0,1:0:0:0:
223,66,42096,1,8,0:0:0:0:
321,232,42267,6,0,P|356:178|476:180,1,181.999991668702,6|0,1:2|1:0,0:0:0:0:
253,80,42778,1,8,0:0:0:0:
407,251,42948,6,0,P|372:197|247:202,1,181.999991668702,6|0,1:2|1:0,0:0:0:0:
512,98,43460,1,8,0:0:0:0:
318,267,43630,6,0,P|353:213|475:217,1,181.999991668702,6|0,1:2|1:0,0:0:0:0:
415,378,44142,2,0,L|405:287,1,83.9999974365235,10|0,0:0|0:0,0:0:0:0:
384,131,44482,1,0,1:0:0:0:
299,316,44653,1,0,1:0:0:0:
465,220,44823,1,8,0:0:0:0:
320,55,44994,6,0,B|285:101|285:101|302:220,1,167.999994873047,6|0,1:2|1:0,0:0:0:0:
315,348,45505,1,10,0:0:0:0:
467,121,45676,2,0,L|376:131,1,83.9999974365235,6|0,1:2|0:0,0:0:0:0:
188,155,46017,1,0,1:0:0:0:
309,251,46187,1,8,0:0:0:0:
258,9,46357,5,4,1:2:0:0:
145,325,46698,5,10,0:0:0:0:
469,214,46869,1,10,0:0:0:0:
49,135,47039,1,4,1:2:0:0:
387,79,47380,5,10,0:0:0:0:
342,350,47551,1,10,0:0:0:0:
197,25,47721,1,4,1:2:0:0:
224,315,48062,5,10,0:0:0:0:
266,79,48232,1,10,0:0:0:0:
424,373,48403,1,4,1:2:0:0:
76,148,48744,5,12,0:0:0:0:
475,79,48914,1,12,0:0:0:0:
212,314,49255,5,4,1:2:0:0:
258,54,49426,1,2,0:0:0:0:
324,351,49596,1,8,0:0:0:0:
74,204,49767,1,2,0:0:0:0:
373,88,49937,5,0,1:0:0:0:
268,279,50107,1,2,1:2:0:0:
210,10,50278,1,8,0:0:0:0:
417,217,50448,6,0,L|327:204,1,83.9999974365235,2|0,1:2|0:0,0:0:0:0:
62,112,50789,1,2,1:2:0:0:
120,333,50960,1,8,0:0:0:0:
229,118,51130,1,2,0:0:0:0:
23,221,51301,5,0,1:0:0:0:
234,327,51471,1,2,1:2:0:0:
141,169,51642,1,8,0:0:0:0:
56,373,51812,6,0,L|146:360,1,83.9999974365235,2|0,0:0|1:0,0:0:0:0:
264,112,52153,1,2,0:0:0:0:
102,244,52323,2,0,B|197:232|150:311|278:294,1,167.999994873047,10|0,0:0|1:0,0:0:0:0:
361,94,52835,1,0,1:0:0:0:
246,214,53005,1,8,0:0:0:0:
366,364,53176,6,0,L|346:174,1,181.999991668702,6|0,1:2|1:0,0:0:0:0:
200,82,53687,1,8,0:0:0:0:
286,334,53857,6,0,P|330:287|448:327,1,181.999991668702,6|0,1:2|1:0,0:0:0:0:
224,220,54369,1,8,0:0:0:0:
406,26,54539,6,0,L|423:207,1,181.999991668702,6|0,1:2|1:0,0:0:0:0:
250,122,55051,2,0,L|333:113,1,83.9999974365235,10|0,0:0|0:0,0:0:0:0:
494,25,55391,1,0,1:0:0:0:
510,213,55562,1,0,1:0:0:0:
357,111,55732,1,8,0:0:0:0:
463,300,55903,6,0,B|417:265|417:265|298:282,1,167.999994873047,6|0,1:2|1:0,0:0:0:0:
115,315,56414,1,10,0:0:0:0:
192,118,56585,2,0,L|202:209,1,83.9999974365235,6|0,1:2|0:0,0:0:0:0:
225,371,56926,1,0,1:0:0:0:
297,157,57096,1,8,0:0:0:0:
157,288,57267,6,0,B|49:306|91:242|-20:262,1,167.999994873047,4|0,1:2|1:0,0:0:0:0:
18,352,57778,1,12,0:0:0:0:
133,197,57948,5,8,0:0:0:0:
133,197,58034,1,8,0:0:0:0:
133,197,58119,2,0,L|121:92,1,83.9999974365235,8|8,0:0|0:3,0:0:0:0:
44,14,58460,1,4,0:3:0:0:
17,214,58630,1,4,1:2:0:0:
256,192,58801,12,8,59823,0:0:0:0:
242,246,60164,6,0,B|337:234|290:313|418:296,1,167.999994873047,6|8,1:2|0:0,0:0:0:0:
414,139,60676,1,2,0:0:0:0:
414,139,60761,1,2,0:0:0:0:
414,139,60846,2,0,P|381:189|386:225,1,83.9999974365235,2|0,1:2|1:0,0:0:0:0:
482,301,61187,1,10,0:0:0:0:
464,209,61357,1,2,0:0:0:0:
418,355,61528,6,0,L|376:348,1,41.9999987182618,0|2,1:0|0:0,0:0:0:0:
333,274,61698,2,0,L|291:280,1,41.9999987182618,2|2,0:0|0:0,0:0:0:0:
268,357,61869,2,0,L|169:346,1,83.9999974365235,10|2,0:0|0:0,0:0:0:0:
135,201,62210,1,2,1:2:0:0:
135,201,62295,1,2,0:0:0:0:
135,201,62380,2,0,P|168:251|163:287,1,83.9999974365235,2|8,1:2|0:0,0:0:0:0:
87,355,62721,1,0,0:0:0:0:
1,255,62892,6,0,L|97:269,1,83.9999974365235,2|0,1:2|0:0,0:0:0:0:
254,131,63232,1,10,0:0:0:0:
149,179,63403,1,2,0:0:0:0:
265,309,63573,1,0,1:0:0:0:
228,216,63744,1,2,1:2:0:0:
104,359,63914,2,0,L|200:345,1,83.9999974365235,10|0,0:0|0:0,0:0:0:0:
325,239,64255,5,2,1:2:0:0:
325,239,64340,1,2,0:0:0:0:
325,239,64426,1,2,0:0:0:0:
157,145,64596,6,0,L|108:151,2,41.9999987182618,10|2|2,0:0|0:0|0:0,0:0:0:0:
351,24,64937,6,0,L|309:29,1,41.9999987182618,2|2,1:2|0:0,0:0:0:0:
265,94,65107,2,0,L|223:88,1,41.9999987182618,10|2,0:0|0:0,0:0:0:0:
157,39,65278,1,10,0:0:0:0:
222,257,65448,1,2,0:0:0:0:
281,13,65619,5,4,1:2:0:0:
155,203,65789,1,2,0:0:0:0:
346,135,65960,1,10,0:0:0:0:
133,31,66130,5,2,0:0:0:0:
133,31,66215,1,2,0:0:0:0:
133,31,66301,2,0,L|182:37,3,41.9999987182618,2|2|2|2,1:2|0:0|1:2|0:0,0:0:0:0:
231,108,66642,2,0,L|280:102,3,41.9999987182618,10|2|2|2,0:0|0:0|0:0|0:0,0:0:0:0:
340,49,66982,5,2,1:2:0:0:
340,49,67068,1,2,0:0:0:0:
340,49,67153,1,2,0:0:0:0:
303,234,67323,6,0,L|295:181,1,41.9999987182618,10|2,0:0|0:0,0:0:0:0:
379,116,67494,2,0,L|371:169,1,41.9999987182618,2|2,0:0|0:0,0:0:0:0:
390,280,67664,2,0,L|382:227,1,41.9999987182618,2|2,1:2|0:0,0:0:0:0:
457,150,67835,1,10,0:0:0:0:
419,358,68005,5,8,0:0:0:0:
362,100,68176,1,2,0:0:0:0:
257,272,68346,6,0,L|306:278,3,41.9999987182618,6|2|2|2,1:2|0:0|0:0|0:0,0:0:0:0:
200,214,68687,2,0,L|158:219,3,41.9999987182618,10|2|2|2,0:0|0:0|0:0|0:0,0:0:0:0:
101,281,69028,2,0,L|54:273,1,41.9999987182618,2|2,1:2|0:0,0:0:0:0:
3,199,69198,1,10,0:0:0:0:
185,309,69369,1,10,0:0:0:0:
125,90,69539,5,6,1:2:0:0:
125,90,69624,1,2,0:0:0:0:
125,90,69710,2,0,L|119:139,3,41.9999987182618,2|2|10|2,0:0|0:0|0:0|0:0,0:0:0:0:
171,194,70051,5,8,0:3:0:0:
194,170,70136,1,2,0:0:0:0:
224,158,70221,1,10,0:0:0:0:
257,159,70306,1,2,0:0:0:0:
286,173,70392,2,0,L|280:222,3,41.9999987182618,2|2|8|2,0:0|0:0|0:0|0:0,0:0:0:0:
217,266,70732,2,0,L|223:315,3,41.9999987182618,10|2|2|2,0:0|0:0|0:0|0:0,0:0:0:0:
293,357,71073,6,0,P|355:310|458:323,1,167.999994873047,4|8,1:2|0:0,0:0:0:0:
494,238,71585,1,2,0:0:0:0:
410,153,71755,2,0,L|418:236,1,62.9999980773926,8|2,0:0|0:0,0:0:0:0:
327,306,72096,2,0,L|333:243,1,62.9999980773926,8|2,0:0|0:0,0:0:0:0:
230,138,72437,5,8,0:0:0:0:
247,221,72607,1,2,0:0:0:0:
365,130,72778,2,0,P|328:155|282:160,1,62.9999980773926,8|2,0:0|0:0,0:0:0:0:
167,74,73119,5,8,0:0:0:0:
230,138,73289,1,2,0:0:0:0:
252,47,73460,1,8,0:0:0:0:
146,158,73630,2,0,L|156:248,1,62.9999980773926,2|8,0:0|0:0,0:0:0:0:
165,308,73971,1,2,0:0:0:0:
315,223,74142,2,0,B|386:215|363:263|465:243,2,125.999996154785,10|8|8,0:0|0:0|0:0,0:0:0:0:
249,320,74994,6,0,L|242:257,1,62.9999980773926,2|8,0:0|0:0,0:0:0:0:
179,143,75335,2,0,L|172:205,1,62.9999980773926,2|8,0:0|0:0,0:0:0:0:
175,370,75676,2,0,L|168:307,1,62.9999980773926,2|8,0:0|0:0,0:0:0:0:
96,141,76017,1,2,0:0:0:0:
89,346,76187,2,0,L|78:234,1,94.499997116089,10|0,0:2|0:0,0:0:0:0:
78,216,76528,6,0,P|123:231|165:225,1,77.0000023498536,4|0,1:2|0:0,0:0:0:0:
192,321,76869,2,0,P|227:289|243:250,1,77.0000023498536,0|0,1:0|0:0,0:0:0:0:
342,263,77210,2,0,P|332:216|306:183,1,77.0000023498536,0|0,1:0|0:0,0:0:0:0:
374,105,77551,2,0,P|329:90|286:96,1,77.0000023498536,0|0,1:0|0:0,0:0:0:0:
201,11,77892,6,0,L|209:87,1,77.0000023498536,0|0,1:0|0:0,0:0:0:0:
77,175,78232,2,0,L|153:166,1,77.0000023498536,0|0,1:0|0:0,0:0:0:0:
230,315,78573,2,0,L|221:238,1,77.0000023498536,0|0,1:0|0:0,0:0:0:0:
290,59,78914,5,0,1:0:0:0:
365,171,79085,2,0,L|288:162,1,77.0000023498536,2|0,0:0|1:0,0:0:0:0:
123,106,79426,5,2,0:0:0:0:
138,217,79596,1,0,1:2:0:0:
118,76,79767,2,0,L|109:0,1,77.0000023498536,2|0,0:0|1:0,0:0:0:0:
238,162,80107,5,2,0:0:0:0:
250,37,80277,1,0,1:2:0:0:
233,192,80448,2,0,L|224:268,1,77.0000023498536,2|0,0:0|1:0,0:0:0:0:
372,118,80789,5,2,0:0:0:0:
390,263,80959,1,0,1:2:0:0:
367,88,81130,2,0,L|358:12,1,77.0000023498536,2|0,0:0|1:0,0:0:0:0:
293,211,81471,1,2,0:0:0:0:
462,123,81642,1,2,1:2:0:0:
215,29,81812,2,0,L|224:105,1,77.0000023498536,2|0,0:0|1:0,0:0:0:0:
244,295,82153,5,8,0:0:0:0:
308,135,82323,1,8,1:2:0:0:
110,255,82494,1,10,0:0:0:0:
371,344,82664,5,8,1:2:0:0:
189,117,82835,1,8,0:0:0:0:
242,377,83005,1,8,1:2:0:0:
324,49,83176,1,10,0:0:0:0:
377,317,83517,5,0,1:0:0:0:
306,20,83687,1,12,0:0:0:0:
197,273,83857,1,2,0:0:0:0:
502,160,84028,5,0,1:0:0:0:
214,77,84198,1,2,1:2:0:0:
270,353,84369,1,8,0:0:0:0:
317,115,84539,1,2,0:0:0:0:
155,318,84710,5,4,1:2:0:0:
93,85,84880,1,2,0:0:0:0:
254,262,85051,2,0,L|264:172,1,83.9999974365235,8|2,0:0|0:0,0:0:0:0:
277,4,85392,5,0,1:0:0:0:
147,199,85562,1,2,1:2:0:0:
355,140,85732,1,8,0:0:0:0:
189,28,85903,2,0,L|199:118,1,83.9999974365235,2|0,0:0|1:0,0:0:0:0:
228,336,86244,1,2,0:0:0:0:
277,134,86414,5,10,0:0:0:0:
314,320,86585,1,2,0:0:0:0:
203,190,86755,1,0,1:0:0:0:
400,305,86926,1,2,1:2:0:0:
349,72,87096,1,10,0:0:0:0:
214,357,87267,6,0,P|185:304|72:305,1,181.999991668702,4|0,1:2|1:0,0:0:0:0:
279,195,87778,1,10,0:0:0:0:
125,370,87948,6,0,B|159:325|159:325|147:196,1,181.999991668702,4|0,1:2|1:0,0:0:0:0:
130,23,88460,1,10,0:0:0:0:
17,257,88630,6,0,B|112:236|80:323|222:267,1,181.999991668702,4|0,1:2|1:0,0:0:0:0:
234,121,89142,1,10,0:0:0:0:
146,183,89312,1,2,0:0:0:0:
292,306,89482,1,0,1:0:0:0:
239,206,89653,1,2,1:2:0:0:
191,363,89823,1,10,0:0:0:0:
337,218,89994,6,0,P|381:176|493:202,1,167.999994873047,4|0,1:2|1:0,0:0:0:0:
289,125,90505,1,10,0:0:0:0:
416,256,90676,6,0,L|396:71,1,167.999994873047,4|0,1:2|1:0,0:0:0:0:
320,242,91187,1,10,0:0:0:0:
434,12,91357,6,0,B|355:-6|320:57|320:57|297:27|244:26,1,195.999994018555,6|8,1:2|0:0,0:0:0:0:
249,52,91784,1,8,0:0:0:0:
249,52,91869,1,8,0:0:0:0:
402,131,92039,2,0,L|397:82,2,41.9999987182618,8|8|8,0:0|0:3|0:3,0:0:0:0:
230,257,92380,5,4,0:3:0:0:
298,125,92551,1,4,0:3:0:0:
337,365,92721,1,6,1:2:0:0:
256,192,92892,12,8,93914,0:0:0:0:
179,73,94255,5,4,1:2:0:0:
216,323,94426,1,2,0:0:0:0:
320,113,94596,2,0,L|222:125,1,77.0000023498536,10|0,0:0|0:0,0:0:0:0:
8,47,94937,5,10,0:0:0:0:
39,327,95107,1,2,1:2:0:0:
166,24,95278,5,8,0:0:0:0:
138,291,95448,1,2,1:2:0:0:
37,79,95619,2,0,L|135:91,1,77.0000023498536,8|2,0:0|0:0,0:0:0:0:
338,34,95960,5,10,0:0:0:0:
310,323,96130,1,2,1:2:0:0:
141,96,96301,5,8,0:0:0:0:
406,231,96471,1,2,1:2:0:0:
182,24,96642,5,8,0:0:0:0:
233,298,96812,1,2,1:2:0:0:
338,52,96982,6,0,L|240:64,1,77.0000023498536,12|2,0:0|0:0,0:0:0:0:
83,317,97323,2,0,L|159:326,1,77.0000023498536,10|0,0:0|0:0,0:0:0:0:
390,122,97664,5,10,0:0:0:0:
91,172,97835,1,2,1:2:0:0:
327,330,98005,5,8,0:0:0:0:
278,55,98176,1,2,1:2:0:0:
103,291,98346,6,0,L|243:276,1,136.499993751526,8|8,0:3|0:0,0:0:0:0:
264,272,98687,1,8,0:0:0:0:
12,179,98857,5,2,1:3:0:0:
353,137,99198,5,2,1:3:0:0:
242,356,99369,1,8,0:0:0:0:
202,68,99539,6,0,L|278:77,1,77.0000023498536,14|0,0:0|0:0,0:0:0:0:
376,236,99880,1,2,1:2:0:0:
453,31,100051,2,0,B|420:70|420:70|439:185,1,154.000004699707,14|2,0:0|1:2,0:0:0:0:
458,296,100562,1,2,1:2:0:0:
507,99,100732,1,8,0:0:0:0:
376,236,100903,6,0,B|278:250|319:189|223:204,1,154.000004699707,2|2,1:2|1:2,0:0:0:0:
61,265,101414,1,10,0:0:0:0:
127,103,101585,2,0,L|136:198,1,77.0000023498536,2|0,1:2|0:0,0:0:0:0:
249,292,101926,1,2,1:2:0:0:
233,114,102096,1,8,0:0:0:0:
96,354,102267,2,0,L|87:259,1,77.0000023498536,6|0,1:2|0:0,0:0:0:0:
73,48,102607,5,12,0:0:0:0:
416,122,102778,1,12,0:0:0:0:
180,199,102948,1,0,1:0:0:0:
398,25,103119,5,12,0:0:0:0:
336,317,103289,1,12,0:0:0:0:
271,136,103460,1,0,1:0:0:0:
166,362,103630,6,0,L|261:353,1,77.0000023498536,12|0,0:2|0:0,0:0:0:0:
395,189,103971,1,8,0:0:0:0:
341,349,104142,1,8,0:3:0:0:
290,115,104312,1,8,0:3:0:0:
503,209,104482,5,4,0:3:0:0:
279,270,104653,1,4,0:3:0:0:
339,20,104823,1,0,1:0:0:0:
429,348,104994,5,6,1:2:0:0:
256,192,105164,12,0,110278,0:0:0:0:
218,244,110534,6,0,L|273:235,2,38.5000011749268,8|8|0,0:0|0:3|1:0,0:0:0:0:
