osu file format v14

[General]
AudioFilename: audio.mp3
AudioLeadIn: 0
PreviewTime: 38261
Countdown: 0
SampleSet: Soft
StackLeniency: 0.4
Mode: 0
LetterboxInBreaks: 0
WidescreenStoryboard: 1

[Editor]
DistanceSpacing: 1.4
BeatDivisor: 4
GridSize: 32
TimelineZoom: 1

[Metadata]
Title:Like a pop'n music
TitleUnicode:Like a pop'n music
Artist:red glasses
ArtistUnicode:red glasses
Creator:Log Off Now
Version:Insane
Source:pop'n music 20 fantasia
Tags:japanese video game ポップンミュージック 20 ファンタジア sunny park ayu yuuji yoshizawa nonuplet nonet 吉澤裕司 ゆーじ ポップンポップ
BeatmapID:2381500
BeatmapSetID:1139462

[Difficulty]
HPDrainRate:5
CircleSize:3.6
OverallDifficulty:8
ApproachRate:9
SliderMultiplier:1.4
SliderTickRate:1

[Events]
//Background and Video events
0,0,"poppin.jpg",0,0
//Break Periods
//Storyboard Layer 0 (Background)
//Storyboard Layer 1 (Fail)
//Storyboard Layer 2 (Pass)
//Storyboard Layer 3 (Foreground)
//Storyboard Layer 4 (Overlay)
//Storyboard Sound Samples

[TimingPoints]
2892,340.909090909091,4,2,1,65,1,0
8176,-100,4,2,1,75,0,0
16528,-100,4,2,1,65,0,0
21130,-100,4,2,1,65,0,0
26585,-100,4,2,1,65,0,0
27437,-125,4,2,1,65,0,0
32892,-100,4,2,1,65,0,0
37323,-83.3333333333333,4,2,1,65,0,0
38346,-83.3333333333333,4,2,1,80,0,1
58630,-83.3333333333333,4,2,1,70,0,0
71244,-83.3333333333333,4,2,2,50,0,0
71755,-111.111111111111,4,2,2,50,0,0
76443,-111.111111111111,4,2,2,5,0,0
76528,-90.9090909090909,4,2,1,55,0,0
79085,-90.9090909090909,4,2,1,60,0,0
82153,-90.9090909090909,4,2,1,63,0,0
82323,-90.9090909090909,4,2,1,66,0,0
82494,-90.9090909090909,4,2,1,69,0,0
82664,-90.9090909090909,4,2,1,72,0,0
82835,-90.9090909090909,4,2,1,75,0,0
83005,-90.9090909090909,4,2,1,78,0,0
83176,-90.9090909090909,4,2,1,80,0,0
83517,-90.9090909090909,4,2,1,70,0,0
83687,-83.3333333333333,4,2,1,80,0,1
93914,-90.9090909090909,4,2,1,80,0,0
98857,-90.9090909090909,4,2,1,80,0,0
105164,-90.9090909090909,4,2,1,60,0,0
106528,-90.9090909090909,4,2,1,40,0,0
107892,-90.9090909090909,4,2,1,20,0,0
109255,-90.9090909090909,4,2,1,10,0,0
110278,-90.9090909090909,4,2,1,5,0,0
110534,-90.9090909090909,4,2,1,50,0,0

[Colours]
Combo1 : 255,216,98
Combo2 : 126,254,171
Combo3 : 98,169,255
Combo4 : 248,118,137

[HitObjects]
113,165,2892,6,0,P|154:167|202:176,1,70,4|2,1:2|0:0,0:0:0:0:
234,250,3232,2,0,P|278:208|377:220,1,140,2|2,1:2|1:2,0:0:0:0:
323,355,3744,2,0,P|315:311|312:276,1,70,2|0,0:0|1:0,0:0:0:0:
327,120,4085,6,0,B|408:121|387:162|487:149,1,140,2|2,0:0|0:0,0:0:0:0:
439,58,4596,1,2,1:2:0:0:
342,203,4767,2,0,P|286:192|265:170,1,70,2|0,0:0|1:0,0:0:0:0:
337,50,5107,2,0,P|331:87|326:129,1,70,2|0,0:0|1:0,0:0:0:0:
205,226,5448,2,0,P|174:208|140:207,1,70,2|0,0:0|1:0,0:0:0:0:
70,265,5789,5,2,0:0:0:0:
160,359,5960,2,0,P|152:312|149:280,1,70,2|0,1:2|0:0,0:0:0:0:
62,177,6301,1,2,1:2:0:0:
163,102,6471,2,0,P|157:137|152:181,1,70,2|0,0:0|1:0,0:0:0:0:
224,270,6812,6,0,P|268:228|367:240,1,140,2|2,0:0|0:0,0:0:0:0:
307,316,7323,1,2,1:2:0:0:
185,179,7494,2,0,P|225:183|263:190,1,70,4|0,0:3|1:0,0:0:0:0:
422,165,7835,1,10,0:0:0:0:
395,296,8005,1,0,1:0:0:0:
425,130,8176,6,0,L|346:141,1,70,12|0,0:0|1:0,0:0:0:0:
163,175,8517,1,10,0:0:0:0:
282,291,8687,2,0,L|271:212,1,70,10|0,1:2|0:0,0:0:0:0:
249,40,9028,1,10,1:2:0:0:
152,212,9198,2,0,L|73:201,1,70,10|0,0:0|1:0,0:0:0:0:
106,21,9539,6,0,P|153:50|145:155,1,140,14|10,0:0|0:0,0:0:0:0:
83,285,10051,1,10,1:2:0:0:
17,93,10221,2,0,L|86:102,1,70,10|0,1:2|1:0,0:0:0:0:
151,226,10562,2,0,L|220:217,1,70,14|0,0:0|1:0,0:0:0:0:
287,73,10903,2,0,P|271:103|268:145,1,70,14|0,0:0|1:0,0:0:0:0:
344,274,11244,5,10,0:0:0:0:
419,139,11414,2,0,L|350:130,1,70,10|0,1:2|0:0,0:0:0:0:
197,50,11755,1,10,1:2:0:0:
220,216,11926,2,0,L|289:207,1,70,10|0,0:0|1:0,0:0:0:0:
369,0,12267,6,0,B|340:41|340:41|351:142,1,140,14|10,0:0|0:0,0:0:0:0:
441,246,12778,1,10,1:2:0:0:
497,59,12948,2,0,L|428:68,1,70,14|0,0:0|1:0,0:0:0:0:
292,197,13289,2,0,L|223:188,1,70,14|0,0:0|1:0,0:0:0:0:
173,35,13630,1,14,0:0:0:0:
256,192,13801,12,2,15164,0:0:0:0:
257,119,15846,5,2,1:2:0:0:
225,295,16017,1,2,1:2:0:0:
246,318,16528,6,0,P|287:282|383:284,1,140,4|0,1:2|1:0,0:0:0:0:
440,330,17039,1,2,0:0:0:0:
504,262,17210,2,0,P|498:224|495:183,1,70,0|2,1:2|0:0,0:0:0:0:
435,126,17551,2,0,P|400:145|361:152,1,70,0|2,1:0|0:0,0:0:0:0:
350,126,17806,1,2,0:0:0:0:
350,126,17892,6,0,P|315:107|276:100,1,70,0|2,1:2|0:0,0:0:0:0:
205,160,18232,2,0,L|197:82,1,70,2|2,1:2|0:0,0:0:0:0:
117,25,18573,2,0,L|109:103,1,70,0|2,1:0|0:0,0:0:0:0:
98,193,18914,1,0,1:2:0:0:
21,85,19085,1,8,0:0:0:0:
205,20,19255,6,0,L|197:98,1,70,0|2,1:0|0:0,0:0:0:0:
116,204,19596,2,0,P|170:172|255:209,2,140,2|0|0,1:2|1:0|1:0,0:0:0:0:
155,384,20448,6,0,B|190:345|190:345|183:241,1,140,6|0,1:2|1:0,0:0:0:0:
101,315,20960,1,8,0:0:0:0:
269,365,21130,6,0,P|310:328|401:329,1,140,6|0,1:2|1:0,0:0:0:0:
459,255,21642,1,8,0:0:0:0:
369,166,21812,1,8,0:3:0:0:
369,166,21897,1,8,0:3:0:0:
369,166,21982,6,0,L|376:242,1,70,4|2,1:2|0:0,0:0:0:0:
282,315,22323,2,0,L|289:239,1,70,0|2,1:0|0:0,0:0:0:0:
198,150,22664,2,0,L|205:226,1,70,2|2,1:2|0:0,0:0:0:0:
142,301,23005,1,0,1:0:0:0:
288,212,23176,1,8,0:0:0:0:
112,115,23346,6,0,L|119:191,1,70,0|2,1:0|0:0,0:0:0:0:
154,284,23687,2,0,P|210:259|249:264,1,70,2|2,1:2|0:0,0:0:0:0:
314,227,24028,2,0,L|307:303,1,70,0|2,1:0|0:0,0:0:0:0:
384,351,24369,1,2,1:2:0:0:
396,189,24539,5,8,0:0:0:0:
289,316,24710,1,0,1:0:0:0:
455,266,24880,1,10,0:0:0:0:
308,159,25051,2,0,L|317:311,2,140,2|0|0,1:2|1:0|1:0,0:0:0:0:
147,27,25903,6,0,P|171:73|260:88,1,140,14|0,0:0|1:0,0:0:0:0:
230,8,26414,1,8,0:0:0:0:
135,143,26585,6,0,B|213:133|185:187|297:167,1,140,6|8,1:2|0:3,0:0:0:0:
345,114,27096,1,8,0:3:0:0:
421,174,27267,1,4,0:3:0:0:
421,174,27352,1,4,0:3:0:0:
421,174,27437,6,0,L|407:307,1,112,4|0,1:2|0:0,0:0:0:0:
468,358,27948,1,2,1:2:0:0:
327,294,28119,1,10,0:0:0:0:
496,219,28289,2,0,L|489:297,1,56,2|0,0:0|0:0,0:0:0:0:
365,369,28630,6,0,P|335:348|254:348,1,112,4|0,1:2|0:0,0:0:0:0:
179,374,29142,1,2,1:2:0:0:
226,249,29312,2,0,L|297:257,2,56,6|2|2,1:2|0:0|0:0,0:0:0:0:
116,304,29823,1,0,1:0:0:0:
170,149,29994,6,0,P|217:161|283:120,1,112,12|0,0:0|0:0,0:0:0:0:
206,21,30505,2,0,L|214:103,1,56,0|2,1:0|0:0,0:0:0:0:
353,162,30846,1,8,0:0:0:0:
336,71,31017,1,8,0:3:0:0:
272,134,31187,1,4,0:3:0:0:
419,103,31357,6,0,L|409:221,1,112,4|8,1:2|0:0,0:0:0:0:
329,295,31869,2,0,L|323:239,1,56,2|0,0:0|1:0,0:0:0:0:
496,162,32210,1,10,0:0:0:0:
483,284,32380,1,0,0:0:0:0:
499,140,32551,1,8,0:0:0:0:
403,247,32721,1,8,0:0:0:0:
403,247,32806,1,8,0:0:0:0:
403,247,32892,6,0,P|336:199|258:224,1,140,4|0,1:2|1:0,0:0:0:0:
227,285,33403,1,0,0:0:0:0:
331,355,33573,2,0,L|321:274,1,70,0|0,1:0|0:0,0:0:0:0:
196,205,33914,2,0,L|206:124,1,70,0|0,1:0|0:0,0:0:0:0:
335,43,34255,6,0,P|295:70|252:72,1,70,2|2,1:3|0:0,0:0:0:0:
97,13,34596,2,0,P|130:47|139:89,1,70,2|2,1:3|0:0,0:0:0:0:
113,188,34937,1,2,1:3:0:0:
51,91,35107,1,2,0:0:0:0:
225,39,35278,2,0,L|216:108,1,70,2|0,1:3|0:0,0:0:0:0:
190,286,35619,5,4,1:2:0:0:
125,168,35789,1,0,1:0:0:0:
314,94,35960,2,0,L|305:163,1,70,8|0,0:0|0:0,0:0:0:0:
290,323,36301,5,8,0:3:0:0:
307,301,36386,1,8,0:0:0:0:
332,288,36471,1,8,0:0:0:0:
360,284,36556,1,8,0:0:0:0:
387,292,36642,2,0,P|433:312|457:312,1,70,4|0,1:2|0:0,0:0:0:0:
504,91,36982,5,12,0:0:0:0:
447,231,37153,1,8,0:0:0:0:
447,231,37238,1,8,0:0:0:0:
447,231,37323,2,0,L|438:169,1,41.9999987182618,8|8,0:0|0:3,0:0:0:0:
365,102,37494,2,0,L|358:143,1,41.9999987182618,4|0,0:3|1:0,0:0:0:0:
341,261,37664,1,10,0:0:0:0:
341,261,37835,1,10,0:0:0:0:
58,68,38346,6,0,L|67:163,1,83.9999974365235,6|2,1:2|0:0,0:0:0:0:
235,337,38687,2,0,L|244:242,1,83.9999974365235,8|2,0:0|0:0,0:0:0:0:
140,94,39028,1,2,1:2:0:0:
161,270,39198,1,2,1:2:0:0:
27,164,39369,1,8,0:0:0:0:
246,76,39539,6,0,B|335:69|299:122|411:110,1,167.999994873047,2|2,1:2|1:2,0:0:0:0:
274,243,40051,2,0,L|260:152,1,83.9999974365235,8|2,0:0|0:0,0:0:0:0:
387,30,40392,1,2,1:2:0:0:
358,183,40562,1,2,1:2:0:0:
390,9,40732,1,10,0:0:0:0:
443,180,40903,6,0,P|395:109|297:121,1,167.999994873047,2|2,0:0|0:0,0:0:0:0:
277,179,41414,2,0,B|317:193|317:193|383:175,1,83.9999974365235,10|0,0:0|0:0,0:0:0:0:
235,98,41755,1,0,1:0:0:0:
256,265,41926,1,0,1:0:0:0:
382,177,42096,1,8,0:0:0:0:
309,339,42267,6,0,B|281:307|281:307|296:180,1,167.999994873047,6|0,1:2|1:0,0:0:0:0:
373,282,42778,1,8,0:0:0:0:
220,367,42948,6,0,B|192:335|192:335|207:208,1,167.999994873047,6|0,1:2|1:0,0:0:0:0:
284,310,43459,1,8,0:0:0:0:
129,384,43630,6,0,B|101:352|101:352|116:225,1,167.999994873047,6|0,1:2|1:0,0:0:0:0:
193,327,44142,2,0,P|252:298|284:301,1,83.9999974365235,10|0,0:0|0:0,0:0:0:0:
416,340,44482,1,0,1:0:0:0:
347,257,44653,1,0,1:0:0:0:
325,373,44823,1,8,0:0:0:0:
434,253,44994,6,0,L|417:84,1,167.999994873047,6|0,1:2|1:0,0:0:0:0:
510,170,45505,1,10,0:0:0:0:
353,297,45676,6,0,L|336:128,1,167.999994873047,6|0,1:2|1:0,0:0:0:0:
429,214,46187,1,8,0:0:0:0:
405,6,46357,1,4,1:2:0:0:
230,273,46698,5,10,0:0:0:0:
153,89,46869,1,10,0:0:0:0:
360,154,47039,1,4,1:2:0:0:
149,313,47380,5,10,0:0:0:0:
132,114,47551,1,10,0:0:0:0:
309,239,47721,1,4,1:2:0:0:
61,283,48062,5,10,0:0:0:0:
148,103,48233,1,10,0:0:0:0:
236,301,48403,1,4,1:2:0:0:
10,210,48744,5,12,0:0:0:0:
329,155,48915,1,12,0:0:0:0:
53,366,49255,6,0,L|62:271,1,83.9999974365235,4|2,1:2|0:0,0:0:0:0:
223,80,49596,2,0,L|232:175,1,83.9999974365235,8|2,0:0|0:0,0:0:0:0:
154,345,49937,1,0,1:0:0:0:
136,139,50107,1,2,1:2:0:0:
252,278,50278,1,8,0:0:0:0:
268,76,50448,6,0,B|357:69|321:122|433:110,1,167.999994873047,2|2,1:2|1:2,0:0:0:0:
373,258,50960,2,0,P|361:304|359:349,1,83.9999974365235,8|2,0:0|0:0,0:0:0:0:
290,164,51301,1,0,1:0:0:0:
493,204,51471,1,2,1:2:0:0:
266,160,51641,1,8,0:0:0:0:
390,34,51812,6,0,B|426:79|426:79|410:196,1,167.999994873047,2|2,0:0|0:0,0:0:0:0:
267,132,52323,2,0,P|307:106|361:113,1,83.9999974365235,10|0,0:0|0:0,0:0:0:0:
489,230,52664,1,0,1:0:0:0:
328,187,52835,1,0,1:0:0:0:
503,119,53005,1,8,0:0:0:0:
383,277,53176,6,0,B|351:249|351:249|224:264,1,167.999994873047,6|0,1:2|1:0,0:0:0:0:
326,341,53687,1,8,0:0:0:0:
411,188,53857,6,0,B|379:160|379:160|252:175,1,167.999994873047,6|0,1:2|1:0,0:0:0:0:
354,252,54368,1,8,0:0:0:0:
428,97,54539,6,0,B|396:69|396:69|269:84,1,167.999994873047,6|0,1:2|1:0,0:0:0:0:
144,240,55051,2,0,P|173:181|170:149,1,83.9999974365235,10|0,0:0|0:0,0:0:0:0:
67,43,55391,1,0,1:0:0:0:
91,170,55562,1,0,1:0:0:0:
184,76,55732,1,8,0:0:0:0:
212,296,55903,6,0,P|244:254|362:255,1,167.999994873047,6|0,1:2|1:0,0:0:0:0:
417,312,56414,1,10,0:0:0:0:
458,151,56585,6,0,P|377:159|318:103,1,167.999994873047,6|0,1:2|1:0,0:0:0:0:
307,16,57096,1,8,0:0:0:0:
268,207,57267,6,0,P|209:150|128:159,1,167.999994873047,4|0,1:2|1:0,0:0:0:0:
50,208,57778,1,12,0:0:0:0:
187,323,57948,5,8,0:0:0:0:
187,323,58034,1,8,0:0:0:0:
187,323,58119,2,0,L|179:224,1,83.9999974365235,8|8,0:0|0:3,0:0:0:0:
115,135,58460,1,4,0:3:0:0:
35,224,58630,1,4,1:2:0:0:
256,192,58801,12,8,59823,0:0:0:0:
203,342,60164,6,0,P|249:304|360:301,1,167.999994873047,6|8,1:2|0:0,0:0:0:0:
452,193,60676,1,2,0:0:0:0:
452,193,60761,1,2,0:0:0:0:
452,193,60846,2,0,L|443:285,1,83.9999974365235,2|0,1:2|1:0,0:0:0:0:
355,196,61187,2,0,L|346:112,1,83.9999974365235,10|2,0:0|0:0,0:0:0:0:
440,58,61528,5,0,1:0:0:0:
440,58,61613,1,2,0:0:0:0:
440,58,61698,2,0,L|434:117,2,41.9999987182618,2|2|10,0:0|0:0|0:0,0:0:0:0:
337,0,62039,1,2,0:0:0:0:
253,82,62210,2,0,L|259:141,2,41.9999987182618,2|2|2,1:2|0:0|1:2,0:0:0:0:
154,17,62551,1,8,0:0:0:0:
154,17,62721,1,0,0:0:0:0:
75,144,62892,6,0,P|114:114|161:108,1,83.9999974365235,2|0,1:2|0:0,0:0:0:0:
214,242,63232,1,10,0:0:0:0:
214,242,63403,2,0,P|168:223|139:185,1,83.9999974365235,2|0,0:0|1:0,0:0:0:0:
236,71,63744,2,0,L|228:174,1,83.9999974365235,2|10,1:2|0:0,0:0:0:0:
216,328,64085,1,0,0:0:0:0:
312,210,64255,5,2,1:2:0:0:
312,210,64340,1,2,0:0:0:0:
312,210,64426,1,2,0:0:0:0:
201,139,64596,2,0,L|156:147,2,41.9999987182618,10|2|2,0:0|0:0|0:0,0:0:0:0:
311,23,64937,1,2,1:2:0:0:
311,23,65022,1,2,0:0:0:0:
311,23,65107,2,0,L|362:33,2,41.9999987182618,10|2|10,0:0|0:0|0:0,0:0:0:0:
217,117,65448,1,2,0:0:0:0:
332,223,65619,6,0,L|318:115,1,83.9999974365235,4|2,1:2|0:0,0:0:0:0:
390,39,65960,1,10,0:0:0:0:
481,121,66130,1,2,0:0:0:0:
481,121,66215,1,2,0:0:0:0:
481,121,66301,2,0,L|473:185,3,41.9999987182618,2|2|2|2,1:2|0:0|1:2|0:0,0:0:0:0:
415,226,66642,2,0,L|423:290,3,41.9999987182618,10|2|2|2,0:0|0:0|0:0|0:0,0:0:0:0:
459,349,66982,5,2,1:2:0:0:
459,349,67068,1,2,0:0:0:0:
459,349,67153,2,0,P|415:332|352:346,1,83.9999974365235,2|10,0:0|0:0,0:0:0:0:
353,360,67409,1,2,0:0:0:0:
353,360,67494,2,0,L|298:348,1,41.9999987182618,2|2,0:0|0:0,0:0:0:0:
255,290,67664,2,0,L|205:297,2,41.9999987182618,2|2|2,1:2|0:0|0:0,0:0:0:0:
339,188,68005,2,0,P|320:141|326:97,1,83.9999974365235,8|8,0:0|0:0,0:0:0:0:
242,15,68346,5,6,1:2:0:0:
242,15,68431,1,2,0:0:0:0:
242,15,68517,2,0,L|248:69,1,41.9999987182618,2|2,0:0|0:0,0:0:0:0:
178,109,68687,2,0,L|172:157,3,41.9999987182618,10|2|2|2,0:0|0:0|0:0|0:0,0:0:0:0:
232,223,69028,1,2,1:2:0:0:
232,223,69113,1,2,0:0:0:0:
232,223,69198,2,0,P|281:206|314:206,1,83.9999974365235,10|10,0:0|0:0,0:0:0:0:
387,310,69539,5,6,1:2:0:0:
387,310,69624,1,2,0:0:0:0:
387,310,69709,2,0,L|336:320,3,41.9999987182618,2|2|10|2,0:0|0:0|0:0|0:0,0:0:0:0:
284,380,70051,5,8,0:3:0:0:
263,377,70136,1,2,0:0:0:0:
242,374,70221,1,10,0:0:0:0:
221,371,70306,1,2,0:0:0:0:
200,369,70392,2,0,L|147:362,3,41.9999987182618,2|2|8|2,0:0|0:0|0:0|0:0,0:0:0:0:
110,292,70732,2,0,P|128:245|124:198,1,83.9999974365235,10|2,0:0|0:0,0:0:0:0:
47,80,71073,6,0,B|87:113|87:113|233:85,1,167.999994873047,4|8,1:2|0:0,0:0:0:0:
268,22,71585,1,2,0:0:0:0:
333,90,71755,2,0,L|320:172,1,62.9999980773926,8|2,0:0|0:0,0:0:0:0:
246,208,72096,2,0,L|259:290,1,62.9999980773926,8|2,0:0|0:0,0:0:0:0:
331,336,72437,6,0,B|405:331|373:370|469:363,1,125.999996154785,8|8,0:0|0:0,0:0:0:0:
501,289,72948,1,2,0:0:0:0:
442,215,73119,2,0,L|369:224,2,62.9999980773926,8|2|8,0:0|0:0|0:0,0:0:0:0:
496,129,73630,1,2,0:0:0:0:
431,49,73801,2,0,P|392:76|353:80,1,62.9999980773926,8|2,0:0|0:0,0:0:0:0:
310,154,74142,6,0,B|282:115|282:115|293:20,2,125.999996154785,10|8|8,0:0|0:0|0:0,0:0:0:0:
218,253,74994,2,0,L|228:171,1,62.9999980773926,2|8,0:0|0:0,0:0:0:0:
144,75,75335,2,0,L|154:157,1,62.9999980773926,2|8,0:0|0:0,0:0:0:0:
69,256,75676,2,0,L|79:174,1,62.9999980773926,2|8,0:0|0:0,0:0:0:0:
37,55,76017,1,2,0:0:0:0:
160,164,76187,2,0,P|203:143|276:147,1,94.499997116089,10|0,0:2|0:0,0:0:0:0:
266,160,76528,6,0,P|216:164|176:184,1,77.0000023498536,4|0,1:2|0:0,0:0:0:0:
222,320,76869,2,0,P|243:274|246:230,1,77.0000023498536,0|0,1:0|0:0,0:0:0:0:
107,199,77210,2,0,P|135:240|172:264,1,77.0000023498536,0|0,1:0|0:0,0:0:0:0:
297,162,77551,2,0,P|333:149|371:147,1,77.0000023498536,0|0,1:0|0:0,0:0:0:0:
366,308,77892,6,0,L|351:226,1,77.0000023498536,0|0,1:0|0:0,0:0:0:0:
460,141,78232,2,0,L|445:223,1,77.0000023498536,0|0,1:0|0:0,0:0:0:0:
354,120,78573,2,0,L|339:38,1,77.0000023498536,0|0,1:0|0:0,0:0:0:0:
479,2,78914,5,0,1:0:0:0:
512,143,79085,2,0,L|433:134,1,77.0000023498536,2|0,0:0|1:0,0:0:0:0:
270,122,79426,5,2,0:0:0:0:
334,207,79596,1,0,1:2:0:0:
354,120,79767,2,0,L|339:38,1,77.0000023498536,2|0,0:0|1:0,0:0:0:0:
162,136,80107,5,2,0:0:0:0:
226,51,80277,1,0,1:2:0:0:
246,138,80448,2,0,L|231:220,1,77.0000023498536,2|0,0:0|1:0,0:0:0:0:
170,368,80789,5,2,0:0:0:0:
85,304,80959,1,0,1:2:0:0:
172,284,81130,2,0,L|254:299,1,77.0000023498536,2|0,0:0|1:0,0:0:0:0:
344,213,81471,1,2,0:0:0:0:
357,349,81642,1,2,1:2:0:0:
343,187,81812,6,0,P|341:124|419:62,1,154.000004699707,2|8,0:0|0:0,0:0:0:0:
500,162,82323,2,0,L|406:151,1,77.0000023498536,8|10,1:2|0:0,0:0:0:0:
251,138,82664,5,8,1:2:0:0:
333,228,82835,1,8,0:0:0:0:
383,44,83005,1,8,1:2:0:0:
151,186,83176,1,10,0:0:0:0:
301,308,83517,5,0,1:0:0:0:
361,64,83687,2,0,L|272:77,1,83.9999974365235,12|2,0:0|0:0,0:0:0:0:
87,106,84028,1,0,1:0:0:0:
228,248,84198,1,2,1:2:0:0:
251,47,84369,1,8,0:0:0:0:
129,245,84539,1,2,0:0:0:0:
16,55,84710,6,0,L|105:68,1,83.9999974365235,4|2,1:2|0:0,0:0:0:0:
137,281,85051,1,8,0:0:0:0:
29,161,85221,1,2,0:0:0:0:
270,81,85392,1,0,1:0:0:0:
247,237,85562,1,2,1:2:0:0:
110,100,85732,1,8,0:0:0:0:
305,7,85903,6,0,L|292:96,1,83.9999974365235,2|0,0:0|1:0,0:0:0:0:
262,266,86244,1,2,0:0:0:0:
116,143,86414,2,0,B|205:136|169:189|281:177,1,167.999994873047,10|0,0:0|1:0,0:0:0:0:
334,21,86926,1,2,1:2:0:0:
201,121,87096,1,10,0:0:0:0:
302,335,87267,6,0,B|330:303|330:303|315:176,1,167.999994873047,4|0,1:2|1:0,0:0:0:0:
238,278,87778,1,10,0:0:0:0:
391,363,87948,6,0,B|419:331|419:331|404:204,1,167.999994873047,4|0,1:2|1:0,0:0:0:0:
327,306,88459,1,10,0:0:0:0:
482,380,88630,6,0,B|510:348|510:348|495:221,1,167.999994873047,4|0,1:2|1:0,0:0:0:0:
418,323,89142,2,0,P|359:294|327:297,1,83.9999974365235,10|2,0:0|0:0,0:0:0:0:
241,227,89482,1,0,1:0:0:0:
268,371,89653,1,2,1:2:0:0:
337,209,89823,1,10,0:0:0:0:
209,314,89994,6,0,B|120:307|156:360|44:348,1,167.999994873047,4|0,1:2|1:0,0:0:0:0:
0,267,90505,1,10,0:0:0:0:
115,115,90676,2,0,B|73:158|73:158|88:289,1,167.999994873047,4|0,1:2|1:0,0:0:0:0:
160,193,91187,1,10,0:0:0:0:
78,31,91357,6,0,P|118:91|212:80,1,167.999994873047,6|8,1:2|0:0,0:0:0:0:
233,57,91784,1,8,0:0:0:0:
233,57,91869,1,8,0:0:0:0:
302,170,92039,2,0,L|370:181,2,41.9999987182618,8|8|8,0:0|0:3|0:3,0:0:0:0:
211,261,92380,5,4,0:3:0:0:
161,113,92551,1,4,0:3:0:0:
320,267,92721,1,6,1:2:0:0:
256,192,92892,12,8,93914,0:0:0:0:
422,56,94255,6,0,L|325:69,1,77.0000023498536,4|2,1:2|0:0,0:0:0:0:
264,211,94596,2,0,L|167:198,1,77.0000023498536,10|0,0:0|0:0,0:0:0:0:
74,70,94937,5,10,0:0:0:0:
112,288,95107,1,2,1:2:0:0:
206,107,95278,5,8,0:0:0:0:
1,146,95448,1,2,1:2:0:0:
197,277,95619,2,0,L|184:180,1,77.0000023498536,8|2,0:0|0:0,0:0:0:0:
323,14,95960,5,10,0:0:0:0:
287,237,96130,1,2,1:2:0:0:
175,53,96301,5,8,0:0:0:0:
380,94,96471,1,2,1:2:0:0:
198,227,96642,2,0,L|211:130,1,77.0000023498536,8|2,0:0|1:2,0:0:0:0:
323,14,96982,6,0,L|336:111,1,77.0000023498536,12|2,0:0|0:0,0:0:0:0:
435,265,97323,2,0,L|448:168,1,77.0000023498536,10|0,0:0|0:0,0:0:0:0:
471,10,97664,5,10,0:0:0:0:
344,180,97835,1,2,1:2:0:0:
260,19,98005,5,8,0:0:0:0:
232,225,98176,1,2,1:2:0:0:
357,93,98346,6,0,L|234:110,1,115.50000352478,8|8,0:3|0:0,0:0:0:0:
211,113,98687,1,8,0:0:0:0:
325,264,98857,2,0,L|314:172,1,77.0000023498536,2|0,1:3|0:0,0:0:0:0:
234,319,99198,2,0,L|223:227,1,77.0000023498536,2|8,1:3|0:0,0:0:0:0:
112,109,99539,6,0,L|130:261,1,154.000004699707,14|2,0:0|1:2,0:0:0:0:
340,153,100051,2,0,P|286:174|199:125,1,154.000004699707,14|2,0:0|1:2,0:0:0:0:
284,80,100562,1,2,1:2:0:0:
249,259,100732,1,8,0:0:0:0:
289,52,100903,6,0,B|368:51|342:103|448:84,1,154.000004699707,2|2,1:2|1:2,0:0:0:0:
367,220,101414,1,10,0:0:0:0:
211,127,101585,2,0,L|295:136,1,77.0000023498536,2|0,1:2|0:0,0:0:0:0:
313,290,101926,2,0,P|283:246|287:201,1,77.0000023498536,2|8,1:2|0:0,0:0:0:0:
443,211,102267,2,0,L|359:220,1,77.0000023498536,6|0,1:2|0:0,0:0:0:0:
196,233,102607,5,12,0:0:0:0:
357,134,102778,1,12,0:0:0:0:
328,316,102948,1,0,1:0:0:0:
180,138,103119,5,12,0:0:0:0:
211,327,103289,1,12,0:0:0:0:
343,220,103460,1,0,1:0:0:0:
165,235,103630,6,0,B|74:231|103:286|9:274,1,154.000004699707,12|8,0:2|0:0,0:0:0:0:
127,384,104142,2,0,P|151:345|146:306,1,77.0000023498536,8|8,0:3|0:3,0:0:0:0:
29,191,104482,5,4,0:3:0:0:
226,252,104653,1,4,0:3:0:0:
157,89,104823,1,0,1:0:0:0:
117,324,104994,1,6,1:2:0:0:
256,192,105164,12,0,110278,0:0:0:0:
203,154,110534,6,0,L|197:115,2,38.5000011749268,8|8|0,0:0|0:3|1:0,0:0:0:0:
