osu file format v14

[General]
AudioFilename: audio.mp3
AudioLeadIn: 0
PreviewTime: 38261
Countdown: 0
SampleSet: Soft
StackLeniency: 0.4
Mode: 0
LetterboxInBreaks: 0
WidescreenStoryboard: 1

[Editor]
DistanceSpacing: 1.3
BeatDivisor: 4
GridSize: 4
TimelineZoom: 1

[Metadata]
Title:Like a pop'n music
TitleUnicode:Like a pop'n music
Artist:red glasses
ArtistUnicode:red glasses
Creator:Log Off Now
Version:Hard
Source:pop'n music 20 fantasia
Tags:japanese video game ポップンミュージック 20 ファンタジア sunny park ayu yuuji yoshizawa nonuplet nonet 吉澤裕司 ゆーじ ポップンポップ
BeatmapID:2383158
BeatmapSetID:1139462

[Difficulty]
HPDrainRate:4
CircleSize:3.4
OverallDifficulty:7
ApproachRate:8
SliderMultiplier:1.2
SliderTickRate:1

[Events]
//Background and Video events
0,0,"poppin.jpg",0,0
//Break Periods
//Storyboard Layer 0 (Background)
//Storyboard Layer 1 (Fail)
//Storyboard Layer 2 (Pass)
//Storyboard Layer 3 (Foreground)
//Storyboard Layer 4 (Overlay)
//Storyboard Sound Samples

[TimingPoints]
2892,340.909090909091,4,2,1,65,1,0
2892,-111.111111111111,4,2,1,65,0,0
8176,-100,4,2,1,75,0,0
16528,-100,4,2,1,65,0,0
21130,-100,4,2,1,65,0,0
26585,-100,4,2,1,65,0,0
27437,-117.647058823529,4,2,1,65,0,0
32892,-100,4,2,1,65,0,0
37323,-83.3333333333333,4,2,1,65,0,0
38346,-83.3333333333333,4,2,1,80,0,1
58630,-83.3333333333333,4,2,1,70,0,0
71244,-83.3333333333333,4,2,2,50,0,0
71755,-111.111111111111,4,2,2,50,0,0
76443,-111.111111111111,4,2,2,5,0,0
76528,-90.9090909090909,4,2,1,55,0,0
79085,-90.9090909090909,4,2,1,60,0,0
82153,-90.9090909090909,4,2,1,63,0,0
82323,-90.9090909090909,4,2,1,66,0,0
82494,-90.9090909090909,4,2,1,69,0,0
82664,-90.9090909090909,4,2,1,72,0,0
82835,-90.9090909090909,4,2,1,75,0,0
83005,-90.9090909090909,4,2,1,78,0,0
83176,-90.9090909090909,4,2,1,80,0,0
83517,-90.9090909090909,4,2,1,70,0,0
83687,-83.3333333333333,4,2,1,80,0,1
93914,-90.9090909090909,4,2,1,80,0,0
98857,-90.9090909090909,4,2,1,80,0,0
105164,-90.9090909090909,4,2,1,60,0,0
106528,-90.9090909090909,4,2,1,40,0,0
107892,-90.9090909090909,4,2,1,20,0,0
109255,-90.9090909090909,4,2,1,10,0,0
110278,-90.9090909090909,4,2,1,5,0,0
110534,-90.9090909090909,4,2,1,50,0,0

[Colours]
Combo1 : 255,216,98
Combo2 : 126,254,171
Combo3 : 98,169,255
Combo4 : 248,118,137

[HitObjects]
145,154,2892,6,0,L|153:220,1,53.9999983520508,4|2,1:2|0:0,0:0:0:0:
130,291,3232,2,0,P|174:257|249:258,1,107.999996704102,2|2,1:2|1:2,0:0:0:0:
295,301,3744,1,2,0:0:0:0:
451,227,4085,6,0,L|441:103,1,107.999996704102,2|2,0:0|0:0,0:0:0:0:
380,59,4596,1,2,1:2:0:0:
308,104,4767,2,0,P|266:85|239:81,1,53.9999983520508,2|0,0:0|1:0,0:0:0:0:
190,30,5107,2,0,P|148:49|126:53,1,53.9999983520508,2|0,0:0|1:0,0:0:0:0:
60,16,5448,1,2,0:0:0:0:
21,187,5789,5,2,0:0:0:0:
21,187,5960,2,0,L|91:178,1,53.9999983520508,2|0,1:2|0:0,0:0:0:0:
144,127,6301,1,2,1:2:0:0:
144,127,6472,2,0,L|214:135,1,53.9999983520508,2|0,0:0|1:0,0:0:0:0:
263,189,6812,6,0,P|321:164|372:163,1,107.999996704102,2|2,0:0|0:0,0:0:0:0:
439,116,7323,1,2,1:2:0:0:
488,186,7494,2,0,P|481:233|481:264,1,53.9999983520508,4|0,0:3|1:0,0:0:0:0:
444,318,7835,1,10,0:0:0:0:
365,282,8005,1,0,1:0:0:0:
310,352,8176,1,12,0:0:0:0:
135,285,8517,5,10,0:0:0:0:
193,216,8687,2,0,P|186:169|185:129,1,60,10|0,1:2|0:0,0:0:0:0:
126,88,9028,1,10,1:2:0:0:
190,25,9198,2,0,P|237:32|277:33,1,60,10|0,0:0|1:0,0:0:0:0:
303,104,9539,6,0,L|439:90,1,120,14|10,0:0|0:0,0:0:0:0:
483,158,10051,1,10,1:2:0:0:
419,221,10221,2,0,L|345:210,1,60,10|0,1:2|1:0,0:0:0:0:
304,140,10562,2,0,L|230:151,1,60,14|0,0:0|1:0,0:0:0:0:
195,224,10903,1,14,0:0:0:0:
78,86,11244,5,10,0:0:0:0:
16,151,11414,2,0,P|23:198|24:238,1,60,10|0,1:2|0:0,0:0:0:0:
86,275,11755,1,10,1:2:0:0:
46,366,11926,2,0,P|93:359|133:358,1,60,10|0,0:0|1:0,0:0:0:0:
185,317,12267,6,0,L|321:331,1,120,14|10,0:0|0:0,0:0:0:0:
381,282,12778,1,10,1:2:0:0:
325,211,12948,2,0,L|333:134,1,60,14|0,0:0|1:0,0:0:0:0:
428,101,13289,2,0,L|421:160,1,60,14|0,0:0|1:0,0:0:0:0:
335,57,13630,1,14,0:0:0:0:
256,192,13801,12,2,15164,0:0:0:0:
326,131,15846,5,2,1:2:0:0:
241,159,16017,1,2,1:2:0:0:
404,327,16528,6,0,P|366:302|285:305,1,120,4|0,1:2|1:0,0:0:0:0:
221,356,17039,1,2,0:0:0:0:
150,300,17210,2,0,L|161:219,1,60,0|2,1:2|0:0,0:0:0:0:
228,183,17551,2,0,L|217:102,1,60,0|2,1:0|0:0,0:0:0:0:
155,59,17892,6,0,B|79:52|105:90|26:81,1,120,0|2,1:2|1:2,0:0:0:0:
76,164,18403,1,2,0:0:0:0:
22,235,18573,2,0,P|35:284|38:312,1,60,0|2,1:0|0:0,0:0:0:0:
79,372,18914,1,0,1:2:0:0:
145,310,19085,1,8,0:0:0:0:
207,374,19255,6,0,P|241:363|289:360,1,60,0|2,1:0|0:0,0:0:0:0:
328,296,19596,2,0,L|470:319,2,120,2|0|0,1:2|1:0|1:0,0:0:0:0:
286,215,20448,1,6,1:2:0:0:
392,69,20789,5,0,1:0:0:0:
311,110,20960,1,8,0:0:0:0:
240,54,21130,1,6,1:2:0:0:
232,233,21471,5,0,1:0:0:0:
151,192,21642,1,8,0:0:0:0:
80,248,21812,1,8,0:3:0:0:
80,248,21897,1,8,0:3:0:0:
80,248,21982,6,0,L|85:320,2,60,4|2|0,1:2|0:0|1:0,0:0:0:0:
17,182,22494,1,2,0:0:0:0:
67,107,22664,2,0,P|107:120|127:121,1,60,2|2,1:2|0:0,0:0:0:0:
197,67,23005,1,0,1:0:0:0:
240,146,23176,1,8,0:0:0:0:
310,90,23346,6,0,B|386:83|360:121|439:112,1,120,0|2,1:0|1:2,0:0:0:0:
486,179,23857,1,2,0:0:0:0:
486,179,24028,2,0,P|471:230|468:252,1,60,0|2,1:0|0:0,0:0:0:0:
475,326,24369,1,2,1:2:0:0:
393,288,24539,6,0,L|331:295,1,60,8|0,0:0|1:0,0:0:0:0:
282,369,24880,1,10,0:0:0:0:
218,305,25051,2,0,P|246:239|223:176,2,120,2|0|0,1:2|1:0|1:0,0:0:0:0:
133,337,25903,1,14,0:0:0:0:
53,175,26244,5,0,1:0:0:0:
129,221,26414,1,8,0:0:0:0:
189,154,26585,1,6,1:2:0:0:
218,305,26926,6,0,L|287:313,1,60,8|8,0:3|0:3,0:0:0:0:
337,379,27267,1,4,0:3:0:0:
337,379,27352,1,4,0:3:0:0:
337,379,27437,6,0,P|383:345|438:342,1,102.000001945496,4|0,1:2|0:0,0:0:0:0:
481,280,27948,1,2,1:2:0:0:
426,218,28119,1,10,0:0:0:0:
426,218,28289,1,2,0:0:0:0:
496,70,28630,6,0,L|380:83,1,102.000001945496,4|0,1:2|0:0,0:0:0:0:
347,148,29142,1,2,1:2:0:0:
294,85,29312,2,0,L|221:92,1,51.0000009727478,6|2,1:2|0:0,0:0:0:0:
183,145,29653,2,0,L|110:138,1,51.0000009727478,2|0,0:0|1:0,0:0:0:0:
64,93,29994,6,0,P|78:134|65:197,1,102.000001945496,12|0,0:0|0:0,0:0:0:0:
20,257,30505,2,0,L|28:316,1,51.0000009727478,0|2,1:0|0:0,0:0:0:0:
85,365,30846,1,8,0:0:0:0:
151,316,31017,2,0,P|198:302|212:304,1,51.0000009727478,8|4,0:3|0:3,0:0:0:0:
265,348,31357,6,0,L|254:228,1,102.000001945496,4|8,1:2|0:0,0:0:0:0:
350,204,31869,2,0,L|344:262,1,51.0000009727478,2|0,0:0|1:0,0:0:0:0:
272,162,32210,1,10,0:0:0:0:
272,162,32380,2,0,L|277:111,1,51.0000009727478,0|8,0:0|0:0,0:0:0:0:
328,47,32721,1,8,0:0:0:0:
328,47,32806,1,8,0:0:0:0:
328,47,32892,6,0,P|367:74|459:60,1,120,4|0,1:2|1:0,0:0:0:0:
505,131,33403,1,0,0:0:0:0:
472,214,33573,2,0,P|431:192|357:188,1,120,0|0,1:0|1:0,0:0:0:0:
246,278,34255,6,0,L|255:204,1,60,2|2,1:3|0:0,0:0:0:0:
178,167,34596,2,0,L|170:226,1,60,2|2,1:3|0:0,0:0:0:0:
85,257,34937,2,0,L|94:183,1,60,2|2,1:3|0:0,0:0:0:0:
19,143,35278,2,0,L|11:202,1,60,2|0,1:3|0:0,0:0:0:0:
5,292,35619,5,4,1:2:0:0:
5,292,35789,1,0,1:0:0:0:
71,353,35960,2,0,P|120:329|140:327,1,60,8|0,0:0|0:0,0:0:0:0:
208,287,36301,1,8,0:3:0:0:
208,287,36386,1,8,0:0:0:0:
208,287,36471,1,8,0:0:0:0:
273,349,36642,1,4,1:2:0:0:
371,211,36982,5,12,0:0:0:0:
276,156,37153,1,8,0:0:0:0:
276,156,37238,1,8,0:0:0:0:
276,156,37323,2,0,L|282:205,3,35.9999989013672,8|8|4|0,0:0|0:3|0:3|1:0,0:0:0:0:
232,258,37664,5,10,0:0:0:0:
232,258,37835,1,10,0:0:0:0:
29,35,38346,6,0,L|112:45,1,71.9999978027344,6|2,1:2|0:0,0:0:0:0:
169,108,38687,2,0,L|252:97,1,71.9999978027344,8|2,0:0|0:0,0:0:0:0:
303,29,39028,1,2,1:2:0:0:
303,29,39198,1,2,1:2:0:0:
386,66,39369,1,8,0:0:0:0:
342,147,39539,6,0,L|357:303,1,143.999995605469,2|2,1:2|1:2,0:0:0:0:
298,371,40051,1,8,0:0:0:0:
298,371,40221,1,2,0:0:0:0:
222,318,40392,2,0,L|134:330,1,71.9999978027344,2|2,1:2|1:2,0:0:0:0:
74,383,40732,1,10,0:0:0:0:
12,314,40903,6,0,P|38:262|14:165,1,143.999995605469,2|2,0:0|0:0,0:0:0:0:
88,112,41414,2,0,L|175:124,1,71.9999978027344,10|0,0:0|0:0,0:0:0:0:
225,190,41755,2,0,L|312:177,1,71.9999978027344,0|0,1:0|1:0,0:0:0:0:
372,123,42096,1,8,0:0:0:0:
432,190,42267,6,0,B|465:151|465:151|455:44,1,143.999995605469,6|0,1:2|1:0,0:0:0:0:
379,2,42778,1,8,0:0:0:0:
312,62,42948,6,0,P|259:27|148:35,1,143.999995605469,6|0,1:2|1:0,0:0:0:0:
102,85,43460,1,8,0:0:0:0:
39,20,43630,6,0,L|54:190,1,143.999995605469,6|0,1:2|1:0,0:0:0:0:
149,227,44142,2,0,L|140:137,1,71.9999978027344,10|0,0:0|0:0,0:0:0:0:
215,98,44482,2,0,P|260:119|300:122,1,71.9999978027344,0|0,1:0|1:0,0:0:0:0:
362,74,44823,1,8,0:0:0:0:
428,142,44994,6,0,P|414:197|421:290,1,143.999995605469,6|0,1:2|1:0,0:0:0:0:
468,363,45505,1,10,0:0:0:0:
376,382,45676,6,0,B|336:351|336:351|240:363,1,143.999995605469,6|0,1:2|1:0,0:0:0:0:
188,295,46187,1,8,0:0:0:0:
236,217,46357,1,4,1:2:0:0:
152,67,46698,5,10,0:0:0:0:
226,111,46869,1,10,0:0:0:0:
301,68,47039,1,4,1:2:0:0:
368,264,47380,5,10,0:0:0:0:
330,187,47551,1,10,0:0:0:0:
378,116,47721,1,4,1:2:0:0:
285,296,48062,5,10,0:0:0:0:
211,252,48233,1,10,0:0:0:0:
136,295,48403,1,4,1:2:0:0:
78,120,48744,5,12,0:0:0:0:
97,206,48914,1,12,0:0:0:0:
222,84,49255,6,0,L|304:95,1,71.9999978027344,4|2,1:2|0:0,0:0:0:0:
351,22,49596,2,0,L|434:11,1,71.9999978027344,8|2,0:0|0:0,0:0:0:0:
498,74,49937,1,0,1:0:0:0:
498,74,50107,1,2,1:2:0:0:
447,148,50278,1,8,0:0:0:0:
499,220,50448,6,0,P|445:194|360:236,1,143.999995605469,2|2,1:2|1:2,0:0:0:0:
320,305,50960,1,8,0:0:0:0:
320,305,51130,1,2,0:0:0:0:
249,249,51301,2,0,L|262:162,1,71.9999978027344,0|2,1:0|1:2,0:0:0:0:
325,112,51641,1,8,0:0:0:0:
272,38,51812,6,0,P|224:75|123:80,1,143.999995605469,2|2,0:0|0:0,0:0:0:0:
47,70,52323,2,0,L|60:156,1,71.9999978027344,10|0,0:0|0:0,0:0:0:0:
122,206,52664,2,0,L|111:280,1,71.9999978027344,0|0,1:0|1:0,0:0:0:0:
56,351,53005,1,8,0:0:0:0:
141,383,53176,6,0,B|177:351|177:351|278:361,1,143.999995605469,6|0,1:2|1:0,0:0:0:0:
339,295,53687,1,8,0:0:0:0:
275,226,53857,6,0,P|242:176|250:72,1,143.999995605469,6|0,1:2|1:0,0:0:0:0:
304,24,54369,1,8,0:0:0:0:
362,96,54539,6,0,B|424:129|424:129|501:95,1,143.999995605469,6|0,1:2|1:0,0:0:0:0:
502,192,55051,2,0,L|493:282,1,71.9999978027344,10|0,0:0|0:0,0:0:0:0:
426,327,55391,2,0,P|381:306|341:303,1,71.9999978027344,0|0,1:0|1:0,0:0:0:0:
305,226,55732,1,8,0:0:0:0:
350,143,55903,6,0,P|291:186|202:150,1,143.999995605469,6|0,1:2|1:0,0:0:0:0:
172,95,56414,1,10,0:0:0:0:
114,169,56585,6,0,B|135:327,1,143.999995605469,6|0,1:2|1:0,0:0:0:0:
65,377,57096,1,8,0:0:0:0:
8,302,57267,6,0,P|32:256|3:168,1,143.999995605469,4|0,1:2|1:0,0:0:0:0:
60,94,57778,1,12,0:0:0:0:
136,165,57948,1,8,0:0:0:0:
136,165,58034,1,8,0:0:0:0:
136,165,58119,2,0,L|226:155,2,71.9999978027344,8|8|4,0:0|0:3|0:3,0:0:0:0:
93,240,58630,1,4,1:2:0:0:
256,192,58801,12,8,59823,0:0:0:0:
207,69,60164,6,0,P|213:109|222:223,1,143.999995605469,6|8,1:2|0:0,0:0:0:0:
174,285,60676,1,2,0:0:0:0:
174,285,60761,1,2,0:0:0:0:
174,285,60846,2,0,P|216:299|265:287,1,71.9999978027344,2|0,1:2|1:0,0:0:0:0:
307,238,61187,2,0,P|349:224|398:236,1,71.9999978027344,10|2,0:0|0:0,0:0:0:0:
459,291,61528,6,0,L|454:255,3,35.9999989013672,0|2|2|2,1:0|0:0|0:0|0:0,0:0:0:0:
491,232,61869,2,0,L|498:141,1,71.9999978027344,10|2,0:0|0:0,0:0:0:0:
439,95,62210,1,2,1:2:0:0:
439,95,62295,1,2,0:0:0:0:
439,95,62380,1,2,1:2:0:0:
373,151,62551,2,0,P|332:134|297:133,1,71.9999978027344,8|0,0:0|0:0,0:0:0:0:
231,179,62892,6,0,L|239:251,2,71.9999978027344,2|0|10,1:2|0:0|0:0,0:0:0:0:
168,119,63403,2,0,P|117:150|33:125,2,143.999995605469,2|2|0,0:0|1:2|0:0,0:0:0:0:
227,56,64255,6,0,L|223:11,2,35.9999989013672,2|2|2,1:2|0:0|0:0,0:0:0:0:
286,118,64596,2,0,L|282:163,2,35.9999989013672,10|2|2,0:0|0:0|0:0,0:0:0:0:
348,58,64937,1,2,1:2:0:0:
348,58,65022,1,2,0:0:0:0:
348,58,65107,1,10,0:0:0:0:
420,104,65278,1,10,0:0:0:0:
360,175,65448,1,2,0:0:0:0:
435,230,65619,6,0,L|444:313,1,71.9999978027344,4|2,1:2|0:0,0:0:0:0:
365,354,65960,1,10,0:0:0:0:
297,307,66130,1,2,0:0:0:0:
297,307,66215,1,2,0:0:0:0:
297,307,66301,2,0,L|234:314,2,35.9999989013672,2|2|2,1:2|0:0|1:2,0:0:0:0:
200,372,66642,2,0,L|137:365,2,35.9999989013672,10|2|2,0:0|0:0|0:0,0:0:0:0:
118,287,66982,1,2,1:2:0:0:
118,287,67068,1,2,0:0:0:0:
118,287,67153,1,2,0:0:0:0:
16,319,67323,6,0,L|9:256,3,35.9999989013672,10|2|2|2,0:0|0:0|0:0|0:0,0:0:0:0:
31,239,67665,2,0,L|38:176,2,35.9999989013672,2|2|2,1:2|0:0|0:0,0:0:0:0:
9,111,68005,2,0,L|113:125,1,71.9999978027344,8|8,0:0|0:0,0:0:0:0:
158,172,68346,6,0,L|221:165,3,35.9999989013672,6|2|2|2,1:2|0:0|0:0|0:0,0:0:0:0:
221,128,68688,2,0,L|284:135,3,35.9999989013672,10|2|2|2,0:0|0:0|0:0|0:0,0:0:0:0:
297,154,69028,2,0,L|401:142,1,71.9999978027344,2|10,1:2|0:0,0:0:0:0:
439,83,69369,1,10,0:0:0:0:
495,170,69539,5,6,1:2:0:0:
495,170,69624,1,2,0:0:0:0:
495,170,69710,2,0,L|486:257,1,71.9999978027344,2|10,0:0|0:0,0:0:0:0:
399,209,70051,1,8,0:3:0:0:
324,248,70221,1,10,0:0:0:0:
324,248,70306,1,2,0:0:0:0:
324,248,70392,2,0,L|335:337,1,71.9999978027344,2|8,0:0|0:0,0:0:0:0:
257,374,70732,1,10,0:0:0:0:
199,172,71073,6,0,P|149:216|59:197,1,143.999995605469,4|8,1:2|0:0,0:0:0:0:
15,280,71585,1,2,0:0:0:0:
66,356,71755,2,0,L|143:347,1,53.9999983520508,8|2,0:0|0:0,0:0:0:0:
166,277,72096,2,0,L|243:286,1,53.9999983520508,8|2,0:0|0:0,0:0:0:0:
272,352,72437,6,0,P|317:319|384:320,1,107.999996704102,8|8,0:0|0:0,0:0:0:0:
448,345,72948,1,2,0:0:0:0:
487,267,73119,2,0,P|476:198|476:136,1,107.999996704102,8|8,0:0|0:0,0:0:0:0:
502,77,73630,1,2,0:0:0:0:
443,20,73801,2,0,L|376:31,1,53.9999983520508,8|2,0:0|0:0,0:0:0:0:
332,94,74142,6,0,P|275:73|228:72,2,107.999996704102,10|8|8,0:0|0:0|0:0,0:0:0:0:
380,165,74994,2,0,L|370:235,1,53.9999983520508,2|8,0:0|0:0,0:0:0:0:
297,261,75335,2,0,L|287:191,1,53.9999983520508,2|8,0:0|0:0,0:0:0:0:
215,162,75676,2,0,L|205:232,1,53.9999983520508,2|8,0:0|0:0,0:0:0:0:
144,275,76017,1,2,0:0:0:0:
73,225,76187,1,10,0:2:0:0:
141,362,76528,6,0,L|272:346,1,132.00000402832,4|0,1:2|1:0,0:0:0:0:
430,248,77210,2,0,L|299:232,1,132.00000402832,0|0,1:0|1:0,0:0:0:0:
250,153,77721,1,0,0:0:0:0:
315,86,77892,2,0,L|306:5,1,66.0000020141602,0|0,1:0|0:0,0:0:0:0:
217,3,78232,2,0,L|224:68,1,66.0000020141602,0|0,1:0|0:0,0:0:0:0:
142,111,78573,2,0,L|133:30,1,66.0000020141602,0|0,1:0|0:0,0:0:0:0:
52,3,78914,1,0,1:0:0:0:
4,82,79085,6,0,L|18:212,1,132.00000402832,2|2,0:0|0:0,0:0:0:0:
80,282,79596,1,0,1:2:0:0:
151,223,79767,6,0,P|191:197|299:211,1,132.00000402832,2|2,0:0|0:0,0:0:0:0:
332,267,80278,1,0,1:2:0:0:
404,210,80448,6,0,L|397:125,1,66.0000020141602,2|0,0:0|1:0,0:0:0:0:
335,76,80789,1,2,0:0:0:0:
400,10,80960,1,0,1:2:0:0:
486,40,81130,6,0,L|480:105,1,66.0000020141602,2|0,0:0|1:0,0:0:0:0:
469,197,81471,1,2,0:0:0:0:
385,157,81642,1,2,1:2:0:0:
315,217,81812,6,0,L|326:356,1,132.00000402832,2|8,0:0|0:0,0:0:0:0:
240,311,82323,2,0,L|234:236,1,66.0000020141602,8|10,1:2|0:0,0:0:0:0:
167,181,82664,5,8,1:2:0:0:
167,181,82835,1,8,0:0:0:0:
97,241,83005,1,8,1:2:0:0:
18,192,83176,1,10,0:0:0:0:
102,27,83517,5,0,1:0:0:0:
168,81,83687,2,0,L|254:69,1,71.9999978027344,12|2,0:0|0:0,0:0:0:0:
307,17,84028,2,0,L|393:29,1,71.9999978027344,0|2,1:0|1:2,0:0:0:0:
447,97,84369,1,8,0:0:0:0:
447,97,84539,1,2,0:0:0:0:
381,158,84710,5,4,1:2:0:0:
440,230,84880,2,0,L|526:218,2,71.9999978027344,2|8|2,0:0|0:0|0:0,0:0:0:0:
371,294,85392,1,0,1:0:0:0:
371,294,85562,1,2,1:2:0:0:
304,239,85732,1,8,0:0:0:0:
252,317,85903,6,0,P|200:296|180:296,1,71.9999978027344,2|0,0:0|1:0,0:0:0:0:
131,218,86244,1,2,0:0:0:0:
59,277,86414,2,0,L|71:363,2,71.9999978027344,10|2|0,0:0|0:0|1:0,0:0:0:0:
11,207,86926,1,2,1:2:0:0:
68,142,87096,1,10,0:0:0:0:
28,56,87267,6,0,P|87:104|160:95,1,143.999995605469,4|0,1:2|1:0,0:0:0:0:
228,45,87778,1,10,0:0:0:0:
279,122,87948,6,0,P|337:74|410:83,1,143.999995605469,4|0,1:2|1:0,0:0:0:0:
479,24,88460,1,10,0:0:0:0:
507,112,88630,6,0,L|489:260,1,143.999995605469,4|0,1:2|1:0,0:0:0:0:
406,300,89142,2,0,L|395:219,1,71.9999978027344,10|2,0:0|0:0,0:0:0:0:
336,164,89482,1,0,1:0:0:0:
336,164,89653,1,2,1:2:0:0:
275,225,89823,1,10,0:0:0:0:
210,166,89994,6,0,B|120:162|154:206|65:199,1,143.999995605469,4|0,1:2|1:0,0:0:0:0:
12,270,90505,1,10,0:0:0:0:
67,345,90676,6,0,P|117:309|214:318,1,143.999995605469,4|0,1:2|1:0,0:0:0:0:
274,362,91187,1,10,0:0:0:0:
305,274,91357,6,0,L|294:126,1,143.999995605469,6|8,1:2|0:0,0:0:0:0:
325,95,91784,1,8,0:0:0:0:
325,95,91869,1,8,0:0:0:0:
392,159,92039,2,0,L|388:194,2,35.9999989013672,8|8|8,0:0|0:3|0:3,0:0:0:0:
465,100,92380,5,4,0:3:0:0:
504,185,92551,1,4,0:3:0:0:
457,266,92721,1,6,1:2:0:0:
256,192,92892,12,8,93914,0:0:0:0:
122,75,94255,6,0,L|195:84,1,66.0000020141602,4|2,1:2|0:0,0:0:0:0:
239,150,94596,2,0,P|291:122|372:122,1,132.00000402832,10|10,0:0|0:0,0:0:0:0:
433,69,95107,1,2,1:2:0:0:
483,138,95278,2,0,L|475:211,1,66.0000020141602,8|2,0:0|1:2,0:0:0:0:
398,241,95619,6,0,L|406:314,1,66.0000020141602,8|2,0:0|0:0,0:0:0:0:
346,369,95960,2,0,P|317:356|276:349,1,66.0000020141602,10|2,0:0|1:2,0:0:0:0:
231,281,96301,1,8,0:0:0:0:
160,329,96471,1,2,1:2:0:0:
92,275,96642,2,0,L|101:194,1,66.0000020141602,8|2,0:0|1:2,0:0:0:0:
171,163,96982,6,0,L|162:82,1,66.0000020141602,12|2,0:0|0:0,0:0:0:0:
228,40,97323,2,0,P|256:52|298:60,1,66.0000020141602,10|0,0:0|0:0,0:0:0:0:
361,11,97664,1,10,0:0:0:0:
361,11,97835,1,2,1:2:0:0:
425,67,98005,1,8,0:0:0:0:
425,67,98176,1,2,1:2:0:0:
370,132,98346,6,0,L|384:253,1,99.0000030212403,8|8,0:3|0:0,0:0:0:0:
391,271,98686,1,8,0:0:0:0:
472,244,98857,2,0,L|464:178,1,66.0000020141602,2|0,1:3|0:0,0:0:0:0:
451,93,99198,1,2,1:3:0:0:
370,132,99369,1,8,0:0:0:0:
306,75,99539,1,14,0:0:0:0:
203,213,99880,5,2,1:2:0:0:
262,275,100051,2,0,L|252:360,1,66.0000020141602,14|0,0:0|0:0,0:0:0:0:
330,379,100391,1,2,1:2:0:0:
396,325,100561,2,0,P|430:323|483:333,1,66.0000020141602,2|8,1:2|0:0,0:0:0:0:
507,253,100903,6,0,P|478:198|479:114,1,132.00000402832,2|2,1:2|1:2,0:0:0:0:
501,47,101414,1,10,0:0:0:0:
417,65,101584,2,0,L|330:53,1,66.0000020141602,2|0,1:2|0:0,0:0:0:0:
279,8,101926,2,0,L|199:18,1,66.0000020141602,2|8,1:2|0:0,0:0:0:0:
165,87,102266,1,6,1:2:0:0:
290,204,102607,5,12,0:0:0:0:
224,259,102777,2,0,L|233:351,1,66.0000020141602,12|0,0:0|1:0,0:0:0:0:
161,376,103118,1,12,0:0:0:0:
79,347,103289,2,0,L|88:255,1,66.0000020141602,12|0,0:0|1:0,0:0:0:0:
25,219,103630,6,0,B|64:193|64:193|166:209,1,132.00000402832,12|8,0:2|0:0,0:0:0:0:
208,267,104141,1,8,0:3:0:0:
273,212,104311,2,0,L|264:127,1,66.0000020141602,8|4,0:3|0:3,0:0:0:0:
327,85,104653,1,4,0:3:0:0:
395,136,104823,1,0,1:0:0:0:
448,68,104994,1,6,1:2:0:0:
256,192,105164,12,8,110534,0:0:0:0:
