osu file format v14

[General]
AudioFilename: Potato Knishes OFFICIAL (1).mp3
AudioLeadIn: 0
PreviewTime: -1
Countdown: 1
SampleSet: Normal
StackLeniency: 0.7
Mode: 0
LetterboxInBreaks: 0
WidescreenStoryboard: 0

[Editor]
DistanceSpacing: 1.6
BeatDivisor: 4
GridSize: 16
TimelineZoom: 1

[Metadata]
Title:Potato Knishes
TitleUnicode:Potato Knishes
Artist:ratoygenius
ArtistUnicode:ratoygenius
Creator:FlowR
Version:Little Black Squash Balls
Source:
Tags:
BeatmapID:890572
BeatmapSetID:410365

[Difficulty]
HPDrainRate:6
CircleSize:4
OverallDifficulty:8
ApproachRate:8
SliderMultiplier:1.4
SliderTickRate:1

[Events]
//Background and Video events
0,0,"maxresdefault.jpg",0,0
//Break Periods
//Storyboard Layer 0 (Background)
//Storyboard Layer 1 (Fail)
//Storyboard Layer 2 (Pass)
//Storyboard Layer 3 (Foreground)
//Storyboard Sound Samples

[TimingPoints]
1920,454.545454545455,4,1,0,100,1,0
12847,-200,4,1,0,100,0,0
14210,-100,4,1,0,100,0,0
49087,-50,4,1,0,100,0,0
60526,-133.333333333333,4,1,0,100,0,0

[HitObjects]
160,80,1920,5,0,0:0:0:0:
272,144,2147,2,0,P|352:192|352:224,1,70
288,288,2602,5,0,0:0:0:0:
160,256,2829,1,0,0:0:0:0:
112,128,3056,1,0,0:0:0:0:
240,80,3283,1,0,0:0:0:0:
352,144,3511,2,0,L|416:192,2,70
224,112,4192,6,0,P|160:96|144:112,1,70
162,94,4533,2,0,L|160:176,1,70
416,112,5556,5,0,0:0:0:0:
304,144,5783,1,0,0:0:0:0:
384,256,6011,2,0,P|384:288|368:336,1,70
224,240,6465,2,0,P|214:206|213:171,1,70
256,64,6920,1,0,0:0:0:0:
368,96,7147,1,0,0:0:0:0:
400,208,7374,2,0,L|416:288,2,70
384,96,8056,1,0,0:0:0:0:
384,96,8170,2,0,L|304:64,1,70
144,96,9192,5,0,0:0:0:0:
256,160,9420,1,0,0:0:0:0:
144,240,9647,2,0,P|160:288|176:304,1,70
304,304,10102,5,0,0:0:0:0:
384,208,10329,1,0,0:0:0:0:
256,176,10556,1,0,0:0:0:0:
176,272,10783,1,0,0:0:0:0:
304,288,11011,6,0,P|384:272|416:224,1,140
416,96,11692,1,0,0:0:0:0:
288,144,11920,1,0,0:0:0:0:
160,176,12602,5,0,0:0:0:0:
256,272,12829,2,0,P|304:288|448:144,1,280
256,128,14420,6,0,L|256:208,2,70
144,96,16920,6,0,P|128:128|128:192,1,70
192,272,17374,1,0,0:0:0:0:
320,256,17602,1,0,0:0:0:0:
336,208,17715,1,0,0:0:0:0:
352,160,17829,2,0,P|352:96|336:80,1,70
224,128,18283,1,0,0:0:0:0:
96,176,18511,1,0,0:0:0:0:
192,272,18738,2,0,P|224:288|288:320,1,105
285,318,19192,2,0,L|304:288,1,35
96,96,20102,5,0,0:0:0:0:
224,144,20329,1,0,0:0:0:0:
128,240,20556,2,0,P|160:288|176:304,1,70
304,288,21011,1,0,0:0:0:0:
368,176,21238,1,0,0:0:0:0:
256,96,21465,1,0,0:0:0:0:
160,176,21806,5,0,0:0:0:0:
184,200,22033,2,0,L|96:288,1,105
240,304,22602,1,0,0:0:0:0:
304,192,22829,1,0,0:0:0:0:
192,128,23056,1,0,0:0:0:0:
128,96,23738,5,0,0:0:0:0:
256,80,23965,1,0,0:0:0:0:
320,208,24192,1,0,0:0:0:0:
160,256,24420,1,0,0:0:0:0:
272,80,24647,1,0,0:0:0:0:
64,224,24874,1,0,0:0:0:0:
400,240,25102,1,0,0:0:0:0:
400,144,25329,1,0,0:0:0:0:
400,144,25556,2,0,P|368:80|352:80,1,70
64,320,26465,5,0,0:0:0:0:
288,176,27261,6,0,L|352:240,1,70
337,225,27715,2,0,L|288:288,1,70
144,144,28283,5,0,0:0:0:0:
400,64,28738,6,0,P|432:192|432:224,1,140
256,112,29533,2,0,P|208:144|192:160,1,70
80,304,30102,1,0,0:0:0:0:
352,320,30556,1,0,0:0:0:0:
256,144,30897,2,0,L|192:96,2,70
64,48,32829,5,0,0:0:0:0:
160,192,33056,1,0,0:0:0:0:
448,48,33283,5,0,0:0:0:0:
368,208,33511,1,0,0:0:0:0:
208,288,33738,6,0,P|160:272|144:240,1,70
224,96,34192,1,0,0:0:0:0:
400,144,34420,1,0,0:0:0:0:
224,96,34647,6,0,P|160:96|128:112,1,70
176,272,35102,2,0,P|208:304|240:320,1,70
384,240,35556,1,0,0:0:0:0:
288,96,35783,1,0,0:0:0:0:
96,224,36011,1,0,0:0:0:0:
352,176,36238,1,0,0:0:0:0:
208,96,36465,6,0,P|144:112|144:128,1,70
320,96,36920,2,0,P|368:96|384:112,1,70
256,224,37374,1,0,0:0:0:0:
96,304,37602,1,0,0:0:0:0:
256,176,37829,1,0,0:0:0:0:
416,304,38056,1,0,0:0:0:0:
352,144,38283,6,0,P|304:112|272:112,1,70
192,256,38738,2,0,P|224:304|256:304,1,70
208,128,39192,2,0,P|160:160|160:192,1,70
288,272,39647,2,0,P|336:240|336:208,1,70
224,112,40102,5,0,0:0:0:0:
96,240,40329,1,0,0:0:0:0:
256,304,40556,2,0,P|336:320|352:320,1,70
416,176,41011,5,0,0:0:0:0:
256,112,41238,1,0,0:0:0:0:
96,176,41465,2,0,P|80:240|80:256,1,70
256,192,41920,5,0,0:0:0:0:
112,48,42147,1,0,0:0:0:0:
80,176,42374,1,0,0:0:0:0:
80,304,42602,1,0,0:0:0:0:
256,192,42829,1,0,0:0:0:0:
432,64,43056,1,0,0:0:0:0:
464,192,43283,1,0,0:0:0:0:
448,320,43511,1,0,0:0:0:0:
288,80,43738,6,0,P|240:64|208:80,1,70
256,192,44192,1,0,0:0:0:0:
256,320,44420,1,0,0:0:0:0:
144,256,44647,6,0,P|96:208|96:176,1,70
192,112,45102,1,0,0:0:0:0:
304,176,45329,1,0,0:0:0:0:
240,352,45556,6,0,L|144:320,1,70
96,240,46011,2,0,L|48:160,1,70
160,144,46465,2,0,L|240:176,1,70
384,224,46920,1,0,0:0:0:0:
448,112,47147,1,0,0:0:0:0:
224,48,47374,1,0,0:0:0:0:
112,288,47602,1,0,0:0:0:0:
352,320,47829,6,0,L|304:256,1,70
288,128,48283,2,0,P|240:96|224:96,1,70
112,160,48738,1,0,0:0:0:0:
160,288,48965,1,0,0:0:0:0:
320,304,49192,6,0,L|400:176,1,140
208,80,49647,2,0,L|128:224,1,140
352,208,50102,5,0,0:0:0:0:
176,80,50329,1,0,0:0:0:0:
128,288,50556,1,0,0:0:0:0:
304,160,50783,1,0,0:0:0:0:
96,208,51011,6,0,L|240:320,1,140
384,176,51465,2,0,L|256:64,1,140
112,224,51920,2,0,L|256:304,1,140
384,144,52374,2,0,L|224:80,1,140
80,64,52829,5,0,0:0:0:0:
96,272,53056,1,0,0:0:0:0:
160,80,53283,1,0,0:0:0:0:
176,288,53511,1,0,0:0:0:0:
384,304,53738,6,0,L|416:144,1,140
208,112,54192,2,0,L|80:224,1,140
288,304,54647,2,0,L|256:144,1,140
64,240,55102,2,0,L|192:320,1,140
384,288,55556,5,0,0:0:0:0:
384,80,55783,1,0,0:0:0:0:
176,80,56011,1,0,0:0:0:0:
176,288,56238,1,0,0:0:0:0:
368,192,56465,6,0,L|240:96,1,140
192,288,56920,2,0,L|144:144,1,140
400,144,57374,2,0,L|256:80,1,140
128,320,57829,2,0,L|112:176,1,140
304,96,58283,5,0,0:0:0:0:
64,320,59192,5,0,0:0:0:0:
384,128,60102,5,0,0:0:0:0:
80,64,60329,1,0,0:0:0:0:
288,288,60556,2,0,P|368:256|384:224,1,105.000004005432
80,96,61920,5,0,0:0:0:0:
176,176,62374,2,0,L|224:208,1,52.5000020027161
288,256,62829,1,0,0:0:0:0:
384,128,63283,1,0,0:0:0:0:
224,112,63738,1,0,0:0:0:0:
256,192,65556,6,0,P|192:176|144:176,1,105.000004005432
320,144,66465,1,0,0:0:0:0:
160,96,67374,5,0,0:0:0:0:
192,176,67602,1,0,0:0:0:0:
240,240,67829,1,0,0:0:0:0:
368,128,68283,1,0,0:0:0:0:
80,304,69192,5,0,0:0:0:0:
192,240,69647,2,0,L|240:208,2,52.5000020027161
48,64,70556,1,0,0:0:0:0:
464,48,71011,1,0,0:0:0:0:
