osu file format v14

[General]
AudioFilename: Potato Knishes OFFICIAL.mp3
AudioLeadIn: 0
PreviewTime: 49207
Countdown: 0
SampleSet: Soft
StackLeniency: 0.7
Mode: 0
LetterboxInBreaks: 0
WidescreenStoryboard: 0

[Editor]
Bookmarks: 1935,16480,28980,32844,49207
DistanceSpacing: 1
BeatDivisor: 2
GridSize: 4
TimelineZoom: 1

[Metadata]
Title:Potato Knishes
TitleUnicode:Potato Knishes
Artist:ratboygenius
ArtistUnicode:ratboygenius
Creator:Arphimigon
Version:Normal
Source:
Tags:
BeatmapID:680647
BeatmapSetID:303756

[Difficulty]
HPDrainRate:3
CircleSize:3
OverallDifficulty:4
ApproachRate:5.5
SliderMultiplier:1.7
SliderTickRate:1

[Events]
//Background and Video events
0,0,"Centipedes.jpg",0,0
Video,0,"Potato_Knishes_OFFICIAL.avi"
//Break Periods
//Storyboard Layer 0 (Background)
//Storyboard Layer 1 (Fail)
//Storyboard Layer 2 (Pass)
//Storyboard Layer 3 (Foreground)
//Storyboard Sound Samples

[TimingPoints]
1933,454.545454545455,4,2,0,50,1,0
49205,-100,4,2,0,50,0,0

[Colours]
Combo1 : 255,192,0
Combo2 : 255,0,0
Combo3 : 128,0,255
Combo4 : 147,73,0

[HitObjects]
453,236,1933,6,0,B|399:248|399:248|360:288|360:288|287:304,1,170,4|0,0:3|0:0,0:0:0:0:
215,308,2614,1,0,0:0:0:0:
137,268,2842,2,0,P|101:213|99:192,1,85,8|0,0:3|0:0,0:0:0:0:
110,109,3296,2,0,P|137:76|179:61,1,85
261,66,3751,2,0,L|441:106,2,170,4|4|8,0:3|0:3|0:3,0:0:0:0:
139,188,5114,1,8,0:3:0:0:
224,335,5569,6,0,P|299:289|303:205,1,170,4|0,0:3|0:0,0:0:0:0:
301,125,6251,1,0,0:0:0:0:
388,130,6478,2,0,P|444:118|473:86,2,85,8|0|0,0:3|0:0|0:0,0:0:0:0:
301,125,7160,1,0,0:0:0:0:
222,91,7387,2,0,P|158:72|54:97,2,170,4|4|8,0:3|0:3|0:3,0:0:0:0:
373,169,8751,1,8,0:3:0:0:
345,336,9205,6,0,P|275:303|269:205,1,170,4|0,0:3|0:0,0:0:0:0:
290,137,9887,1,0,0:0:0:0:
373,169,10114,2,0,P|416:179|474:164,2,85,8|0|0,0:3|0:0|0:0,0:0:0:0:
203,154,11023,6,0,P|212:236|147:288,1,170,4|0,0:3|0:0,0:0:0:0:
132,204,11705,1,0,0:0:0:0:
116,120,11933,2,0,P|53:172|62:253,1,170,8|0,0:3|0:0,0:0:0:0:
182,369,12842,6,0,B|228:372|256:336|256:336|284:372|330:369,1,170,4|0,0:3|0:0,0:0:0:0:
405,327,13523,1,0,0:0:0:0:
447,253,13751,2,0,P|433:172|365:125,1,170,8|0,0:3|0:0,0:0:0:0:
256,256,14660,1,2,0:3:0:0:
212,151,16478,6,0,B|165:150|165:150|133:129|133:129|87:143|51:106,1,170,4|0,0:3|0:0,0:0:0:0:
10,33,17160,1,0,0:0:0:0:
91,3,17387,2,0,L|179:18,2,85,8|0|0,0:3|0:0|0:0,0:0:0:0:
69,181,18296,1,4,0:3:0:0:
226,115,18751,1,4,0:3:0:0:
91,3,19205,1,8,0:3:0:0:
69,181,19660,1,8,0:3:0:0:
218,99,20114,6,0,P|305:83|383:137,1,170,4|0,0:3|0:0,0:0:0:0:
389,210,20796,1,0,0:0:0:0:
376,293,21023,2,0,P|392:357|419:382,2,85,8|0|0,0:3|0:0|0:0,0:0:0:0:
323,136,21933,1,4,0:3:0:0:
166,210,22387,1,4,0:3:0:0:
239,367,22842,1,8,0:3:0:0:
396,295,23296,1,8,0:3:0:0:
372,126,23751,6,0,P|447:160|459:243,1,170,4|0,0:3|0:0,0:0:0:0:
396,295,24433,1,0,0:0:0:0:
331,239,24660,2,0,L|234:226,1,85,8|0,0:3|0:0,0:0:0:0:
186,287,25114,2,0,L|89:274,1,85,0|0,0:0|0:0,0:0:0:0:
22,306,25569,6,0,P|86:252|80:169,1,170,4|0,0:3|0:0,0:0:0:0:
204,44,26478,2,0,P|217:125|292:161,1,170,8|0,0:3|0:0,0:0:0:0:
344,326,27387,2,0,P|265:296|197:343,1,170,4|0,0:3|0:0,0:0:0:0:
22,306,28296,2,0,P|60:289|85:254,1,85,8|0,0:3|0:0,0:0:0:0:
103,168,28751,2,0,P|128:132|166:115,1,85,0|0,0:0|0:0,0:0:0:0:
251,122,29205,6,0,P|333:110|368:35,1,170,4|0,0:3|0:0,0:0:0:0:
281,42,29887,1,0,0:0:0:0:
251,122,30114,2,0,L|267:300,1,170,8|0,0:3|0:0,0:0:0:0:
404,192,31023,1,2,0:3:0:0:
102,165,32842,6,0,L|201:144,1,85,2|0,0:2|0:0,0:0:0:0:
217,66,33296,2,0,L|316:46,1,85,2|0,0:2|0:0,0:0:0:0:
384,72,33751,1,2,0:2:0:0:
426,147,33978,1,0,0:0:0:0:
384,222,34205,2,0,P|375:268|394:314,1,85,2|0,0:2|0:0,0:0:0:0:
307,341,34660,6,0,L|219:315,1,85,2|0,0:2|0:0,0:0:0:0:
205,233,35114,2,0,L|116:207,1,85,2|0,0:0|0:0,0:0:0:0:
37,228,35569,2,0,P|97:186|80:82,1,170,2|0,0:2|0:0,0:0:0:0:
253,32,36478,6,0,L|281:113,1,85,2|0,0:2|0:0,0:0:0:0:
367,123,36933,2,0,L|396:204,1,85,2|0,0:2|0:0,0:0:0:0:
361,284,37387,1,2,0:2:0:0:
283,321,37614,1,0,0:0:0:0:
201,292,37842,2,0,P|140:278|98:302,1,85,2|0,0:2|0:0,0:0:0:0:
70,214,38296,6,0,L|100:126,1,85,2|0,0:2|0:0,0:0:0:0:
184,119,38751,2,0,L|213:31,1,85,2|0,0:0|0:0,0:0:0:0:
280,89,39205,2,0,P|358:129|440:96,1,170,2|0,0:2|0:0,0:0:0:0:
432,281,40114,6,0,P|396:259|353:254,1,85,2|0,0:2|0:0,0:0:0:0:
275,290,40569,2,0,P|237:312|195:316,1,85,2|0,0:2|0:0,0:0:0:0:
112,292,41023,1,2,0:2:0:0:
56,224,41251,1,0,0:0:0:0:
60,138,41478,2,0,P|49:96|16:69,1,85,2|0,0:2|0:0,0:0:0:0:
70,2,41933,6,0,L|275:20,1,170,2|2,0:2|0:2,0:0:0:0:
318,46,42614,1,0,0:0:0:0:
387,95,42842,2,0,P|405:167|350:249,1,170,2|2,0:2|0:2,0:0:0:0:
210,163,43751,6,0,L|105:182,1,85,2|0,0:2|0:0,0:0:0:0:
128,264,44205,2,0,L|212:247,1,85,2|0,0:2|0:0,0:0:0:0:
298,247,44660,2,0,L|383:264,1,85,2|0,0:2|0:0,0:0:0:0:
385,178,45114,2,0,L|301:163,1,85,2|0,0:2|0:0,0:0:0:0:
221,127,45569,5,2,0:2:0:0:
136,141,45796,1,0,0:0:0:0:
73,201,46023,2,0,P|62:255|81:292,1,85,2|0,0:2|0:0,0:0:0:0:
147,326,46478,2,0,L|235:338,1,85,2|0,0:2|0:0,0:0:0:0:
316,328,46933,1,2,0:2:0:0:
386,278,47160,1,0,0:0:0:0:
402,194,47387,6,0,L|386:107,1,85,2|0,0:2|0:0,0:0:0:0:
309,146,47842,2,0,L|293:59,1,85,2|0,0:2|0:0,0:0:0:0:
215,94,48296,2,0,L|198:10,2,85,2|0|2,0:2|0:0|0:2,0:0:0:0:
227,263,49205,6,0,P|151:319|65:260,1,170,4|0,0:3|0:0,0:0:0:0:
53,217,49887,1,0,0:0:0:0:
80,136,50114,2,0,L|131:67,2,85,8|0|0,0:3|0:0|0:0,0:0:0:0:
253,152,51023,5,4,0:3:0:0:
421,200,51478,1,4,0:3:0:0:
313,63,51933,1,8,0:3:0:0:
320,238,52387,1,8,0:3:0:0:
417,93,52842,6,0,P|363:24|314:63,1,170,4|0,0:3|0:0,0:0:0:0:
250,120,53523,1,0,0:0:0:0:
167,150,53751,2,0,P|106:140|86:123,2,85,8|0|0,0:3|0:0|0:0,0:0:0:0:
285,271,54660,2,0,B|341:273|341:273|391:241|391:241|447:243,2,170,4|4|8,0:3|0:3|0:3,0:0:0:0:
127,203,56023,6,0,P|110:249|120:292,1,85,8|0,0:3|0:0,0:0:0:0:
167,351,56478,2,0,L|349:370,1,170,4|0,0:3|0:0,0:0:0:0:
401,211,57387,2,0,L|229:231,1,170,8|0,0:3|0:0,0:0:0:0:
148,213,58069,1,0,0:0:0:0:
91,149,58296,6,0,P|100:74|199:57,1,170,4|0,0:3|0:0,0:0:0:0:
256,89,58978,1,0,0:0:0:0:
330,48,59205,2,0,P|408:69|421:149,1,170,8|0,0:3|0:0,0:0:0:0:
429,318,60114,2,0,P|396:334|342:334,1,85,8|0,0:3|0:0,0:0:0:0:
272,297,60569,2,0,P|187:290|120:342,2,170,8|8|0,0:3|0:3|0:0,0:0:0:0:
442,290,61933,6,0,P|475:211|446:130,1,170,4|0,0:3|0:0,0:0:0:0:
377,88,62614,1,0,0:0:0:0:
291,91,62842,2,0,B|213:108|213:108|154:176,1,170,8|0,0:3|0:0,0:0:0:0:
213,345,63751,2,0,P|300:309|363:345,2,170,8|8|8,0:3|0:3|0:3,0:0:0:0:
59,35,65569,6,0,P|94:96|193:75,1,170,4|0,0:3|0:0,0:0:0:0:
256,33,66251,1,0,0:0:0:0:
325,83,66478,2,0,P|404:101|452:35,1,170,8|0,0:3|0:0,0:0:0:0:
427,205,67387,2,0,L|390:287,1,85,4|0,0:3|0:0,0:0:0:0:
423,363,67842,2,0,P|373:313|283:343,2,170,4|8|0,0:3|0:3|0:0,0:0:0:0:
381,170,69205,6,0,B|322:109|322:109|275:93|238:121,1,170,4|0,0:3|0:0,0:0:0:0:
158,149,69887,1,0,0:0:0:0:
87,198,70114,2,0,P|78:117|144:64,2,170,8|4|4,0:3|0:3|0:3,0:0:0:0:
210,318,71478,5,8,0:3:0:0:
256,154,71933,1,8,0:3:0:0:
