osu file format v14

[General]
AudioFilename: audio.mp3
AudioLeadIn: 0
PreviewTime: 13600
Countdown: 0
SampleSet: Normal
StackLeniency: 0.7
Mode: 1
LetterboxInBreaks: 0
WidescreenStoryboard: 0

[Editor]
Bookmarks: 37688,38747,44394,71571,94159,116746
DistanceSpacing: 0.5
BeatDivisor: 8
GridSize: 32
TimelineZoom: 2.4

[Metadata]
Title:*LASAGA*
TitleUnicode:✿LASAGA✿
Artist:randy
ArtistUnicode:randy
Creator:D3kuu
Version:GARFIELF
Source:
Tags:lasaga boaz garfield lasagna gabba fridge magnets fast food rockers song system of a down chic 'n' stu ken ashcorp burgz electronic english dariacore experimental hyperpop mashcore hyperflip
BeatmapID:3923979
BeatmapSetID:1903206

[Difficulty]
HPDrainRate:6
CircleSize:5
OverallDifficulty:6
ApproachRate:5
SliderMultiplier:1.7
SliderTickRate:1

[Events]
//Background and Video events
0,0,"MOSHED-2022-12-15-6-3-8.jpg",0,30
//Break Periods
//Storyboard Layer 0 (Background)
//Storyboard Layer 1 (Fail)
//Storyboard Layer 2 (Pass)
//Storyboard Layer 3 (Foreground)
//Storyboard Layer 4 (Overlay)
//Storyboard Sound Samples

[TimingPoints]
983,352.941176470588,4,1,0,80,1,0
983,-416.666666666667,4,1,0,80,0,0
2394,-312.5,4,1,0,80,0,0
3806,352.941176470588,4,1,0,80,1,0
3806,-250,4,1,0,80,0,0
4156,-238.459526611743,4,1,0,80,0,0
4509,-227.9375,4,1,0,80,0,0
4774,-220.629159104658,4,1,0,80,0,0
5038,-213.799976550592,4,1,0,80,0,0
5215,-209.453250631748,4,1,0,80,0,0
5568,-201.291533281819,4,1,0,80,0,0
5921,-193.742031449214,4,1,0,80,0,0
6097,-190.185648727576,4,1,0,80,0,0
6274,-186.73835125448,4,1,0,80,0,0
6627,-180.223364301245,4,1,0,80,0,0
6979,-174.164278892073,4,1,0,80,0,0
7156,-171.268902038133,4,1,0,80,0,0
7332,-168.483784532939,4,1,0,80,0,0
7509,-165.772727272727,4,1,0,80,0,0
7862,-160.618338765084,4,1,0,80,0,0
8038,-158.166363084396,4,1,0,80,0,0
8391,-153.467429725635,4,1,0,80,0,0
8568,-151.214860270338,4,1,0,80,0,0
8744,-149.039640375971,4,1,0,80,0,0
9097,-144.86018430251,4,1,0,80,0,0
9450,-140.908739664632,4,1,0,80,0,0
9803,-137.167143072063,4,1,0,80,0,0
9979,-135.374907201188,4,1,0,80,0,0
10156,-133.6191104272,4,1,0,80,0,0
10421,-131.073893041978,4,1,0,80,0,0
10685,-128.632900677201,4,1,0,80,0,0
10862,-127.046610464711,4,1,0,80,0,0
11215,-123.997008023936,4,1,0,80,0,0
11391,-122.530573847601,4,1,0,80,0,0
11568,-121.090377847135,4,1,0,80,0,0
11921,-118.316895925253,4,1,0,80,0,0
12274,-115.667618141453,4,1,0,80,0,0
12626,-113.141403487001,4,1,0,80,0,0
12803,-111.912360378053,4,1,0,80,0,0
12979,-110.716454159077,4,1,0,80,0,0
13156,-109.539256322461,4,1,0,80,0,0
13332,-108.393271116923,4,1,0,80,0,0
13685,-106.165579878901,4,1,0,80,0,0
13862,-105.082694634933,4,1,0,80,0,0
13950,-104.552491256235,4,1,0,80,0,0
14038,-104.027611386845,4,1,0,80,0,0
14215,-102.98768778945,4,1,0,80,0,0
14303,-102.478363493312,4,1,0,80,0,0
14479,-101.474680022259,4,1,0,80,0,0
14568,-100.974583310261,4,1,0,80,0,0
14744,-100,4,1,0,80,0,0
15055,-100,4,1,0,100,0,0
15100,-60.6060606060606,4,1,0,100,0,1
15274,-79.7962136741831,4,1,0,100,0,1
15362,-81.3060572551911,4,1,0,100,0,1
15450,-82.874139010645,4,1,0,100,0,1
15627,-86.2186899449529,4,1,0,100,0,1
15685,-87.37415415085,4,1,0,100,0,1
15744,-88.581754902617,4,1,0,100,0,1
15803,-89.8232040449286,4,1,0,100,0,1
15891,-91.7408934946106,4,1,0,100,0,1
15979,-93.7422530722102,4,1,0,100,0,1
16068,-95.8571738972985,4,1,0,100,0,1
16156,-98.0442995777465,4,1,0,100,0,1
16332,-102.732282853373,4,1,0,100,0,1
16421,-105.277810921529,4,1,0,100,0,1
16509,-107.921882007583,4,1,0,100,0,1
16685,-113.629534234814,4,1,0,100,0,1
16774,-116.751940719831,4,1,0,100,0,1
16862,-120.012694958288,4,1,0,100,0,1
16950,-123.460820895522,4,1,0,100,0,1
17127,-131.033117172417,4,1,0,100,0,1
17215,-135.154454940005,4,1,0,100,0,1
17391,-144.227101836212,4,1,0,100,0,1
17479,-149.236060213114,4,1,0,100,0,1
17568,-154.668692298703,4,1,0,100,0,1
17656,-160.44369014426,4,1,0,100,0,1
17744,-166.666666666667,4,1,0,100,0,1
17921,-76.9230769230769,4,1,0,100,0,1
18097,-79.882580725751,4,1,0,100,0,1
18185,-81.4494045723747,4,1,0,100,0,1
18274,-83.0978137283566,4,1,0,100,0,1
18450,-86.5622144766675,4,1,0,100,0,1
18509,-87.7891413274761,4,1,0,100,0,1
18568,-89.0513489991297,4,1,0,100,0,1
18627,-90.3503814636903,4,1,0,100,0,1
18715,-92.3599075678798,4,1,0,100,0,1
18803,-94.4608567208272,4,1,0,100,0,1
18891,-96.6596130592503,4,1,0,100,0,1
18979,-98.9631692974311,4,1,0,100,0,1
19156,-103.94571091877,4,1,0,100,0,1
19332,-109.423792616675,4,1,0,100,0,1
19421,-112.419794321877,4,1,0,100,0,1
19509,-115.547926641973,4,1,0,100,0,1
19597,-118.855124988384,4,1,0,100,0,1
19685,-122.357218023534,4,1,0,100,0,1
19862,-130.065592108608,4,1,0,100,0,1
20038,-138.75779766748,4,1,0,100,0,1
20215,-148.755524540591,4,1,0,100,0,1
20303,-154.282267792521,4,1,0,100,0,1
20391,-160.23552994237,4,1,0,100,0,1
20479,-166.666666666667,4,1,0,100,0,1
20570,-172.413793103448,4,1,0,100,0,1
20744,-76.9230769230769,4,1,0,100,0,1
20921,-79.8976311600761,4,1,0,100,0,1
21009,-81.4638027048528,4,1,0,100,0,1
21097,-83.092602810867,4,1,0,100,0,1
21274,-86.5742306391613,4,1,0,100,0,1
21332,-87.7794541215197,4,1,0,100,0,1
21391,-89.040381204132,4,1,0,100,0,1
21450,-90.3380619662644,4,1,0,100,0,1
21538,-92.3454296226823,4,1,0,100,0,1
21627,-94.4684305693937,4,1,0,100,0,1
21715,-96.6657855983083,4,1,0,100,0,1
21803,-98.9677968067422,4,1,0,100,0,1
21979,-103.917190988431,4,1,0,100,0,1
22068,-106.613359986673,4,1,0,100,0,1
22156,-109.420413745939,4,1,0,100,0,1
22332,-115.502616856163,4,1,0,100,0,1
22421,-118.843136344645,4,1,0,100,0,1
22509,-122.341696535245,4,1,0,100,0,1
22597,-126.052489044266,4,1,0,100,0,1
22774,-134.242265338228,4,1,0,100,0,1
22863,-138.775952729441,4,1,0,100,0,1
23039,-148.707522509439,4,1,0,100,0,1
23127,-154.226158202301,4,1,0,100,0,1
23216,-160.240360540811,4,1,0,100,0,1
23304,-166.666666666667,4,1,0,100,0,1
23394,-172.413793103448,4,1,0,100,0,1
23570,-66.6666666666667,4,1,0,100,0,0
23656,-68.6651418560516,4,1,0,100,0,0
23832,-73.0444686027848,4,1,0,100,0,0
24009,-78.0506693218273,4,1,0,100,0,0
24097,-80.8040316114993,4,1,0,100,0,0
24274,-86.9752820070271,4,1,0,100,0,0
24450,-94.1231405509973,4,1,0,100,0,0
24538,-98.1565217391299,4,1,0,100,0,0
24715,-107.414738124239,4,1,0,100,0,0
24891,-118.531586021505,4,1,0,100,0,0
24979,-125,4,1,0,100,0,0
25156,-130.450849963045,4,1,0,100,0,0
25332,-136.363636363636,4,1,0,100,0,0
25509,-142.876416621695,4,1,0,100,0,0
25597,-146.351575456053,4,1,0,100,0,0
25685,-150,4,1,0,100,0,0
25862,-157.918282135401,4,1,0,100,0,0
26038,-166.666666666667,4,1,0,100,0,0
26394,-100,4,1,0,100,0,1
26568,-96.781272860278,4,1,0,100,0,1
26745,-93.7466784765279,4,1,0,100,0,1
26921,-90.9122143961519,4,1,0,100,0,1
27097,-88.2441220610305,4,1,0,100,0,1
27274,-85.7142857142857,4,1,0,100,0,1
27450,-83.3385826771654,4,1,0,100,0,1
27627,-81.0785965987437,4,1,0,100,0,1
27803,-78.9497240041772,4,1,0,100,0,1
27891,-77.9266676483581,4,1,0,100,0,1
27979,-76.9297863061492,4,1,0,100,0,1
28068,-75.947187141217,4,1,0,100,0,1
28156,-75,4,1,0,100,0,1
28244,-74.0761478163494,4,1,0,100,0,1
28332,-73.1747787610619,4,1,0,100,0,1
28509,-71.4266432716966,4,1,0,100,0,1
28597,-70.5882352941176,4,1,0,100,0,1
28685,-69.7692814765986,4,1,0,100,0,1
28774,-68.9601250977326,4,1,0,100,0,1
28862,-68.1783045606802,4,1,0,100,0,1
28950,-67.4140127388535,4,1,0,100,0,1
29038,-66.6666666666667,4,1,0,100,0,1
29129,-65.7894736842105,4,1,0,100,0,0
29217,-50,4,1,0,100,0,0
29394,-100,4,1,0,100,0,1
29568,-96.657223796034,4,1,0,100,0,1
29744,-93.5477974776092,4,1,0,100,0,1
29921,-90.6161473087819,4,1,0,100,0,1
30097,-87.8777472527473,4,1,0,100,0,1
30274,-85.2857857023829,4,1,0,100,0,1
30450,-82.8557552209811,4,1,0,100,0,1
30627,-80.547686496695,4,1,0,100,0,1
30715,-79.4473765911208,4,1,0,100,0,1
30803,-78.3767228177642,4,1,0,100,0,1
30891,-77.3345421577516,4,1,0,100,0,1
30979,-76.3197136892335,4,1,0,100,0,1
31068,-75.3200883002208,4,1,0,100,0,1
31156,-74.3571117245387,4,1,0,100,0,1
31244,-73.4184478554009,4,1,0,100,0,1
31332,-72.5031874203145,4,1,0,100,0,1
31421,-71.6004476776721,4,1,0,100,0,1
31509,-70.7296849087894,4,1,0,100,0,1
31597,-69.8798470780994,4,1,0,100,0,1
31685,-69.0501888828926,4,1,0,100,0,1
31774,-68.2309025463272,4,1,0,100,0,1
31862,-67.4397153775201,4,1,0,100,0,1
31953,-66.6666666666667,4,1,0,100,0,0
32041,-50,4,1,0,100,0,0
32217,-100,4,1,0,100,0,1
32391,-96.6742252456538,4,1,0,100,0,1
32568,-93.5454379228378,4,1,0,100,0,1
32744,-90.6288751107175,4,1,0,100,0,1
32921,-87.8735829611817,4,1,0,100,0,1
33097,-85.295098366122,4,1,0,100,0,1
33274,-82.8502024291498,4,1,0,100,0,1
33450,-80.5542434262321,4,1,0,100,0,1
33538,-79.4533312626184,4,1,0,100,0,1
33626,-78.3821051018845,4,1,0,100,0,1
33714,-77.3393801965231,4,1,0,100,0,1
33802,-76.3240340146203,4,1,0,100,0,1
33891,-75.3239104829211,4,1,0,100,0,1
33979,-74.3604651162791,4,1,0,100,0,1
34067,-73.4213547646383,4,1,0,100,0,1
34155,-72.5056689342404,4,1,0,100,0,1
34244,-71.6025192442267,4,1,0,100,0,1
34332,-70.7313701092216,4,1,0,100,0,1
34420,-69.8811637754405,4,1,0,100,0,1
34508,-69.0511540018896,4,1,0,100,0,1
34597,-68.2315284075754,4,1,0,100,0,1
34685,-67.4400210914843,4,1,0,100,0,1
34773,-66.6666666666667,4,1,0,100,0,1
34950,-67.3666626894165,4,1,0,100,0,1
35038,-68.0815145303268,4,1,0,100,0,1
35127,-68.8200877620673,4,1,0,100,0,1
35215,-69.5662888122228,4,1,0,100,0,1
35303,-70.3288490284006,4,1,0,100,0,1
35391,-71.1083123425693,4,1,0,100,0,1
35479,-71.90524707081,4,1,0,100,0,1
35568,-72.7296148396238,4,1,0,100,0,1
35744,-74.4167655199684,4,1,0,100,0,1
35832,-75.2900386718229,4,1,0,100,0,1
36009,-77.1100792133297,4,1,0,100,0,1
36097,-78.0481061653304,4,1,0,100,0,1
36274,-80.0056681309338,4,1,0,100,0,1
36450,-82.0520273216102,4,1,0,100,0,1
36538,-83.1149712939791,4,1,0,100,0,1
36715,-85.3385731559855,4,1,0,100,0,1
36803,-86.4889705882353,4,1,0,100,0,1
36979,-88.8853904282116,4,1,0,100,0,1
37156,-91.4331983805668,4,1,0,100,0,1
37244,-92.7550517496304,4,1,0,100,0,1
37421,-95.5329949238579,4,1,0,100,0,1
37509,-96.9769838543456,4,1,0,100,0,1
37644,-96.9769838543456,4,1,0,100,0,1
37688,-200,4,1,0,100,0,0
37862,-206.916764361079,4,1,0,100,0,0
37950,-210.536779324056,4,1,0,100,0,0
38127,-218.215536781372,4,1,0,100,0,0
38303,-226.427196921103,4,1,0,100,0,0
38391,-230.769230769231,4,1,0,100,0,0
38568,-240.027198549411,4,1,0,100,0,0
38744,-250,4,1,0,100,0,0
38923,-263.157894736842,4,1,0,100,0,0
39009,-266.683455049106,4,1,0,100,0,0
39185,-279.05138339921,4,1,0,100,0,0
39362,-292.703150912106,4,1,0,100,0,0
39450,-300,4,1,0,100,0,0
39627,-315.836564270802,4,1,0,100,0,0
39803,-333.333333333333,4,1,0,100,0,0
40509,-200,4,1,0,100,0,0
40685,-205.115163845092,4,1,0,100,0,0
40774,-207.802723592197,4,1,0,100,0,0
40950,-213.330310587168,4,1,0,100,0,0
41127,-219.1940368041,4,1,0,100,0,0
41215,-222.230969062426,4,1,0,100,0,0
41391,-228.564488705368,4,1,0,100,0,0
41479,-231.868583162218,4,1,0,100,0,0
41568,-235.308827206802,4,1,0,100,0,0
41744,-242.421640188922,4,1,0,100,0,0
41832,-246.141773476328,4,1,0,100,0,0
42009,-253.981106612686,4,1,0,100,0,0
42185,-262.287466319799,4,1,0,100,0,0
42274,-266.69815777043,4,1,0,100,0,0
42450,-275.872178246848,4,1,0,100,0,0
42627,-285.75766778014,4,1,0,100,0,0
42715,-290.940946099145,4,1,0,100,0,0
42803,-296.315734229033,4,1,0,100,0,0
42891,-301.892845684953,4,1,0,100,0,0
42979,-307.683923705722,4,1,0,100,0,0
43156,-320.031742432831,4,1,0,100,0,0
43332,-142.857142857143,4,1,0,100,0,0
43509,-146.351575456053,4,1,0,100,0,0
43597,-148.153329602686,4,1,0,100,0,0
43774,-151.915076746521,4,1,0,100,0,0
43862,-153.857329652768,4,1,0,100,0,0
43950,-155.849889624724,4,1,0,100,0,0
44038,-157.894736842105,4,1,0,100,0,0
44215,-162.174578866769,4,1,0,100,0,0
44303,-164.389941012108,4,1,0,100,0,0
44391,-166.666666666667,4,1,0,100,0,0
44570,-172.413793103448,4,1,0,100,0,0
44656,-173.920183938249,4,1,0,100,0,0
44744,-176.470588235294,4,1,0,100,0,0
44832,-179.096905124302,4,1,0,100,0,0
45009,-184.623430962343,4,1,0,100,0,0
45097,-187.5,4,1,0,100,0,0
45274,-193.566075671724,4,1,0,100,0,0
45450,-33.3333333333333,4,1,0,100,0,0
46156,-142.857142857143,4,1,0,100,0,0
46244,-143.562412342216,4,1,0,100,0,0
46332,-144.274680047359,4,1,0,100,0,0
46421,-145.002266545784,4,1,0,100,0,0
46509,-145.728929384966,4,1,0,100,0,0
46685,-147.204325816843,4,1,0,100,0,0
46774,-147.9618386817,4,1,0,100,0,0
46862,-148.718544778288,4,1,0,100,0,0
47038,-150.255416593271,4,1,0,100,0,0
47215,-151.833392666429,4,1,0,100,0,0
47391,-153.435663748651,4,1,0,100,0,0
47570,-155.038759689922,4,1,0,100,0,0
47744,-156.753445635528,4,1,0,100,0,0
47921,-158.471637354471,4,1,0,100,0,0
48274,-162.013295346629,4,1,0,100,0,0
48627,-165.716876052325,4,1,0,100,0,0
48715,-166.666666666667,4,1,0,100,0,0
48938,-166.666666666667,4,1,0,100,0,0
48979,-76.9230769230769,4,1,0,100,0,0
49068,-78.4444444444444,4,1,0,100,0,0
49156,-80.0090661831369,4,1,0,100,0,0
49244,-81.6373728029602,4,1,0,100,0,0
49332,-83.3333333333333,4,1,0,100,0,0
50038,-76.9230769230769,4,1,0,100,0,0
50127,-78.4444444444444,4,1,0,100,0,0
50215,-80.0090661831369,4,1,0,100,0,0
50303,-81.6373728029602,4,1,0,100,0,0
50391,-83.3333333333333,4,1,0,100,0,0
51097,-76.9230769230769,4,1,0,100,0,0
51185,-78.4270162186181,4,1,0,100,0,0
51274,-80.0090661831369,4,1,0,100,0,0
51362,-81.6373728029602,4,1,0,100,0,0
51450,-83.3333333333333,4,1,0,100,0,0
51803,-76.9230769230769,4,1,0,100,0,0
51891,-78.4313725490196,4,1,0,100,0,0
51979,-80,4,1,0,100,0,0
52068,-81.6993464052288,4,1,0,100,0,0
52158,-83.3333333333333,4,1,0,100,0,0
52850,-76.9230769230769,4,1,0,100,0,0
52938,-78.4313725490196,4,1,0,100,0,0
53026,-80,4,1,0,100,0,0
53115,-81.6993464052288,4,1,0,100,0,0
53205,-83.3333333333333,4,1,0,100,0,0
53570,-71.4285714285714,4,1,0,100,0,0
53656,-72.4613867893526,4,1,0,100,0,0
53744,-73.5245081693898,4,1,0,100,0,0
53832,-74.6192893401015,4,1,0,100,0,0
53921,-75.7601786634599,4,1,0,100,0,0
54009,-76.9230769230769,4,1,0,100,0,0
54185,-79.3593665646932,4,1,0,100,0,0
54274,-80.6510607168983,4,1,0,100,0,0
54362,-81.9702602230483,4,1,0,100,0,0
54450,-83.3333333333333,4,1,0,100,0,0
54627,-73.5294117647059,4,1,0,100,0,0
54715,-74.6252857989669,4,1,0,100,0,0
54803,-75.7543196080117,4,1,0,100,0,0
54891,-76.9180413720869,4,1,0,100,0,0
54979,-78.1180746387732,4,1,0,100,0,0
55068,-79.3704404215077,4,1,0,100,0,0
55156,-80.6488514688387,4,1,0,100,0,0
55244,-81.9691191517068,4,1,0,100,0,0
55332,-83.3333333333333,4,1,0,100,0,0
55685,-76.9230769230769,4,1,0,100,0,0
55774,-78.4444444444444,4,1,0,100,0,0
55862,-80.0090661831369,4,1,0,100,0,0
55950,-81.6373728029602,4,1,0,100,0,0
56038,-83.3333333333333,4,1,0,100,0,0
56391,-72.463768115942,4,1,0,100,0,0
56479,-73.5266881505353,4,1,0,100,0,0
56568,-74.6338803977967,4,1,0,100,0,0
56656,-75.7619129405927,4,1,0,100,0,0
56744,-76.9245674204112,4,1,0,100,0,0
56832,-78.1234626207765,4,1,0,100,0,0
56921,-68.5002415625647,4,1,0,100,0,0
57009,-69.4493037576099,4,1,0,100,0,0
57097,-70.4250337046759,4,1,0,100,0,0
57185,-71.4285714285714,4,1,0,100,0,0
57276,-72.463768115942,4,1,0,100,0,0
57408,-76.9230769230769,4,1,0,100,0,0
57496,-78.4313725490196,4,1,0,100,0,0
57584,-80,4,1,0,100,0,0
57673,-81.6993464052288,4,1,0,100,0,0
57763,-83.3333333333333,4,1,0,100,0,0
58509,-76.9230769230769,4,1,0,100,0,0
58597,-78.4313725490196,4,1,0,100,0,0
58685,-80,4,1,0,100,0,0
58774,-81.6326530612245,4,1,0,100,0,0
58864,-83.3333333333333,4,1,0,100,0,0
59215,-71.4285714285714,4,1,0,100,0,0
59303,-72.4613867893526,4,1,0,100,0,0
59391,-73.5245081693898,4,1,0,100,0,0
59479,-74.6192893401015,4,1,0,100,0,0
59568,-75.7601786634599,4,1,0,100,0,0
59656,-76.9230769230769,4,1,0,100,0,0
59832,-79.3593665646932,4,1,0,100,0,0
59921,-80.6510607168983,4,1,0,100,0,0
60009,-81.9702602230483,4,1,0,100,0,0
60097,-83.3333333333333,4,1,0,100,0,0
60232,-76.9230769230769,4,1,0,100,0,0
60320,-78.4313725490196,4,1,0,100,0,0
60408,-80,4,1,0,100,0,0
60497,-81.6993464052288,4,1,0,100,0,0
60587,-83.3333333333333,4,1,0,100,0,0
61291,-76.9230769230769,4,1,0,100,0,0
61379,-78.4313725490196,4,1,0,100,0,0
61467,-80,4,1,0,100,0,0
61556,-81.6993464052288,4,1,0,100,0,0
61646,-83.3333333333333,4,1,0,100,0,0
62350,-76.9230769230769,4,1,0,100,0,0
62438,-78.4313725490196,4,1,0,100,0,0
62526,-80,4,1,0,100,0,0
62615,-81.6993464052288,4,1,0,100,0,0
62705,-83.3333333333333,4,1,0,100,0,0
63055,-76.9230769230769,4,1,0,100,0,0
63143,-78.4313725490196,4,1,0,100,0,0
63231,-80,4,1,0,100,0,0
63320,-81.6993464052288,4,1,0,100,0,0
63410,-83.3333333333333,4,1,0,100,0,0
64114,-76.9230769230769,4,1,0,100,0,0
64202,-78.4313725490196,4,1,0,100,0,0
64290,-80,4,1,0,100,0,0
64379,-81.6993464052288,4,1,0,100,0,0
64469,-83.3333333333333,4,1,0,100,0,0
64820,-71.4285714285714,4,1,0,100,0,0
64906,-72.4613867893526,4,1,0,100,0,0
64994,-73.5245081693898,4,1,0,100,0,0
65082,-74.6192893401015,4,1,0,100,0,0
65171,-75.7601786634599,4,1,0,100,0,0
65259,-76.9230769230769,4,1,0,100,0,0
65435,-79.3593665646932,4,1,0,100,0,0
65524,-80.6510607168983,4,1,0,100,0,0
65612,-81.9702602230483,4,1,0,100,0,0
65700,-83.3333333333333,4,1,0,100,0,0
65879,-76.9230769230769,4,1,0,100,0,0
65967,-78.4313725490196,4,1,0,100,0,0
66055,-80,4,1,0,100,0,0
66144,-81.6993464052288,4,1,0,100,0,0
66234,-83.3333333333333,4,1,0,100,0,0
66938,-71.4285714285714,4,1,0,100,0,0
67070,-74.0740740740741,4,1,0,100,0,0
67114,-76.9230769230769,4,1,0,100,0,0
67202,-78.4313725490196,4,1,0,100,0,0
67290,-80,4,1,0,100,0,0
67379,-81.6993464052288,4,1,0,100,0,0
67469,-83.3333333333333,4,1,0,100,0,0
68039,-66.6666666666667,4,1,0,100,0,0
68127,-68.0240629338269,4,1,0,100,0,0
68216,-69.4542877391921,4,1,0,100,0,0
68304,-70.9288299155609,4,1,0,100,0,0
68392,-72.4673403993098,4,1,0,100,0,0
68480,-74.0740740740741,4,1,0,100,0,0
68526,-75.7575757575758,4,1,0,100,0,0
68703,-76.9230769230769,4,1,0,100,0,0
68791,-78.4313725490196,4,1,0,100,0,0
68879,-80,4,1,0,100,0,0
68968,-81.6993464052288,4,1,0,100,0,0
69058,-83.3333333333333,4,1,0,100,0,0
69098,-83.3333333333333,4,1,0,100,0,0
69274,-86.6591080876795,4,1,0,100,0,0
69451,-90.2826994251516,4,1,0,100,0,0
69627,-94.1993262673568,4,1,0,100,0,0
69804,-98.4965635738832,4,1,0,100,0,0
69921,-101.559039773231,4,1,0,100,0,0
70038,-104.818065459865,4,1,0,100,0,0
70157,-108.354597864096,4,1,0,100,0,0
70333,-114.045558539739,4,1,0,100,0,0
70510,-120.405377021634,4,1,0,100,0,0
70627,-125.013629920401,4,1,0,100,0,0
70744,-129.988662131519,4,1,0,100,0,0
70863,-135.472054826894,4,1,0,100,0,0
71039,-144.486452425961,4,1,0,100,0,0
71216,-154.848730415991,4,1,0,100,0,0
71391,-166.666666666667,4,1,0,100,0,0
71526,-166.666666666667,4,1,0,100,0,0
71570,-500,4,1,0,100,0,1
71744,-476.979420997558,4,1,0,100,0,1
71921,-455.871322610218,4,1,0,100,0,1
72097,-436.656821266065,4,1,0,100,0,1
72274,-418.900291009343,4,1,0,100,0,1
72450,-402.620344472251,4,1,0,100,0,1
72627,-387.476092654247,4,1,0,100,0,1
72803,-373.506316148856,4,1,0,100,0,1
72979,-360.508798523693,4,1,0,100,0,1
73068,-354.274611398964,4,1,0,100,0,1
73156,-348.318899643403,4,1,0,100,0,1
73332,-336.988664366683,4,1,0,100,0,1
73509,-326.313905625485,4,1,0,100,0,1
73597,-321.254478181711,4,1,0,100,0,1
73685,-316.349546006593,4,1,0,100,0,1
73862,-306.924026484121,4,1,0,100,0,1
74038,-298.092643051771,4,1,0,100,0,1
74215,-289.709231502569,4,1,0,100,0,1
74391,-281.828017929826,4,1,0,100,0,1
74568,-274.32296890672,4,1,0,100,0,1
74744,-267.246433457104,4,1,0,100,0,1
74921,-260.488594694985,4,1,0,100,0,1
75097,-254.099502949784,4,1,0,100,0,1
75274,-247.982591350077,4,1,0,100,0,1
75450,-242.185424599309,4,1,0,100,0,1
75627,-236.622399100229,4,1,0,100,0,1
75803,-231.338549376189,4,1,0,100,0,1
75891,-228.78413986365,4,1,0,100,0,1
75979,-226.285525172713,4,1,0,100,0,1
76156,-221.421632124352,4,1,0,100,0,1
76332,-216.788205453393,4,1,0,100,0,1
76421,-214.518216400643,4,1,0,100,0,1
76509,-212.319993789543,4,1,0,100,0,1
76685,-208.055988741394,4,1,0,100,0,1
76862,-203.93706658713,4,1,0,100,0,1
77038,-200,4,1,0,100,0,1
77215,-71.4285714285714,4,1,0,100,0,1
77303,-74.4629495534636,4,1,0,100,0,1
77391,-77.7665742374589,4,1,0,100,0,1
77479,-81.3769453969926,4,1,0,100,0,1
77568,-85.3861057293111,4,1,0,100,0,1
77656,-89.7585103287753,4,1,0,100,0,1
77744,-94.6028825513647,4,1,0,100,0,1
77832,-100,4,1,0,100,0,1
78055,-10000,4,1,0,100,0,1
78232,-387.476092654247,4,1,0,100,0,1
78408,-373.506316148856,4,1,0,100,0,1
78584,-360.508798523693,4,1,0,100,0,1
78673,-354.274611398964,4,1,0,100,0,1
78761,-348.318899643403,4,1,0,100,0,1
78937,-336.988664366683,4,1,0,100,0,1
79114,-326.313905625485,4,1,0,100,0,1
79202,-321.254478181711,4,1,0,100,0,1
79290,-316.349546006593,4,1,0,100,0,1
79467,-306.924026484121,4,1,0,100,0,1
79644,-294.117647058824,4,1,0,100,0,1
79820,-285.714285714286,4,1,0,100,0,1
80038,-58.8235294117647,4,1,0,100,0,1
80127,-59.8895877641522,4,1,0,100,0,1
80215,-60.9823526701378,4,1,0,100,0,1
80303,-62.1157366123809,4,1,0,100,0,1
80391,-63.29204724786,4,1,0,100,0,1
80568,-65.7983047055607,4,1,0,100,0,1
80744,-68.4952775262,4,1,0,100,0,1
80921,-71.4401381841736,4,1,0,100,0,1
81097,-74.6306529829706,4,1,0,100,0,1
81185,-76.3352174414581,4,1,0,100,0,1
81274,-78.140221402214,4,1,0,100,0,1
81362,-80.0108817217302,4,1,0,100,0,1
81450,-81.9733052553343,4,1,0,100,0,1
81627,-86.2271157730145,4,1,0,100,0,1
81803,-90.9184584735866,4,1,0,100,0,1
81979,-96.1496549219034,4,1,0,100,0,1
82156,-102.054979373096,4,1,0,100,0,1
82332,-108.69297417156,4,1,0,100,0,1
82511,-66.6666666666667,4,1,0,100,0,1
82776,-66.6666666666667,4,1,0,100,0,0
82820,-66.6666666666667,4,1,0,100,0,0
82864,-166.666666666667,4,1,0,100,0,0
83038,-76.9230769230769,4,1,0,100,0,0
83126,-77.9913518290566,4,1,0,100,0,0
83215,-79.1023753121198,4,1,0,100,0,0
83303,-80.2324826287421,4,1,0,100,0,0
83391,-81.3953488372093,4,1,0,100,0,0
83744,-87.7703974709622,4,1,0,100,0,0
83921,-90.6190406337098,4,1,0,100,0,0
84009,-92.1052631578947,4,1,0,100,0,0
84097,-93.6410489616492,4,1,0,100,0,0
84276,-166.666666666667,4,1,0,100,0,0
84365,-76.9230769230769,4,1,0,100,0,0
84450,-100.353328189091,4,1,0,100,0,0
84538,-102.179216805194,4,1,0,100,0,0
84627,-104.094700480243,4,1,0,100,0,0
84715,-106.060606060606,4,1,0,100,0,0
84803,-108.102196167644,4,1,0,100,0,0
84891,-110.223927201356,4,1,0,100,0,0
84979,-112.430612430612,4,1,0,100,0,0
85068,-114.754098360656,4,1,0,100,0,0
85156,-117.147868961267,4,1,0,100,0,0
85244,-119.643635307219,4,1,0,100,0,0
85332,-122.248058180379,4,1,0,100,0,0
85421,-125,4,1,0,100,0,0
85511,-128.205128205128,4,1,0,100,0,0
85688,-166.666666666667,4,1,0,100,0,0
85777,-76.9230769230769,4,1,0,100,0,0
85950,-77.9917903378592,4,1,0,100,0,0
86038,-79.0906179955171,4,1,0,100,0,0
86127,-80.2338801364301,4,1,0,100,0,0
86215,-81.3972647882682,4,1,0,100,0,0
86568,-86.4240727781665,4,1,0,100,0,0
86656,-87.775408670931,4,1,0,100,0,0
86744,-89.1696750902527,4,1,0,100,0,0
86832,-90.6089508437271,4,1,0,100,0,0
86921,-92.1126235316054,4,1,0,100,0,0
87100,-166.666666666667,4,1,0,100,0,0
87189,-76.9230769230769,4,1,0,100,0,0
87274,-98.6027944111776,4,1,0,100,0,0
87362,-100.365704997968,4,1,0,100,0,0
87450,-102.192800992966,4,1,0,100,0,0
87538,-104.087652760219,4,1,0,100,0,0
87627,-106.076873523728,4,1,0,100,0,0
87715,-108.119938717444,4,1,0,100,0,0
87803,-110.243249274715,4,1,0,100,0,0
87891,-112.451627589347,4,1,0,100,0,0
87979,-114.750290360046,4,1,0,100,0,0
88068,-117.172675521822,4,1,0,100,0,0
88156,-119.670542635659,4,1,0,100,0,0
88244,-122.277227722772,4,1,0,100,0,0
88332,-125,4,1,0,100,0,0
88511,-166.666666666667,4,1,0,100,0,0
88600,-76.9230769230769,4,1,0,100,0,0
88685,-100,4,1,0,100,0,0
88774,-97.5407571152252,4,1,0,100,0,0
88819,-96.3427947598253,4,1,0,100,0,0
88863,-95.1995685005394,4,1,0,100,0,0
88950,-93.0171277997365,4,1,0,100,0,0
89038,-90.9090909090909,4,1,0,100,0,0
89127,-88.8721047331319,4,1,0,100,0,0
89215,-86.9458128078818,4,1,0,100,0,0
89303,-85.1012536162006,4,1,0,100,0,0
89391,-83.3333333333333,4,1,0,100,0,0
89479,-81.6373728029602,4,1,0,100,0,0
89568,-79.9909358712894,4,1,0,100,0,0
89656,-78.4270162186181,4,1,0,100,0,0
89744,-76.9230769230769,4,1,0,100,0,0
89923,-20,4,1,0,100,0,0
90012,-76.9230769230769,4,1,0,100,0,0
90097,-66.6666666666667,4,1,0,100,0,0
90185,-67.3794563821293,4,1,0,100,0,0
90274,-68.1160183186819,4,1,0,100,0,0
90362,-68.860310421286,4,1,0,100,0,0
90450,-69.6210477232375,4,1,0,100,0,0
90538,-70.3987813503074,4,1,0,100,0,0
90627,-71.2032281731475,4,1,0,100,0,0
90715,-72.0169189670525,4,1,0,100,0,0
90803,-72.8494220087074,4,1,0,100,0,0
90891,-73.701397326853,4,1,0,100,0,0
90979,-74.5735361917935,4,1,0,100,0,0
91068,-75.4768339392997,4,1,0,100,0,0
91156,-76.3917586634394,4,1,0,100,0,0
91332,-78.289805384693,4,1,0,100,0,0
91421,-79.2859768800294,4,1,0,100,0,0
91509,-80.2961982377032,4,1,0,100,0,0
91597,-81.3324952859837,4,1,0,100,0,0
91685,-82.3958908180159,4,1,0,100,0,0
91862,-84.6212534059946,4,1,0,100,0,0
91950,-85.772995426324,4,1,0,100,0,0
92038,-86.9565217391304,4,1,0,100,0,0
92215,-89.4387614044789,4,1,0,100,0,0
92303,-90.7263718799664,4,1,0,100,0,0
92391,-92.0515982168263,4,1,0,100,0,0
92479,-93.4161131966503,4,1,0,100,0,0
92568,-94.8379058461388,4,1,0,100,0,0
92656,-96.2869261105737,4,1,0,100,0,0
92744,-97.7809123195889,4,1,0,100,0,0
92921,-100.930788830534,4,1,0,100,0,0
93009,-102.573587697511,4,1,0,100,0,0
93097,-104.270749395649,4,1,0,100,0,0
93274,-107.860298407935,4,1,0,100,0,0
93362,-109.73851590106,4,1,0,100,0,0
93450,-111.683305043298,4,1,0,100,0,0
93627,-115.811455847255,4,1,0,100,0,0
93715,-117.979576951131,4,1,0,100,0,0
93803,-120.230426164519,4,1,0,100,0,0
93979,-125,4,1,0,100,0,0
94158,-50,4,1,0,100,0,1
94203,-100,4,1,0,60,0,1
94864,-333.333333333333,4,1,0,60,0,1
95526,-100,4,1,0,60,0,1
96232,-333.333333333333,4,1,0,60,0,1
96894,-100,4,1,0,60,0,1
97644,-333.333333333333,4,1,0,60,0,1
98306,-100,4,1,0,60,0,1
99055,-333.333333333333,4,1,0,60,0,1
99717,-100,4,1,0,60,0,1
100467,-333.333333333333,4,1,0,60,0,1
101129,-100,4,1,0,60,0,1
101879,-333.333333333333,4,1,0,60,0,1
102541,-100,4,1,0,60,0,1
103291,-333.333333333333,4,1,0,60,0,1
103953,-100,4,1,0,60,0,1
104703,-333.333333333333,4,1,0,60,0,1
105365,-100,4,1,0,60,0,1
106114,-333.333333333333,4,1,0,60,0,1
106776,-100,4,1,0,60,0,1
107526,-333.333333333333,4,1,0,60,0,1
108188,-100,4,1,0,60,0,1
108805,-333.333333333333,4,1,0,60,0,1
109467,-100,4,1,0,60,0,1
110305,-333.333333333333,4,1,0,60,0,1
110967,-100,4,1,0,60,0,1
111717,-333.333333333333,4,1,0,60,0,1
112379,-100,4,1,0,60,0,1
113129,-333.333333333333,4,1,0,60,0,1
113791,-100,4,1,0,60,0,1
114585,-333.333333333333,4,1,0,60,0,1
115247,-100,4,1,0,60,0,1
115953,-333.333333333333,4,1,0,60,0,1
116615,-100,4,1,0,60,0,1
116703,-100,4,1,0,60,0,1
116747,-333.333333333333,4,1,0,60,0,0
117097,-337.079367100697,4,1,0,60,0,0
117450,-340.910554446519,4,1,0,60,0,0
118155,-348.828781339571,4,1,0,60,0,0
118508,-352.933333333333,4,1,0,60,0,0
118861,-357.13562923736,4,1,0,60,0,0
119567,-365.847759234304,4,1,0,60,0,0
119920,-370.365188190849,4,1,0,60,0,0
120273,-374.995572870551,4,1,0,60,0,0
120626,-379.743203500466,4,1,0,60,0,0
120979,-384.612590359258,4,1,0,60,0,0
121332,-389.608478068884,4,1,0,60,0,0
121508,-392.148148148148,4,1,0,60,0,0
121861,-397.343040492363,4,1,0,60,0,0
122038,-400,4,1,0,60,0,0
122214,-402.677416901194,4,1,0,60,0,0
122391,-405.406440249646,4,1,0,60,0,0
122567,-408.156971589376,4,1,0,60,0,0
122744,-410.961030895824,4,1,0,60,0,0
123097,-416.669946086341,4,1,0,60,0,0
123450,-422.539707877724,4,1,0,60,0,0
123626,-425.528494494012,4,1,0,60,0,0
123802,-428.559864000648,4,1,0,60,0,0
124155,-434.77189668624,4,1,0,60,0,0
124332,-437.954996690933,4,1,0,60,0,0
124685,-444.444444444445,4,1,0,60,0,0
124861,-447.752357592929,4,1,0,60,0,0
125038,-451.129100979974,4,1,0,60,0,0
125214,-454.537649180046,4,1,0,60,0,0
125391,-458.017908898213,4,1,0,60,0,0
125567,-461.531755372477,4,1,0,60,0,0
125920,-468.744466088188,4,1,0,60,0,0
126273,-476.18619293906,4,1,0,60,0,0
126450,-480.007253604135,4,1,0,60,0,0
126626,-483.868019376657,4,1,0,60,0,0
126802,-487.791394084585,4,1,0,60,0,0
127155,-495.855383318503,4,1,0,60,0,0
127508,-504.190476190476,4,1,0,60,0,0
127861,-512.810577807914,4,1,0,60,0,0
128038,-517.244748412311,4,1,0,60,0,0
128214,-521.730560756874,4,1,0,60,0,0
128391,-526.321022021176,4,1,0,60,0,0
128567,-530.966350734667,4,1,0,60,0,0
128744,-535.72151386359,4,1,0,60,0,0
129097,-545.463912214724,4,1,0,60,0,0
129273,-550.454899922017,4,1,0,60,0,0
129450,-555.567215867352,4,1,0,60,0,0
129979,-571.428571428571,4,1,0,60,0,0
130511,-571.428571428571,4,1,0,60,0,0
130861,-599.988666628889,4,1,0,60,0,0
131214,-612.235457384064,4,1,0,60,0,0
131391,-618.566337559152,4,1,0,60,0,0
131744,-631.591505607254,4,1,0,60,0,0
132097,-645.177015416489,4,1,0,60,0,0
132273,-652.171234986141,4,1,0,60,0,0
133685,-714.29535181812,4,1,0,60,0,0
134038,-731.720801658604,4,1,0,60,0,0
134214,-740.730376381699,4,1,0,60,0,0
134391,-750.017709145002,4,1,0,60,0,0
134744,-769.253124091834,4,1,0,60,0,0
134920,-779.216956137768,4,1,0,60,0,0
135097,-789.501155767653,4,1,0,60,0,0
135273,-800,4,1,0,60,0,0
136508,-882.333333333333,4,1,0,60,0,0
136861,-909.075298360093,4,1,0,60,0,0
137038,-923.1037489102,4,1,0,60,0,0
137391,-952.415219933435,4,1,0,60,0,0
137567,-967.736038753313,4,1,0,60,0,0
137744,-983.649201040505,4,1,0,60,0,0
137920,-1000,4,1,0,60,0,0
139334,-3773.58490566038,3,1,0,60,0,0

[HitObjects]
437,217,3806,5,0,0:0:0:0:
411,161,4158,1,8,0:0:0:0:
211,53,4511,1,0,0:0:0:0:
399,164,4776,1,8,0:0:0:0:
343,84,5041,1,0,0:0:0:0:
401,140,5217,1,8,0:0:0:0:
357,143,5570,1,8,0:0:0:0:
229,151,5923,1,0,0:0:0:0:
396,149,6100,1,0,0:0:0:0:
384,138,6276,1,8,0:0:0:0:
429,162,6629,1,0,0:0:0:0:
439,159,6982,1,8,0:0:0:0:
436,158,7158,1,8,0:0:0:0:
419,152,7335,1,8,0:0:0:0:
433,164,7511,1,0,0:0:0:0:
338,163,7864,1,0,0:0:0:0:
390,163,8041,1,8,0:0:0:0:
421,170,8394,1,8,0:0:0:0:
417,168,8570,1,8,0:0:0:0:
411,157,8747,1,0,0:0:0:0:
364,152,9100,1,8,0:0:0:0:
437,217,9453,1,0,0:0:0:0:
411,161,9805,1,8,0:0:0:0:
239,154,9982,1,8,0:0:0:0:
211,53,10158,1,0,0:0:0:0:
399,164,10423,1,8,0:0:0:0:
343,84,10688,1,0,0:0:0:0:
401,140,10864,1,8,0:0:0:0:
357,143,11217,1,8,0:0:0:0:
323,152,11394,1,8,0:0:0:0:
229,151,11570,1,0,0:0:0:0:
384,138,11923,1,8,0:0:0:0:
429,162,12276,1,0,0:0:0:0:
439,159,12629,1,8,0:0:0:0:
436,158,12805,1,8,0:0:0:0:
419,152,12982,1,0,0:0:0:0:
433,164,13158,1,0,0:0:0:0:
240,146,13335,1,8,0:0:0:0:
390,163,13688,1,0,0:0:0:0:
241,168,13864,1,8,0:0:0:0:
242,163,13953,1,8,0:0:0:0:
443,158,14041,1,0,0:0:0:0:
260,172,14217,1,8,0:0:0:0:
374,142,14305,1,0,0:0:0:0:
262,173,14482,1,8,0:0:0:0:
392,143,14570,1,0,0:0:0:0:
386,124,14747,1,8,0:0:0:0:
307,178,15100,1,4,0:0:0:0:
416,154,15276,1,8,0:0:0:0:
416,158,15364,1,8,0:0:0:0:
406,152,15453,1,0,0:0:0:0:
393,142,15629,1,8,0:0:0:0:
390,138,15688,1,0,0:0:0:0:
390,136,15747,1,0,0:0:0:0:
377,133,15805,1,8,0:0:0:0:
261,104,15894,1,8,0:0:0:0:
372,142,15982,1,0,0:0:0:0:
363,135,16070,1,0,0:0:0:0:
348,141,16158,1,8,0:0:0:0:
433,158,16335,1,8,0:0:0:0:
432,157,16423,1,8,0:0:0:0:
475,165,16511,1,0,0:0:0:0:
472,154,16688,1,0,0:0:0:0:
473,153,16776,1,0,0:0:0:0:
371,89,16864,1,8,0:0:0:0:
238,146,16953,1,0,0:0:0:0:
411,143,17129,1,8,0:0:0:0:
402,148,17217,1,0,0:0:0:0:
392,163,17394,1,8,0:0:0:0:
390,163,17482,1,8,0:0:0:0:
344,154,17570,1,0,0:0:0:0:
281,143,17658,1,0,0:0:0:0:
132,108,17747,1,8,0:0:0:0:
429,149,17923,1,0,0:0:0:0:
404,145,18100,1,8,0:0:0:0:
407,145,18188,1,8,0:0:0:0:
407,144,18276,1,0,0:0:0:0:
387,172,18453,1,0,0:0:0:0:
381,153,18511,1,8,0:0:0:0:
380,153,18570,1,8,0:0:0:0:
360,162,18629,1,0,0:0:0:0:
398,147,18717,1,8,0:0:0:0:
391,153,18805,1,0,0:0:0:0:
391,149,18894,1,0,0:0:0:0:
365,173,18982,1,8,0:0:0:0:
403,154,19158,1,0,0:0:0:0:
386,167,19335,1,0,0:0:0:0:
428,169,19423,1,8,0:0:0:0:
426,163,19511,1,0,0:0:0:0:
426,161,19600,1,0,0:0:0:0:
428,169,19688,1,8,0:0:0:0:
396,158,19864,1,0,0:0:0:0:
334,158,20041,1,0,0:0:0:0:
446,163,20217,1,8,0:0:0:0:
453,168,20305,1,0,0:0:0:0:
443,166,20394,1,8,0:0:0:0:
406,160,20482,1,0,0:0:0:0:
399,163,20570,1,8,0:0:0:0:
312,153,20747,1,0,0:0:0:0:
377,158,20923,1,8,0:0:0:0:
378,158,21011,1,8,0:0:0:0:
354,164,21100,1,0,0:0:0:0:
300,107,21276,1,0,0:0:0:0:
438,151,21335,1,0,0:0:0:0:
438,147,21394,1,8,0:0:0:0:
438,151,21453,1,8,0:0:0:0:
413,144,21541,1,0,0:0:0:0:
408,141,21629,1,0,0:0:0:0:
437,160,21717,1,8,0:0:0:0:
434,165,21805,1,0,0:0:0:0:
426,166,21982,1,8,0:0:0:0:
426,164,22070,1,8,0:0:0:0:
379,160,22158,1,0,0:0:0:0:
445,165,22335,1,0,0:0:0:0:
441,165,22423,1,0,0:0:0:0:
316,165,22511,1,8,0:0:0:0:
193,149,22600,1,0,0:0:0:0:
453,175,22776,1,8,0:0:0:0:
442,174,22864,1,0,0:0:0:0:
415,173,23041,1,0,0:0:0:0:
416,169,23129,1,0,0:0:0:0:
421,173,23217,1,8,0:0:0:0:
396,178,23305,1,0,0:0:0:0:
427,188,23394,1,8,0:0:0:0:
397,170,23570,1,0,0:0:0:0:
205,16,23658,1,8,0:0:0:0:
321,148,23835,1,8,0:0:0:0:
251,32,24011,5,0,0:0:0:0:
265,91,24100,1,8,0:0:0:0:
398,135,24276,1,8,0:0:0:0:
319,129,24453,1,0,0:0:0:0:
261,142,24541,1,8,0:0:0:0:
259,106,24717,1,8,0:0:0:0:
146,0,24894,5,0,0:0:0:0:
420,122,24982,1,8,0:0:0:0:
356,114,25158,1,0,0:0:0:0:
432,129,25335,1,8,0:0:0:0:
384,148,25511,1,0,0:0:0:0:
384,148,25600,1,0,0:0:0:0:
388,150,25688,1,0,0:0:0:0:
405,182,25864,1,0,0:0:0:0:
259,91,26041,1,8,0:0:0:0:
413,156,26394,1,0,0:0:0:0:
413,156,26570,1,0,0:0:0:0:
376,140,26747,1,8,0:0:0:0:
386,165,26923,1,8,0:0:0:0:
347,163,27100,1,0,0:0:0:0:
343,166,27276,1,0,0:0:0:0:
421,160,27453,1,8,0:0:0:0:
410,158,27629,1,8,0:0:0:0:
453,168,27805,1,0,0:0:0:0:
453,168,27894,1,0,0:0:0:0:
405,156,27982,1,8,0:0:0:0:
373,150,28070,1,0,0:0:0:0:
407,150,28158,1,8,0:0:0:0:
407,150,28247,1,8,0:0:0:0:
388,159,28335,1,0,0:0:0:0:
428,158,28511,1,8,0:0:0:0:
428,159,28600,1,8,0:0:0:0:
428,160,28688,1,8,0:0:0:0:
444,161,28776,1,0,0:0:0:0:
418,173,28864,1,8,0:0:0:0:
378,183,28953,1,0,0:0:0:0:
376,178,29041,1,0,0:0:0:0:
369,183,29129,1,8,0:0:0:0:
396,166,29394,1,0,0:0:0:0:
424,150,29570,1,8,0:0:0:0:
288,176,29747,1,8,0:0:0:0:
288,176,29923,1,0,0:0:0:0:
292,170,30100,1,0,0:0:0:0:
289,168,30276,1,8,0:0:0:0:
423,169,30453,1,8,0:0:0:0:
395,188,30629,1,0,0:0:0:0:
395,164,30717,1,8,0:0:0:0:
431,170,30805,1,0,0:0:0:0:
431,170,30894,1,0,0:0:0:0:
411,166,30982,1,8,0:0:0:0:
401,163,31070,1,8,0:0:0:0:
401,161,31158,1,0,0:0:0:0:
390,158,31247,1,0,0:0:0:0:
396,167,31335,1,8,0:0:0:0:
423,169,31423,1,8,0:0:0:0:
431,170,31511,1,8,0:0:0:0:
416,168,31600,1,0,0:0:0:0:
429,178,31688,1,8,0:0:0:0:
397,173,31776,1,0,0:0:0:0:
390,171,31864,1,0,0:0:0:0:
421,163,31953,1,8,0:0:0:0:
371,178,32217,1,0,0:0:0:0:
423,169,32394,1,8,0:0:0:0:
416,182,32570,1,8,0:0:0:0:
411,182,32747,1,0,0:0:0:0:
409,182,32923,1,0,0:0:0:0:
237,70,33100,1,8,0:0:0:0:
237,70,33276,1,8,0:0:0:0:
395,188,33453,1,0,0:0:0:0:
395,164,33541,1,8,0:0:0:0:
431,170,33629,1,0,0:0:0:0:
431,170,33717,1,0,0:0:0:0:
411,166,33805,1,8,0:0:0:0:
401,163,33894,1,8,0:0:0:0:
401,161,33982,1,0,0:0:0:0:
390,158,34070,1,0,0:0:0:0:
396,167,34158,1,8,0:0:0:0:
423,169,34247,1,8,0:0:0:0:
431,170,34335,1,8,0:0:0:0:
416,168,34423,1,0,0:0:0:0:
429,178,34511,1,8,0:0:0:0:
397,173,34600,1,0,0:0:0:0:
390,171,34688,1,0,0:0:0:0:
421,163,34776,1,8,0:0:0:0:
361,124,34864,1,0,0:0:0:0:
373,143,34953,1,8,0:0:0:0:
402,144,35041,1,0,0:0:0:0:
402,144,35129,1,0,0:0:0:0:
413,148,35217,1,8,0:0:0:0:
413,143,35305,1,8,0:0:0:0:
361,149,35394,1,0,0:0:0:0:
471,139,35482,1,0,0:0:0:0:
369,143,35570,1,8,0:0:0:0:
370,140,35747,1,8,0:0:0:0:
272,133,35835,1,0,0:0:0:0:
411,160,36011,1,8,0:0:0:0:
373,148,36100,1,0,0:0:0:0:
389,135,36276,1,8,0:0:0:0:
321,157,36453,1,0,0:0:0:0:
388,131,36541,1,8,0:0:0:0:
326,154,36717,1,0,0:0:0:0:
359,162,36805,1,8,0:0:0:0:
318,144,36982,1,8,0:0:0:0:
306,129,37158,1,0,0:0:0:0:
306,127,37247,1,0,0:0:0:0:
304,148,37423,1,8,0:0:0:0:
302,127,37511,1,8,0:0:0:0:
496,98,37688,1,0,0:0:0:0:
221,153,37864,1,0,0:0:0:0:
421,110,37953,1,8,0:0:0:0:
371,117,38129,1,0,0:0:0:0:
409,140,38305,1,0,0:0:0:0:
371,117,38394,1,8,0:0:0:0:
409,140,38570,1,0,0:0:0:0:
496,98,38747,1,0,0:0:0:0:
221,153,38923,1,0,0:0:0:0:
421,110,39012,1,8,0:0:0:0:
371,117,39188,1,0,0:0:0:0:
409,140,39364,1,0,0:0:0:0:
371,117,39453,1,8,0:0:0:0:
409,140,39629,1,0,0:0:0:0:
368,131,39805,1,8,0:0:0:0:
395,141,40511,1,0,0:0:0:0:
401,133,40688,1,0,0:0:0:0:
379,133,40776,1,8,0:0:0:0:
376,131,40953,1,0,0:0:0:0:
370,128,41129,1,0,0:0:0:0:
283,107,41217,1,8,0:0:0:0:
366,283,41394,1,0,0:0:0:0:
256,143,41482,1,8,0:0:0:0:
367,275,41570,1,0,0:0:0:0:
367,274,41747,1,0,0:0:0:0:
367,274,41835,1,0,0:0:0:0:
429,101,42011,1,0,0:0:0:0:
429,101,42188,1,0,0:0:0:0:
362,161,42276,1,8,0:0:0:0:
421,170,42453,1,0,0:0:0:0:
430,176,42629,1,8,0:0:0:0:
286,166,42717,1,0,0:0:0:0:
293,156,42805,1,0,0:0:0:0:
296,156,42894,1,0,0:0:0:0:
379,96,42982,1,8,0:0:0:0:
429,149,43158,1,8,0:0:0:0:
382,144,43335,1,0,0:0:0:0:
382,144,43511,1,0,0:0:0:0:
379,146,43600,1,8,0:0:0:0:
408,160,43776,1,0,0:0:0:0:
408,157,43864,1,8,0:0:0:0:
408,157,43953,1,0,0:0:0:0:
318,151,44041,1,8,0:0:0:0:
425,149,44217,1,0,0:0:0:0:
421,170,44305,1,8,0:0:0:0:
496,98,44394,1,0,0:0:0:0:
221,153,44570,1,0,0:0:0:0:
421,110,44659,1,8,0:0:0:0:
371,117,44835,1,0,0:0:0:0:
409,140,45011,1,0,0:0:0:0:
371,117,45100,1,8,0:0:0:0:
409,140,45276,1,0,0:0:0:0:
96,160,45453,2,4,L|640:256,1,510.000019454957
446,155,46158,1,8,0:0:0:0:
446,147,46247,1,8,0:0:0:0:
427,166,46335,1,0,0:0:0:0:
426,163,46423,1,0,0:0:0:0:
402,163,46511,1,8,0:0:0:0:
451,175,46688,1,0,0:0:0:0:
444,174,46776,1,0,0:0:0:0:
407,162,46864,1,8,0:0:0:0:
406,161,47041,1,0,0:0:0:0:
368,199,47217,1,0,0:0:0:0:
433,169,47394,1,8,0:0:0:0:
459,166,47747,1,8,0:0:0:0:
416,157,47923,1,0,0:0:0:0:
341,157,48276,1,8,0:0:0:0:
396,138,48629,1,8,0:0:0:0:
396,129,48717,1,8,0:0:0:0:
427,137,48805,1,8,0:0:0:0:
346,151,48982,1,0,0:0:0:0:
414,158,49070,1,8,0:0:0:0:
416,152,49158,1,8,0:0:0:0:
418,152,49247,1,8,0:0:0:0:
387,160,49335,1,0,0:0:0:0:
458,174,49511,1,8,0:0:0:0:
458,174,49688,1,8,0:0:0:0:
371,187,49864,1,0,0:0:0:0:
223,77,50041,1,8,0:0:0:0:
383,164,50129,1,8,0:0:0:0:
380,156,50217,1,8,0:0:0:0:
380,156,50305,1,8,0:0:0:0:
281,154,50394,1,0,0:0:0:0:
341,143,50570,1,8,0:0:0:0:
374,166,50747,1,8,0:0:0:0:
389,143,50923,1,0,0:0:0:0:
381,141,51100,1,8,0:0:0:0:
426,141,51188,1,0,0:0:0:0:
419,144,51276,1,8,0:0:0:0:
426,141,51364,1,8,0:0:0:0:
426,141,51453,1,0,0:0:0:0:
337,151,51629,1,8,0:0:0:0:
282,186,51805,1,0,0:0:0:0:
325,144,51894,1,8,0:0:0:0:
324,131,51982,1,8,0:0:0:0:
324,129,52070,1,8,0:0:0:0:
345,152,52158,1,0,0:0:0:0:
290,165,52335,1,8,0:0:0:0:
316,170,52511,1,8,0:0:0:0:
399,174,52688,1,0,0:0:0:0:
449,137,52864,1,8,0:0:0:0:
403,167,52953,1,8,0:0:0:0:
391,156,53041,1,0,0:0:0:0:
351,178,53129,1,8,0:0:0:0:
307,163,53217,1,0,0:0:0:0:
231,114,53394,1,8,0:0:0:0:
417,173,53570,1,0,0:0:0:0:
363,173,53658,1,8,0:0:0:0:
334,177,53747,1,0,0:0:0:0:
339,164,53835,1,0,0:0:0:0:
313,170,53923,1,8,0:0:0:0:
359,183,54011,1,0,0:0:0:0:
354,183,54188,1,0,0:0:0:0:
404,171,54276,1,8,0:0:0:0:
190,163,54364,1,8,0:0:0:0:
206,14,54453,1,0,0:0:0:0:
431,157,54629,1,0,0:0:0:0:
418,167,54717,1,8,0:0:0:0:
417,161,54805,1,8,0:0:0:0:
416,159,54894,1,8,0:0:0:0:
405,161,54982,1,0,0:0:0:0:
384,165,55070,1,8,0:0:0:0:
364,170,55158,1,0,0:0:0:0:
362,160,55247,1,0,0:0:0:0:
340,156,55335,1,8,0:0:0:0:
306,166,55511,1,8,0:0:0:0:
318,189,55688,1,0,0:0:0:0:
427,159,55776,1,8,0:0:0:0:
426,154,55864,1,8,0:0:0:0:
423,154,55953,1,8,0:0:0:0:
395,172,56041,1,0,0:0:0:0:
366,168,56217,1,8,0:0:0:0:
422,197,56394,1,0,0:0:0:0:
397,191,56482,1,0,0:0:0:0:
421,170,56570,1,8,0:0:0:0:
395,172,56658,1,0,0:0:0:0:
378,179,56747,1,8,0:0:0:0:
233,150,56835,1,8,0:0:0:0:
344,173,56923,1,0,0:0:0:0:
292,153,57011,1,8,0:0:0:0:
429,178,57100,1,0,0:0:0:0:
421,170,57188,1,8,0:0:0:0:
359,183,57276,1,0,0:0:0:0:
402,192,57453,1,0,0:0:0:0:
441,171,57541,1,8,0:0:0:0:
429,154,57629,1,0,0:0:0:0:
429,153,57717,1,0,0:0:0:0:
471,162,57805,1,8,0:0:0:0:
397,139,57982,1,8,0:0:0:0:
419,177,58158,1,0,0:0:0:0:
368,179,58335,1,8,0:0:0:0:
431,163,58511,1,0,0:0:0:0:
421,156,58600,1,8,0:0:0:0:
420,156,58688,1,8,0:0:0:0:
417,156,58776,1,8,0:0:0:0:
346,156,58864,1,0,0:0:0:0:
423,173,59041,1,8,0:0:0:0:
413,173,59217,1,0,0:0:0:0:
410,171,59305,1,0,0:0:0:0:
426,159,59394,1,8,0:0:0:0:
426,158,59482,1,0,0:0:0:0:
426,157,59570,1,8,0:0:0:0:
209,57,59658,1,0,0:0:0:0:
446,156,59835,1,0,0:0:0:0:
336,166,59923,1,8,0:0:0:0:
394,149,60011,1,8,0:0:0:0:
471,156,60100,1,0,0:0:0:0:
346,151,60276,1,0,0:0:0:0:
414,158,60364,1,8,0:0:0:0:
416,152,60453,1,8,0:0:0:0:
418,152,60541,1,8,0:0:0:0:
387,160,60629,1,0,0:0:0:0:
458,174,60805,1,8,0:0:0:0:
458,174,60982,1,8,0:0:0:0:
371,187,61158,1,0,0:0:0:0:
223,77,61335,1,8,0:0:0:0:
383,164,61423,1,8,0:0:0:0:
380,156,61511,1,8,0:0:0:0:
380,156,61600,1,8,0:0:0:0:
281,154,61688,1,0,0:0:0:0:
341,143,61864,1,8,0:0:0:0:
374,166,62041,1,8,0:0:0:0:
389,143,62217,1,0,0:0:0:0:
381,141,62394,1,8,0:0:0:0:
426,141,62482,1,0,0:0:0:0:
419,144,62570,1,8,0:0:0:0:
426,141,62658,1,8,0:0:0:0:
426,141,62747,1,0,0:0:0:0:
337,151,62923,1,8,0:0:0:0:
282,186,63100,1,0,0:0:0:0:
325,144,63188,1,8,0:0:0:0:
324,131,63276,1,8,0:0:0:0:
324,129,63364,1,8,0:0:0:0:
345,152,63453,1,0,0:0:0:0:
290,165,63629,1,8,0:0:0:0:
316,170,63805,1,8,0:0:0:0:
399,174,63982,1,0,0:0:0:0:
449,137,64158,1,8,0:0:0:0:
403,167,64247,1,8,0:0:0:0:
391,156,64335,1,0,0:0:0:0:
351,178,64423,1,8,0:0:0:0:
307,163,64511,1,0,0:0:0:0:
231,114,64688,1,8,0:0:0:0:
417,173,64864,1,0,0:0:0:0:
363,173,64953,1,8,0:0:0:0:
334,177,65041,1,0,0:0:0:0:
339,164,65129,1,0,0:0:0:0:
313,170,65217,1,8,0:0:0:0:
280,137,65305,1,0,0:0:0:0:
222,184,65482,1,0,0:0:0:0:
404,171,65570,1,8,0:0:0:0:
210,149,65658,1,8,0:0:0:0:
163,163,65747,1,0,0:0:0:0:
431,157,65923,1,0,0:0:0:0:
418,167,66011,1,8,0:0:0:0:
417,161,66100,1,8,0:0:0:0:
405,161,66276,1,0,0:0:0:0:
306,166,66453,1,8,0:0:0:0:
364,170,66629,1,0,0:0:0:0:
340,156,66805,1,8,0:0:0:0:
318,189,66982,1,0,0:0:0:0:
236,170,67070,1,8,0:0:0:0:
426,154,67158,1,8,0:0:0:0:
423,154,67247,1,8,0:0:0:0:
395,172,67335,1,0,0:0:0:0:
451,166,67511,1,8,0:0:0:0:
421,170,67688,1,0,0:0:0:0:
296,142,67864,1,8,0:0:0:0:
378,179,68041,1,0,0:0:0:0:
203,91,68129,1,8,0:0:0:0:
344,173,68217,1,0,0:0:0:0:
292,153,68305,1,8,0:0:0:0:
429,178,68394,1,0,0:0:0:0:
421,170,68482,1,8,0:0:0:0:
359,183,68570,1,0,0:0:0:0:
402,192,68747,1,0,0:0:0:0:
441,171,68835,1,8,0:0:0:0:
429,154,68923,1,0,0:0:0:0:
429,153,69011,1,0,0:0:0:0:
471,162,69100,1,8,0:0:0:0:
397,139,69276,1,8,0:0:0:0:
419,177,69453,1,0,0:0:0:0:
368,179,69629,1,8,0:0:0:0:
431,163,69805,1,0,0:0:0:0:
284,183,69923,1,8,0:0:0:0:
289,173,70041,1,8,0:0:0:0:
346,156,70158,1,0,0:0:0:0:
423,173,70335,1,8,0:0:0:0:
413,173,70511,1,0,0:0:0:0:
128,145,70629,1,0,0:0:0:0:
252,134,70747,1,8,0:0:0:0:
426,157,70864,1,8,0:0:0:0:
399,153,71041,1,0,0:0:0:0:
336,166,71217,1,8,0:0:0:0:
237,211,71570,1,0,0:0:0:0:
268,134,71747,1,0,0:0:0:0:
268,134,71923,1,0,0:0:0:0:
268,135,72100,1,0,0:0:0:0:
228,178,72276,1,8,0:0:0:0:
468,161,72453,1,0,0:0:0:0:
468,161,72629,1,0,0:0:0:0:
468,161,72805,1,0,0:0:0:0:
317,122,72982,1,8,0:0:0:0:
267,111,73070,1,8,0:0:0:0:
267,111,73158,1,0,0:0:0:0:
239,138,73335,1,0,0:0:0:0:
239,138,73511,1,0,0:0:0:0:
334,117,73600,1,0,0:0:0:0:
278,147,73688,1,8,0:0:0:0:
341,211,73864,1,0,0:0:0:0:
341,211,74041,1,0,0:0:0:0:
341,211,74217,1,8,0:0:0:0:
301,137,74394,1,0,0:0:0:0:
368,208,74570,1,0,0:0:0:0:
368,208,74747,1,0,0:0:0:0:
368,208,74923,1,0,0:0:0:0:
473,153,75100,1,8,0:0:0:0:
446,160,75276,1,0,0:0:0:0:
446,160,75453,1,0,0:0:0:0:
438,159,75629,1,0,0:0:0:0:
403,139,75805,1,8,0:0:0:0:
403,139,75894,1,8,0:0:0:0:
390,138,75982,1,0,0:0:0:0:
458,151,76158,1,0,0:0:0:0:
449,147,76335,1,0,0:0:0:0:
449,147,76423,1,0,0:0:0:0:
421,150,76511,1,8,0:0:0:0:
323,141,76688,1,0,0:0:0:0:
323,141,76864,1,0,0:0:0:0:
381,139,77041,1,8,0:0:0:0:
373,170,77217,1,0,0:0:0:0:
373,170,77305,1,0,0:0:0:0:
373,170,77394,1,0,0:0:0:0:
368,166,77482,1,0,0:0:0:0:
384,158,77570,1,8,0:0:0:0:
384,158,77658,1,8,0:0:0:0:
384,153,77747,1,8,0:0:0:0:
384,153,77835,1,8,0:0:0:0:
359,157,77923,1,0,0:0:0:0:
335,163,78276,1,0,0:0:0:0:
335,163,78453,1,0,0:0:0:0:
455,157,78629,1,8,0:0:0:0:
455,157,78717,1,8,0:0:0:0:
392,145,78805,1,0,0:0:0:0:
392,145,78982,1,0,0:0:0:0:
392,145,79158,1,0,0:0:0:0:
385,143,79247,1,0,0:0:0:0:
368,138,79335,1,8,0:0:0:0:
411,146,79511,1,0,0:0:0:0:
405,143,79688,1,0,0:0:0:0:
373,143,79864,1,8,0:0:0:0:
406,166,80041,1,0,0:0:0:0:
406,164,80129,1,0,0:0:0:0:
406,164,80217,1,0,0:0:0:0:
406,164,80305,1,0,0:0:0:0:
397,141,80394,1,8,0:0:0:0:
397,141,80570,1,8,0:0:0:0:
333,131,80747,1,0,0:0:0:0:
366,146,80923,1,8,0:0:0:0:
444,157,81100,1,0,0:0:0:0:
444,157,81188,1,0,0:0:0:0:
422,159,81276,1,8,0:0:0:0:
418,148,81364,1,8,0:0:0:0:
394,156,81453,1,0,0:0:0:0:
340,165,81629,1,8,0:0:0:0:
384,139,81805,1,0,0:0:0:0:
382,138,81982,1,0,0:0:0:0:
431,152,82158,1,8,0:0:0:0:
442,160,82335,1,0,0:0:0:0:
436,156,82511,1,0,0:0:0:0:
331,148,82600,1,0,0:0:0:0:
331,148,82688,1,0,0:0:0:0:
331,148,82776,1,0,0:0:0:0:
366,158,83041,1,8,0:0:0:0:
370,140,83129,1,8,0:0:0:0:
367,135,83217,1,8,0:0:0:0:
472,174,83305,1,8,0:0:0:0:
267,148,83394,1,0,0:0:0:0:
379,197,83747,1,0,0:0:0:0:
394,168,83923,1,8,0:0:0:0:
391,160,84011,1,8,0:0:0:0:
366,142,84100,1,0,0:0:0:0:
292,162,84453,1,0,0:0:0:0:
292,162,84541,1,0,0:0:0:0:
411,162,84629,1,8,0:0:0:0:
406,164,84717,1,0,0:0:0:0:
441,173,84805,1,8,0:0:0:0:
435,170,84894,1,8,0:0:0:0:
296,178,84982,1,8,0:0:0:0:
383,139,85070,1,0,0:0:0:0:
384,140,85158,1,0,0:0:0:0:
383,139,85247,1,0,0:0:0:0:
343,138,85335,1,8,0:0:0:0:
155,177,85423,1,0,0:0:0:0:
386,154,85511,1,8,0:0:0:0:
403,139,85864,1,0,0:0:0:0:
396,134,85953,1,0,0:0:0:0:
396,133,86041,1,8,0:0:0:0:
395,133,86129,1,8,0:0:0:0:
392,127,86217,1,8,0:0:0:0:
445,153,86570,1,0,0:0:0:0:
429,153,86658,1,8,0:0:0:0:
429,153,86747,1,8,0:0:0:0:
428,153,86835,1,8,0:0:0:0:
385,138,86923,1,0,0:0:0:0:
421,146,87276,1,0,0:0:0:0:
447,166,87364,1,8,0:0:0:0:
446,164,87453,1,8,0:0:0:0:
390,142,87541,1,0,0:0:0:0:
389,140,87629,1,0,0:0:0:0:
387,122,87717,1,8,0:0:0:0:
345,137,87805,1,0,0:0:0:0:
278,136,87894,1,8,0:0:0:0:
394,149,87982,1,0,0:0:0:0:
393,146,88070,1,8,0:0:0:0:
393,145,88158,1,8,0:0:0:0:
393,145,88247,1,8,0:0:0:0:
314,117,88335,1,0,0:0:0:0:
321,90,88688,1,8,0:0:0:0:
337,129,88776,1,0,0:0:0:0:
337,122,88820,1,0,0:0:0:0:
353,148,88864,1,8,0:0:0:0:
329,130,88953,1,8,0:0:0:0:
453,143,89041,1,0,0:0:0:0:
415,131,89129,1,8,0:0:0:0:
363,162,89217,1,0,0:0:0:0:
354,158,89305,1,0,0:0:0:0:
380,160,89394,1,8,0:0:0:0:
407,146,89482,1,0,0:0:0:0:
376,151,89570,1,8,0:0:0:0:
375,148,89658,1,8,0:0:0:0:
302,156,89747,1,0,0:0:0:0:
383,98,90100,1,0,0:0:0:0:
383,98,90188,1,0,0:0:0:0:
383,98,90276,1,0,0:0:0:0:
404,140,90364,1,8,0:0:0:0:
404,137,90453,1,8,0:0:0:0:
404,140,90541,1,0,0:0:0:0:
376,135,90629,1,0,0:0:0:0:
395,152,90717,1,8,0:0:0:0:
400,155,90805,1,0,0:0:0:0:
400,154,90894,1,0,0:0:0:0:
380,154,90982,1,8,0:0:0:0:
380,152,91070,1,8,0:0:0:0:
366,160,91158,1,0,0:0:0:0:
369,157,91335,1,8,0:0:0:0:
369,157,91423,1,0,0:0:0:0:
314,170,91511,1,0,0:0:0:0:
314,170,91600,1,0,0:0:0:0:
341,153,91688,1,8,0:0:0:0:
187,46,91864,1,0,0:0:0:0:
369,90,91953,1,0,0:0:0:0:
367,145,92041,1,8,0:0:0:0:
419,158,92217,1,0,0:0:0:0:
404,150,92305,1,8,0:0:0:0:
404,146,92394,1,8,0:0:0:0:
404,146,92482,1,8,0:0:0:0:
317,136,92570,1,0,0:0:0:0:
413,147,92658,1,0,0:0:0:0:
246,125,92747,1,8,0:0:0:0:
371,161,92923,1,8,0:0:0:0:
370,157,93011,1,8,0:0:0:0:
231,178,93100,1,0,0:0:0:0:
372,155,93276,1,0,0:0:0:0:
374,152,93364,1,0,0:0:0:0:
376,151,93453,1,8,0:0:0:0:
448,178,93629,1,8,0:0:0:0:
441,162,93717,1,8,0:0:0:0:
426,164,93805,1,8,0:0:0:0:
344,159,93982,1,8,0:0:0:0:
371,118,94158,1,4,0:0:0:0:
448,160,94864,1,8,0:0:0:0:
448,160,95217,1,8,0:0:0:0:
443,134,96276,1,8,0:0:0:0:
436,125,96629,1,8,0:0:0:0:
409,140,97688,1,8,0:0:0:0:
327,136,98041,1,8,0:0:0:0:
420,143,99100,1,8,0:0:0:0:
420,143,99453,1,8,0:0:0:0:
388,116,100511,1,8,0:0:0:0:
371,113,100864,1,8,0:0:0:0:
236,192,101923,1,8,0:0:0:0:
249,182,102276,1,8,0:0:0:0:
468,148,103335,1,8,0:0:0:0:
468,148,103688,1,8,0:0:0:0:
473,154,104747,1,8,0:0:0:0:
473,154,105100,1,8,0:0:0:0:
496,133,106158,1,8,0:0:0:0:
496,133,106511,1,8,0:0:0:0:
476,174,107570,1,8,0:0:0:0:
469,172,107923,1,8,0:0:0:0:
469,172,108982,1,8,0:0:0:0:
464,169,109335,1,8,0:0:0:0:
461,169,110394,1,8,0:0:0:0:
461,169,110747,1,8,0:0:0:0:
464,170,111805,1,8,0:0:0:0:
464,170,112158,1,8,0:0:0:0:
496,73,113217,1,8,0:0:0:0:
496,82,113570,1,8,0:0:0:0:
475,185,114629,1,8,0:0:0:0:
475,185,114982,1,8,0:0:0:0:
443,171,116041,5,8,0:0:0:0:
436,169,116394,1,8,0:0:0:0:
333,247,116747,5,0,0:0:0:0:
227,196,117100,1,0,0:0:0:0:
368,153,117453,1,8,0:0:0:0:
386,132,118158,1,8,0:0:0:0:
386,132,118511,1,8,0:0:0:0:
357,132,118864,1,0,0:0:0:0:
309,238,119570,1,0,0:0:0:0:
430,148,119923,1,0,0:0:0:0:
436,188,120276,1,8,0:0:0:0:
301,146,120629,1,8,0:0:0:0:
358,158,120982,1,0,0:0:0:0:
441,152,121335,1,8,0:0:0:0:
434,150,121511,1,0,0:0:0:0:
321,150,121864,1,0,0:0:0:0:
350,135,122041,1,8,0:0:0:0:
263,197,122217,1,0,0:0:0:0:
360,161,122570,1,8,0:0:0:0:
344,158,122747,1,0,0:0:0:0:
258,138,123100,1,8,0:0:0:0:
341,159,123453,1,8,0:0:0:0:
344,158,123629,1,8,0:0:0:0:
326,179,123805,1,0,0:0:0:0:
376,130,124158,1,8,0:0:0:0:
376,119,124335,1,8,0:0:0:0:
377,158,124688,1,0,0:0:0:0:
424,167,124864,1,8,0:0:0:0:
436,163,125041,1,0,0:0:0:0:
324,117,125394,1,8,0:0:0:0:
323,93,125570,1,8,0:0:0:0:
371,148,125923,1,0,0:0:0:0:
363,140,126276,1,8,0:0:0:0:
355,140,126453,1,0,0:0:0:0:
391,149,126805,1,0,0:0:0:0:
357,132,127158,1,8,0:0:0:0:
381,152,127511,1,0,0:0:0:0:
394,168,127864,1,8,0:0:0:0:
406,141,128217,1,0,0:0:0:0:
430,143,128394,1,8,0:0:0:0:
426,138,128570,1,8,0:0:0:0:
311,123,128747,1,0,0:0:0:0:
252,124,129100,1,8,0:0:0:0:
252,124,129276,1,8,0:0:0:0:
396,156,129453,1,0,0:0:0:0:
391,156,129982,1,0,0:0:0:0:
411,193,130511,1,0,0:0:0:0:
258,153,130864,1,8,0:0:0:0:
314,109,131217,1,0,0:0:0:0:
313,101,131394,1,0,0:0:0:0:
312,101,131747,1,8,0:0:0:0:
336,96,132100,1,8,0:0:0:0:
396,141,133688,1,0,0:0:0:0:
408,157,134041,1,8,0:0:0:0:
323,166,134217,1,0,0:0:0:0:
201,152,134394,1,0,0:0:0:0:
219,206,134747,1,0,0:0:0:0:
214,206,134923,1,8,0:0:0:0:
225,186,135276,1,8,0:0:0:0:
441,143,136511,1,0,0:0:0:0:
447,163,136864,1,8,0:0:0:0:
419,157,137041,1,0,0:0:0:0:
345,157,137394,1,8,0:0:0:0:
322,155,137570,1,8,0:0:0:0:
300,164,137747,1,0,0:0:0:0:
329,123,139335,1,0,0:0:0:0:
