osu file format v14

[General]
AudioFilename: audio.mp3
AudioLeadIn: 0
PreviewTime: -1
Countdown: 0
SampleSet: Normal
StackLeniency: 0.7
Mode: 1
LetterboxInBreaks: 0
WidescreenStoryboard: 0

[Editor]
DistanceSpacing: 1
BeatDivisor: 4
GridSize: 32
TimelineZoom: 1

[Metadata]
Title:Don stream training
TitleUnicode:Don stream training
Artist:random
ArtistUnicode:random
Creator:Tedward765
Version:220 bpm
Source:youtube
Tags:
BeatmapID:1720826
BeatmapSetID:820969

[Difficulty]
HPDrainRate:5
CircleSize:5
OverallDifficulty:5
ApproachRate:5
SliderMultiplier:1.4
SliderTickRate:1

[Events]
//Background and Video events
//Break Periods
//Storyboard Layer 0 (Background)
//Storyboard Layer 1 (Fail)
//Storyboard Layer 2 (Pass)
//Storyboard Layer 3 (Foreground)
//Storyboard Sound Samples

[TimingPoints]
120,272.727272727273,4,1,0,100,1,0

[HitObjects]
256,192,4483,5,0,0:0:0:0:
256,192,4551,1,0,0:0:0:0:
256,192,4620,1,0,0:0:0:0:
256,192,4688,1,0,0:0:0:0:
256,192,4756,1,0,0:0:0:0:
256,192,4824,1,0,0:0:0:0:
256,192,4892,1,0,0:0:0:0:
256,192,4960,1,0,0:0:0:0:
256,192,5029,1,0,0:0:0:0:
256,192,5097,1,0,0:0:0:0:
256,192,5165,1,0,0:0:0:0:
256,192,5233,1,0,0:0:0:0:
256,192,5301,1,0,0:0:0:0:
256,192,5370,1,0,0:0:0:0:
256,192,5438,1,0,0:0:0:0:
256,192,5506,1,0,0:0:0:0:
256,192,5574,5,0,0:0:0:0:
256,192,5642,1,0,0:0:0:0:
256,192,5711,1,0,0:0:0:0:
256,192,5779,1,0,0:0:0:0:
256,192,5847,1,0,0:0:0:0:
256,192,5915,1,0,0:0:0:0:
256,192,5983,1,0,0:0:0:0:
256,192,6051,1,0,0:0:0:0:
256,192,6120,1,0,0:0:0:0:
256,192,6188,1,0,0:0:0:0:
256,192,6256,1,0,0:0:0:0:
256,192,6324,1,0,0:0:0:0:
256,192,6392,1,0,0:0:0:0:
256,192,6461,1,0,0:0:0:0:
256,192,6529,1,0,0:0:0:0:
256,192,6597,1,0,0:0:0:0:
256,192,6665,5,0,0:0:0:0:
256,192,6733,1,0,0:0:0:0:
256,192,6802,1,0,0:0:0:0:
256,192,6870,1,0,0:0:0:0:
256,192,6938,1,0,0:0:0:0:
256,192,7006,1,0,0:0:0:0:
256,192,7074,1,0,0:0:0:0:
256,192,7142,1,0,0:0:0:0:
256,192,7211,1,0,0:0:0:0:
256,192,7279,1,0,0:0:0:0:
256,192,7347,1,0,0:0:0:0:
256,192,7415,1,0,0:0:0:0:
256,192,7483,1,0,0:0:0:0:
256,192,7552,1,0,0:0:0:0:
256,192,7620,1,0,0:0:0:0:
256,192,7688,1,0,0:0:0:0:
256,192,7756,5,0,0:0:0:0:
256,192,7824,1,0,0:0:0:0:
256,192,7893,1,0,0:0:0:0:
256,192,7961,1,0,0:0:0:0:
256,192,8029,1,0,0:0:0:0:
256,192,8097,1,0,0:0:0:0:
256,192,8165,1,0,0:0:0:0:
256,192,8233,1,0,0:0:0:0:
256,192,8302,1,0,0:0:0:0:
256,192,8370,1,0,0:0:0:0:
256,192,8438,1,0,0:0:0:0:
256,192,8506,1,0,0:0:0:0:
256,192,8574,1,0,0:0:0:0:
256,192,8643,1,0,0:0:0:0:
256,192,8711,1,0,0:0:0:0:
256,192,8779,1,0,0:0:0:0:
256,192,8847,5,0,0:0:0:0:
256,192,8915,1,0,0:0:0:0:
256,192,8984,1,0,0:0:0:0:
256,192,9052,1,0,0:0:0:0:
256,192,9120,1,0,0:0:0:0:
256,192,9188,1,0,0:0:0:0:
256,192,9256,1,0,0:0:0:0:
256,192,9324,1,0,0:0:0:0:
256,192,9393,1,0,0:0:0:0:
256,192,9461,1,0,0:0:0:0:
256,192,9529,1,0,0:0:0:0:
256,192,9597,1,0,0:0:0:0:
256,192,9665,1,0,0:0:0:0:
256,192,9734,1,0,0:0:0:0:
256,192,9802,1,0,0:0:0:0:
256,192,9870,1,0,0:0:0:0:
256,192,9938,5,0,0:0:0:0:
256,192,10006,1,0,0:0:0:0:
256,192,10075,1,0,0:0:0:0:
256,192,10143,1,0,0:0:0:0:
256,192,10211,1,0,0:0:0:0:
256,192,10279,1,0,0:0:0:0:
256,192,10347,1,0,0:0:0:0:
256,192,10415,1,0,0:0:0:0:
256,192,10484,1,0,0:0:0:0:
256,192,10552,1,0,0:0:0:0:
256,192,10620,1,0,0:0:0:0:
256,192,10688,1,0,0:0:0:0:
256,192,10756,1,0,0:0:0:0:
256,192,10825,1,0,0:0:0:0:
256,192,10893,1,0,0:0:0:0:
256,192,10961,1,0,0:0:0:0:
256,192,11029,5,0,0:0:0:0:
256,192,11097,1,0,0:0:0:0:
256,192,11166,1,0,0:0:0:0:
256,192,11234,1,0,0:0:0:0:
256,192,11302,1,0,0:0:0:0:
256,192,11370,1,0,0:0:0:0:
256,192,11438,1,0,0:0:0:0:
256,192,11506,1,0,0:0:0:0:
256,192,11575,1,0,0:0:0:0:
256,192,11643,1,0,0:0:0:0:
256,192,11711,1,0,0:0:0:0:
256,192,11779,1,0,0:0:0:0:
256,192,11847,1,0,0:0:0:0:
256,192,11916,1,0,0:0:0:0:
256,192,11984,1,0,0:0:0:0:
256,192,12052,1,0,0:0:0:0:
256,192,12120,5,0,0:0:0:0:
256,192,12188,1,0,0:0:0:0:
256,192,12257,1,0,0:0:0:0:
256,192,12325,1,0,0:0:0:0:
256,192,12393,1,0,0:0:0:0:
256,192,12461,1,0,0:0:0:0:
256,192,12529,1,0,0:0:0:0:
256,192,12597,1,0,0:0:0:0:
256,192,12666,1,0,0:0:0:0:
256,192,12734,1,0,0:0:0:0:
256,192,12802,1,0,0:0:0:0:
256,192,12870,1,0,0:0:0:0:
256,192,12938,1,0,0:0:0:0:
256,192,13007,1,0,0:0:0:0:
256,192,13075,1,0,0:0:0:0:
256,192,13143,1,0,0:0:0:0:
256,192,13210,5,0,0:0:0:0:
256,192,13278,1,0,0:0:0:0:
256,192,13347,1,0,0:0:0:0:
256,192,13415,1,0,0:0:0:0:
256,192,13483,1,0,0:0:0:0:
256,192,13551,1,0,0:0:0:0:
256,192,13619,1,0,0:0:0:0:
256,192,13687,1,0,0:0:0:0:
256,192,13756,1,0,0:0:0:0:
256,192,13824,1,0,0:0:0:0:
256,192,13892,1,0,0:0:0:0:
256,192,13960,1,0,0:0:0:0:
256,192,14028,1,0,0:0:0:0:
256,192,14097,1,0,0:0:0:0:
256,192,14165,1,0,0:0:0:0:
256,192,14233,1,0,0:0:0:0:
256,192,14301,5,0,0:0:0:0:
256,192,14369,1,0,0:0:0:0:
256,192,14438,1,0,0:0:0:0:
256,192,14506,1,0,0:0:0:0:
256,192,14574,1,0,0:0:0:0:
256,192,14642,1,0,0:0:0:0:
256,192,14710,1,0,0:0:0:0:
256,192,14778,1,0,0:0:0:0:
256,192,14847,1,0,0:0:0:0:
256,192,14915,1,0,0:0:0:0:
256,192,14983,1,0,0:0:0:0:
256,192,15051,1,0,0:0:0:0:
256,192,15119,1,0,0:0:0:0:
256,192,15188,1,0,0:0:0:0:
256,192,15256,1,0,0:0:0:0:
256,192,15324,1,0,0:0:0:0:
256,192,15392,5,0,0:0:0:0:
256,192,15460,1,0,0:0:0:0:
256,192,15529,1,0,0:0:0:0:
256,192,15597,1,0,0:0:0:0:
256,192,15665,1,0,0:0:0:0:
256,192,15733,1,0,0:0:0:0:
256,192,15801,1,0,0:0:0:0:
256,192,15869,1,0,0:0:0:0:
256,192,15938,1,0,0:0:0:0:
256,192,16006,1,0,0:0:0:0:
256,192,16074,1,0,0:0:0:0:
256,192,16142,1,0,0:0:0:0:
256,192,16210,1,0,0:0:0:0:
256,192,16279,1,0,0:0:0:0:
256,192,16347,1,0,0:0:0:0:
256,192,16415,1,0,0:0:0:0:
256,192,16483,5,0,0:0:0:0:
256,192,16551,1,0,0:0:0:0:
256,192,16620,1,0,0:0:0:0:
256,192,16688,1,0,0:0:0:0:
256,192,16756,1,0,0:0:0:0:
256,192,16824,1,0,0:0:0:0:
256,192,16892,1,0,0:0:0:0:
256,192,16960,1,0,0:0:0:0:
256,192,17029,1,0,0:0:0:0:
256,192,17097,1,0,0:0:0:0:
256,192,17165,1,0,0:0:0:0:
256,192,17233,1,0,0:0:0:0:
256,192,17301,1,0,0:0:0:0:
256,192,17370,1,0,0:0:0:0:
256,192,17438,1,0,0:0:0:0:
256,192,17506,1,0,0:0:0:0:
256,192,17574,5,0,0:0:0:0:
256,192,17642,1,0,0:0:0:0:
256,192,17711,1,0,0:0:0:0:
256,192,17779,1,0,0:0:0:0:
256,192,17847,1,0,0:0:0:0:
256,192,17915,1,0,0:0:0:0:
256,192,17983,1,0,0:0:0:0:
256,192,18051,1,0,0:0:0:0:
256,192,18120,1,0,0:0:0:0:
256,192,18188,1,0,0:0:0:0:
256,192,18256,1,0,0:0:0:0:
256,192,18324,1,0,0:0:0:0:
256,192,18392,1,0,0:0:0:0:
256,192,18461,1,0,0:0:0:0:
256,192,18529,1,0,0:0:0:0:
256,192,18597,1,0,0:0:0:0:
256,192,18665,5,0,0:0:0:0:
256,192,18733,1,0,0:0:0:0:
256,192,18802,1,0,0:0:0:0:
256,192,18870,1,0,0:0:0:0:
256,192,18938,1,0,0:0:0:0:
256,192,19006,1,0,0:0:0:0:
256,192,19074,1,0,0:0:0:0:
256,192,19142,1,0,0:0:0:0:
256,192,19211,1,0,0:0:0:0:
256,192,19279,1,0,0:0:0:0:
256,192,19347,1,0,0:0:0:0:
256,192,19415,1,0,0:0:0:0:
256,192,19483,1,0,0:0:0:0:
256,192,19552,1,0,0:0:0:0:
256,192,19620,1,0,0:0:0:0:
256,192,19688,1,0,0:0:0:0:
256,192,19756,5,0,0:0:0:0:
256,192,19824,1,0,0:0:0:0:
256,192,19893,1,0,0:0:0:0:
256,192,19961,1,0,0:0:0:0:
256,192,20029,1,0,0:0:0:0:
256,192,20097,1,0,0:0:0:0:
256,192,20165,1,0,0:0:0:0:
256,192,20233,1,0,0:0:0:0:
256,192,20302,1,0,0:0:0:0:
256,192,20370,1,0,0:0:0:0:
256,192,20438,1,0,0:0:0:0:
256,192,20506,1,0,0:0:0:0:
256,192,20574,1,0,0:0:0:0:
256,192,20643,1,0,0:0:0:0:
256,192,20711,1,0,0:0:0:0:
256,192,20779,1,0,0:0:0:0:
256,192,20847,5,0,0:0:0:0:
256,192,20915,1,0,0:0:0:0:
256,192,20984,1,0,0:0:0:0:
256,192,21052,1,0,0:0:0:0:
256,192,21120,1,0,0:0:0:0:
256,192,21188,1,0,0:0:0:0:
256,192,21256,1,0,0:0:0:0:
256,192,21324,1,0,0:0:0:0:
256,192,21393,1,0,0:0:0:0:
256,192,21461,1,0,0:0:0:0:
256,192,21529,1,0,0:0:0:0:
256,192,21597,1,0,0:0:0:0:
256,192,21665,1,0,0:0:0:0:
256,192,21734,1,0,0:0:0:0:
256,192,21802,1,0,0:0:0:0:
256,192,21870,1,0,0:0:0:0:
256,192,21938,5,0,0:0:0:0:
256,192,22006,1,0,0:0:0:0:
256,192,22075,1,0,0:0:0:0:
256,192,22143,1,0,0:0:0:0:
256,192,22211,1,0,0:0:0:0:
256,192,22279,1,0,0:0:0:0:
256,192,22347,1,0,0:0:0:0:
256,192,22415,1,0,0:0:0:0:
256,192,22484,1,0,0:0:0:0:
256,192,22552,1,0,0:0:0:0:
256,192,22620,1,0,0:0:0:0:
256,192,22688,1,0,0:0:0:0:
256,192,22756,1,0,0:0:0:0:
256,192,22825,1,0,0:0:0:0:
256,192,22893,1,0,0:0:0:0:
256,192,22961,1,0,0:0:0:0:
256,192,23029,5,0,0:0:0:0:
256,192,23097,1,0,0:0:0:0:
256,192,23166,1,0,0:0:0:0:
256,192,23234,1,0,0:0:0:0:
256,192,23302,1,0,0:0:0:0:
256,192,23370,1,0,0:0:0:0:
256,192,23438,1,0,0:0:0:0:
256,192,23506,1,0,0:0:0:0:
256,192,23575,1,0,0:0:0:0:
256,192,23643,1,0,0:0:0:0:
256,192,23711,1,0,0:0:0:0:
256,192,23779,1,0,0:0:0:0:
256,192,23847,1,0,0:0:0:0:
256,192,23916,1,0,0:0:0:0:
256,192,23984,1,0,0:0:0:0:
256,192,24052,1,0,0:0:0:0:
256,192,24120,5,0,0:0:0:0:
256,192,24188,1,0,0:0:0:0:
256,192,24257,1,0,0:0:0:0:
256,192,24325,1,0,0:0:0:0:
256,192,24393,1,0,0:0:0:0:
256,192,24461,1,0,0:0:0:0:
256,192,24529,1,0,0:0:0:0:
256,192,24597,1,0,0:0:0:0:
256,192,24666,1,0,0:0:0:0:
256,192,24734,1,0,0:0:0:0:
256,192,24802,1,0,0:0:0:0:
256,192,24870,1,0,0:0:0:0:
256,192,24938,1,0,0:0:0:0:
256,192,25007,1,0,0:0:0:0:
256,192,25075,1,0,0:0:0:0:
256,192,25143,1,0,0:0:0:0:
256,192,25210,5,0,0:0:0:0:
256,192,25278,1,0,0:0:0:0:
256,192,25347,1,0,0:0:0:0:
256,192,25415,1,0,0:0:0:0:
256,192,25483,1,0,0:0:0:0:
256,192,25551,1,0,0:0:0:0:
256,192,25619,1,0,0:0:0:0:
256,192,25687,1,0,0:0:0:0:
256,192,25756,1,0,0:0:0:0:
256,192,25824,1,0,0:0:0:0:
256,192,25892,1,0,0:0:0:0:
256,192,25960,1,0,0:0:0:0:
256,192,26028,1,0,0:0:0:0:
256,192,26097,1,0,0:0:0:0:
256,192,26165,1,0,0:0:0:0:
256,192,26233,1,0,0:0:0:0:
256,192,26301,5,0,0:0:0:0:
256,192,26369,1,0,0:0:0:0:
256,192,26438,1,0,0:0:0:0:
256,192,26506,1,0,0:0:0:0:
256,192,26574,1,0,0:0:0:0:
256,192,26642,1,0,0:0:0:0:
256,192,26710,1,0,0:0:0:0:
256,192,26778,1,0,0:0:0:0:
256,192,26847,1,0,0:0:0:0:
256,192,26915,1,0,0:0:0:0:
256,192,26983,1,0,0:0:0:0:
256,192,27051,1,0,0:0:0:0:
256,192,27119,1,0,0:0:0:0:
256,192,27188,1,0,0:0:0:0:
256,192,27256,1,0,0:0:0:0:
256,192,27324,1,0,0:0:0:0:
256,192,27392,5,0,0:0:0:0:
256,192,27460,1,0,0:0:0:0:
256,192,27529,1,0,0:0:0:0:
256,192,27597,1,0,0:0:0:0:
256,192,27665,1,0,0:0:0:0:
256,192,27733,1,0,0:0:0:0:
256,192,27801,1,0,0:0:0:0:
256,192,27869,1,0,0:0:0:0:
256,192,27938,1,0,0:0:0:0:
256,192,28006,1,0,0:0:0:0:
256,192,28074,1,0,0:0:0:0:
256,192,28142,1,0,0:0:0:0:
256,192,28210,1,0,0:0:0:0:
256,192,28279,1,0,0:0:0:0:
256,192,28347,1,0,0:0:0:0:
256,192,28415,1,0,0:0:0:0:
256,192,28483,5,0,0:0:0:0:
256,192,28551,1,0,0:0:0:0:
256,192,28620,1,0,0:0:0:0:
256,192,28688,1,0,0:0:0:0:
256,192,28756,1,0,0:0:0:0:
256,192,28824,1,0,0:0:0:0:
256,192,28892,1,0,0:0:0:0:
256,192,28960,1,0,0:0:0:0:
256,192,29029,1,0,0:0:0:0:
256,192,29097,1,0,0:0:0:0:
256,192,29165,1,0,0:0:0:0:
256,192,29233,1,0,0:0:0:0:
256,192,29301,1,0,0:0:0:0:
256,192,29370,1,0,0:0:0:0:
256,192,29438,1,0,0:0:0:0:
256,192,29506,1,0,0:0:0:0:
256,192,29574,5,0,0:0:0:0:
256,192,29642,1,0,0:0:0:0:
256,192,29711,1,0,0:0:0:0:
256,192,29779,1,0,0:0:0:0:
256,192,29847,1,0,0:0:0:0:
256,192,29915,1,0,0:0:0:0:
256,192,29983,1,0,0:0:0:0:
256,192,30051,1,0,0:0:0:0:
256,192,30120,1,0,0:0:0:0:
256,192,30188,1,0,0:0:0:0:
256,192,30256,1,0,0:0:0:0:
256,192,30324,1,0,0:0:0:0:
256,192,30392,1,0,0:0:0:0:
256,192,30461,1,0,0:0:0:0:
256,192,30529,1,0,0:0:0:0:
256,192,30597,1,0,0:0:0:0:
256,192,30665,5,0,0:0:0:0:
256,192,30733,1,0,0:0:0:0:
256,192,30802,1,0,0:0:0:0:
256,192,30870,1,0,0:0:0:0:
256,192,30938,1,0,0:0:0:0:
256,192,31006,1,0,0:0:0:0:
256,192,31074,1,0,0:0:0:0:
256,192,31142,1,0,0:0:0:0:
256,192,31211,1,0,0:0:0:0:
256,192,31279,1,0,0:0:0:0:
256,192,31347,1,0,0:0:0:0:
256,192,31415,1,0,0:0:0:0:
256,192,31483,1,0,0:0:0:0:
256,192,31552,1,0,0:0:0:0:
256,192,31620,1,0,0:0:0:0:
256,192,31688,1,0,0:0:0:0:
256,192,31756,5,0,0:0:0:0:
256,192,31824,1,0,0:0:0:0:
256,192,31893,1,0,0:0:0:0:
256,192,31961,1,0,0:0:0:0:
256,192,32029,1,0,0:0:0:0:
256,192,32097,1,0,0:0:0:0:
256,192,32165,1,0,0:0:0:0:
256,192,32233,1,0,0:0:0:0:
256,192,32302,1,0,0:0:0:0:
256,192,32370,1,0,0:0:0:0:
256,192,32438,1,0,0:0:0:0:
256,192,32506,1,0,0:0:0:0:
256,192,32574,1,0,0:0:0:0:
256,192,32643,1,0,0:0:0:0:
256,192,32711,1,0,0:0:0:0:
256,192,32779,1,0,0:0:0:0:
256,192,32847,5,0,0:0:0:0:
256,192,32915,1,0,0:0:0:0:
256,192,32984,1,0,0:0:0:0:
256,192,33052,1,0,0:0:0:0:
256,192,33120,1,0,0:0:0:0:
256,192,33188,1,0,0:0:0:0:
256,192,33256,1,0,0:0:0:0:
256,192,33324,1,0,0:0:0:0:
256,192,33393,1,0,0:0:0:0:
256,192,33461,1,0,0:0:0:0:
256,192,33529,1,0,0:0:0:0:
256,192,33597,1,0,0:0:0:0:
256,192,33665,1,0,0:0:0:0:
256,192,33734,1,0,0:0:0:0:
256,192,33802,1,0,0:0:0:0:
256,192,33870,1,0,0:0:0:0:
256,192,33938,5,0,0:0:0:0:
256,192,34006,1,0,0:0:0:0:
256,192,34075,1,0,0:0:0:0:
256,192,34143,1,0,0:0:0:0:
256,192,34211,1,0,0:0:0:0:
256,192,34279,1,0,0:0:0:0:
256,192,34347,1,0,0:0:0:0:
256,192,34415,1,0,0:0:0:0:
256,192,34484,1,0,0:0:0:0:
256,192,34552,1,0,0:0:0:0:
256,192,34620,1,0,0:0:0:0:
256,192,34688,1,0,0:0:0:0:
256,192,34756,1,0,0:0:0:0:
256,192,34825,1,0,0:0:0:0:
256,192,34893,1,0,0:0:0:0:
256,192,34961,1,0,0:0:0:0:
