osu file format v14

[General]
AudioFilename: Triple Baka PV - Hatsune Miku.mp3
AudioLeadIn: 993
PreviewTime: 49354
Countdown: 0
SampleSet: Soft
StackLeniency: 0.2
Mode: 0
LetterboxInBreaks: 1
WidescreenStoryboard: 1

[Editor]
Bookmarks: 12432,17432,37932,38266,41432,48599,83766,84766,85099,86099,86766,89766
DistanceSpacing: 1
BeatDivisor: 2
GridSize: 4
TimelineZoom: 1.5

[Metadata]
Title:Triple Baka
TitleUnicode:Triple Baka
Artist:ramazuP
ArtistUnicode:ramazuP
Creator:Makyu
Version:Easy
Source:
Tags:Hatsune Miku Gero pkk pkmnyab
BeatmapID:738376
BeatmapSetID:333668

[Difficulty]
HPDrainRate:1
CircleSize:2.5
OverallDifficulty:0
ApproachRate:3
SliderMultiplier:0.899999999999999
SliderTickRate:2

[Events]
//Background and Video events
0,0,"6959655-miku-hatsune.jpg",0,0
//Break Periods
//Storyboard Layer 0 (Background)
//Storyboard Layer 1 (Fail)
//Storyboard Layer 2 (Pass)
//Storyboard Layer 3 (Foreground)
//Storyboard Sound Samples

[TimingPoints]
1438,333.333333333333,4,2,0,60,1,0
49437,-100,4,2,0,60,0,1
50437,-100,4,2,0,60,0,0
60104,-100,4,2,0,60,0,1
61104,-100,4,2,0,60,0,0
89687,-100,4,2,0,5,0,0

[Colours]
Combo1 : 0,128,192
Combo2 : 0,255,128
Combo3 : 0,232,232

[HitObjects]
35,362,4104,6,0,B|98:323|173:360|173:360|234:333|234:333|300:378|397:352,1,360,4|0,3:0|1:0,0:0:0:0:
458,320,5771,1,0,1:0:0:0:
457,230,6104,2,0,P|439:189|461:141,1,89.9999999999999,4|0,1:0|1:0,0:0:0:0:
456,58,6771,5,2,0:0:0:0:
367,40,7104,2,0,P|320:117|330:206,1,180,0|0,1:0|1:0,0:0:0:0:
256,257,8104,1,0,0:0:0:0:
183,203,8437,2,0,P|191:115|145:40,1,180,0|0,1:0|1:0,0:0:0:0:
66,84,9437,6,0,P|46:33|64:-11,2,89.9999999999999,0|0|0,0:0|1:0|0:0,0:0:0:0:
87,171,10437,2,0,B|72:249|134:292|134:292|135:339,1,180,0|0,1:0|1:0,0:0:0:0:
216,295,11437,2,0,P|256:312|311:287,1,89.9999999999999,0|0,0:0|1:0,0:0:0:0:
381,334,12104,6,0,B|381:292|381:292|443:249|428:171,1,180
348,130,13104,2,0,L|361:28,2,89.9999999999999,0|0|0,1:0|0:0|1:0,0:0:0:0:
300,206,14104,2,0,P|257:197|200:211,1,89.9999999999999,0|0,0:0|1:0,0:0:0:0:
164,130,14771,6,0,L|151:28,2,89.9999999999999,0|0|0,0:0|1:0|0:0,0:0:0:0:
212,205,15771,1,0,1:0:0:0:
190,292,16104,6,0,L|97:327,2,89.9999999999999,0|0|0,0:0|1:0|0:0,0:0:0:0:
258,350,17104,1,0,1:0:0:0:
347,350,17437,6,0,P|351:305|398:262,1,89.9999999999999,0|0,0:0|1:0,0:0:0:0:
356,184,18104,1,0,0:0:0:0:
284,129,18437,2,0,P|199:127|151:51,1,180,0|0,1:0|1:0,0:0:0:0:
241,49,19437,1,0,0:0:0:0:
331,49,19771,2,0,P|381:127|324:216,1,180,0|0,1:0|1:0,0:0:0:0:
302,277,20771,2,0,B|257:265|257:265|192:283,1,89.9999999999999,0|0,0:0|1:0,0:0:0:0:
135,228,21437,6,0,P|120:269|136:331,2,89.9999999999999,0|0|0,0:0|1:0|0:0,0:0:0:0:
212,277,22437,2,0,P|218:193|138:133,1,180,0|0,1:0|1:0,0:0:0:0:
127,47,23437,6,0,P|172:38|227:52,1,89.9999999999999,0|0,0:0|1:0,0:0:0:0:
298,79,24104,2,0,P|341:87|385:78,1,89.9999999999999,0|0,0:0|1:0,0:0:0:0:
462,30,24771,1,0,0:0:0:0:
467,119,25104,2,0,L|471:310,1,180,0|0,1:0|1:0,0:0:0:0:
410,365,26104,2,0,B|381:321|381:321|334:300,1,89.9999999999999,0|0,0:0|1:0,0:0:0:0:
256,268,26771,6,0,P|277:235|332:220,2,89.9999999999999,0|0|0,0:0|1:0|0:0,0:0:0:0:
167,284,27771,2,0,P|146:317|91:332,1,89.9999999999999,0|0,1:0|0:0,0:0:0:0:
85,244,28437,6,0,L|70:45,1,180,0|0,1:0|1:0,0:0:0:0:
161,61,29437,1,0,0:0:0:0:
162,151,29771,2,0,P|207:161|265:147,1,89.9999999999999,0|0,1:0|0:0,0:0:0:0:
329,112,30437,2,0,L|345:310,1,180,0|0,1:0|1:0,0:0:0:0:
423,259,31437,2,0,P|466:249|510:256,1,89.9999999999999,0|0,0:0|1:0,0:0:0:0:
512,345,32104,6,0,P|468:354|424:347,1,89.9999999999999,0|0,0:0|1:0,0:0:0:0:
348,298,32771,1,0,0:0:0:0:
270,343,33104,2,0,L|300:139,1,180,0|0,1:0|1:0,0:0:0:0:
271,78,34104,6,0,P|314:75|358:104,1,89.9999999999999,0|0,0:0|1:0,0:0:0:0:
296,164,34771,2,0,P|251:166|213:143,1,89.9999999999999,0|0,0:0|1:0,0:0:0:0:
163,68,35437,2,0,P|124:45|80:47,1,89.9999999999999,0|0,0:0|1:0,0:0:0:0:
14,108,36104,1,0,0:0:0:0:
25,206,36437,6,0,P|99:252|103:349,1,180,0|0,1:0|1:0,1:0:0:0:
197,346,37437,1,0,0:0:0:0:
235,264,37771,2,0,L|423:293,1,180,0|0,1:0|1:0,0:0:0:0:
427,202,38771,6,0,P|390:176|385:104,1,89.9999999999999,4|0,0:1|1:0,0:0:0:0:
447,88,39437,2,0,P|434:45|398:20,1,89.9999999999999,0|0,0:0|1:0,0:0:0:0:
307,15,40104,2,0,L|295:125,1,89.9999999999999
91,203,41437,6,0,P|128:177|133:105,1,89.9999999999999,0|0,0:0|1:0,0:0:0:0:
65,88,42104,2,0,P|77:45|113:20,1,89.9999999999999,0|0,0:0|1:0,0:0:0:0:
205,15,42771,2,0,L|217:125,1,89.9999999999999
345,369,44104,6,0,P|301:380|228:350,1,89.9999999999999,0|0,0:0|1:0,0:0:0:0:
208,295,44771,2,0,P|251:281|311:305,1,89.9999999999999,0|0,0:0|1:0,0:0:0:0:
351,223,45437,2,0,P|394:231|437:220,1,89.9999999999999,0|0,0:0|1:0,0:0:0:0:
188,102,46771,6,0,L|179:206,1,89.9999999999999,0|0,0:0|1:0,0:0:0:0:
261,231,47437,2,0,L|268:141,2,89.9999999999999,0|0|0,0:0|1:0|0:0,0:0:0:0:
349,248,48437,2,0,P|429:270|411:355,1,180,0|4,1:0|1:0,0:0:0:0:
328,337,49437,6,0,P|282:326|215:352,2,89.9999999999999,0|8|0,1:0|3:0|1:0,0:0:0:0:
349,248,50437,2,0,L|378:52,1,180,0|0,1:0|1:0,0:0:0:0:
450,35,51437,2,0,P|465:79|440:138,1,89.9999999999999,0|0,0:0|1:0,0:0:0:0:
441,209,52104,6,0,L|428:320,1,89.9999999999999,0|0,0:0|1:0,0:0:0:0:
351,254,52771,2,0,L|361:164,1,89.9999999999999,0|0,0:0|1:0,0:0:0:0:
282,121,53437,2,0,L|271:210,2,89.9999999999999,0|0|0,0:0|1:0|0:0,0:0:0:0:
293,31,54437,1,0,1:0:0:0:
211,69,54771,6,0,P|185:104|125:113,1,89.9999999999999,0|0,0:0|1:0,0:0:0:0:
110,200,55437,2,0,P|67:211|40:247,1,89.9999999999999,0|0,0:0|1:0,0:0:0:0:
122,285,56104,2,0,L|168:368,2,89.9999999999999,0|0|0,0:0|1:0|0:0,0:0:0:0:
210,269,57104,1,0,1:0:0:0:
270,202,57437,6,0,L|316:285,1,89.9999999999999,0|0,0:0|1:0,0:0:0:0:
290,368,58104,2,0,P|334:375|379:347,1,89.9999999999999,0|0,0:0|1:0,0:0:0:0:
396,267,58771,6,0,P|352:259|313:280,1,89.9999999999999,0|0,0:0|1:0,0:0:0:0:
242,225,59437,2,0,L|173:278,2,45,0|0|0,0:0|1:0|1:0,0:0:0:0:
267,138,60104,6,0,P|310:150|376:114,2,89.9999999999999,0|0|0,0:0|1:0|0:0,0:0:0:0:
306,56,61104,2,0,L|105:123,1,180,0|0,1:0|1:0,0:0:0:0:
73,179,62104,2,0,L|82:293,1,89.9999999999999,0|0,0:0|1:0,0:0:0:0:
166,294,62771,6,0,L|158:204,1,89.9999999999999,0|0,0:0|1:0,0:0:0:0:
245,229,63437,2,0,L|237:139,1,89.9999999999999,0|0,0:0|1:0,0:0:0:0:
326,157,64104,2,0,L|318:67,2,89.9999999999999,0|0|0,0:0|1:0|0:0,0:0:0:0:
339,246,65104,1,0,1:0:0:0:
345,335,65437,6,0,P|387:325|423:260,1,89.9999999999999,0|0,0:0|1:0,0:0:0:0:
339,246,66104,2,0,L|272:154,1,89.9999999999999,0|0,0:0|1:0,0:0:0:0:
274,83,66771,2,0,P|232:93|196:158,2,89.9999999999999,0|0|0,0:0|1:0|0:0,0:0:0:0:
361,104,67771,1,0,1:0:0:0:
448,126,68104,6,0,P|439:172|450:213,1,89.9999999999999,0|0,0:0|1:0,0:0:0:0:
363,240,68771,2,0,P|372:283|361:326,1,89.9999999999999,0|0,0:0|1:0,1:0:0:0:
279,289,69437,6,0,L|157:316,1,89.9999999999999,0|0,0:0|1:0,0:0:0:0:
146,230,70104,2,0,L|207:216,2,45,0|0|0,0:0|1:0|1:0,0:0:0:0:
124,142,70771,6,0,P|139:98|118:33,1,89.9999999999999,0|0,0:0|1:0,0:0:0:0:
211,13,71437,2,0,P|255:24|319:0,1,89.9999999999999,0|0,0:0|1:0,0:0:0:0:
379,55,72104,2,0,P|373:99|388:142,1,89.9999999999999,0|0,0:0|1:0,0:0:0:0:
256,192,73437,12,0,77437,0:0:0:0:
357,212,78771,6,0,L|352:110,2,89.9999999999999,0|0|0,0:0|1:0|0:0,0:0:0:0:
435,255,79771,2,0,P|336:275|308:371,1,180,0|0,1:0|1:0,0:0:0:0:
218,313,80771,2,0,L|227:198,1,89.9999999999999,0|0,0:0|1:0,0:0:0:0:
150,172,81437,6,0,P|180:138|226:135,1,89.9999999999999,0|0,0:0|1:0,0:0:0:0:
297,185,82104,2,0,P|268:218|224:223,1,89.9999999999999
144,263,82771,1,0,0:0:0:0:
90,190,83104,2,0,B|99:67|99:67|121:20|209:35,1,225,0|0,1:0|0:0,0:0:0:0:
197,121,84271,6,0,L|474:84,1,270
470,175,85604,2,0,B|460:296|460:296|439:343|372:331,1,225,0|0,0:0|1:0,0:0:0:0:
290,293,86771,1,4,0:1:0:0:
256,192,86854,12,0,89771,0:0:0:0:
