osu file format v14

[General]
AudioFilename: audio.mp3
AudioLeadIn: 0
PreviewTime: 62832
Countdown: 0
SampleSet: Soft
StackLeniency: 0.3
Mode: 0
LetterboxInBreaks: 0
WidescreenStoryboard: 1

[Editor]
Bookmarks: 10384,20489,30594,40700,50805,63436,81121,88700,98805,108910,119015,129121,139226,149331,161963,179647,187226,197331,207436
DistanceSpacing: 1
BeatDivisor: 4
GridSize: 4
TimelineZoom: 4.099998

[Metadata]
Title:Blood Drain -Again-
TitleUnicode:Blood Drain -Again-
Artist:raito
ArtistUnicode:来兎
Creator:DeviousPanda
Version:Loli's Barrel Replica
Source:アンダーナイトインヴァース
Tags:らいと UNIST Under Night In-Birth In Birth Exe:Late[cl-r] exe late cl-r cl r fighting Sion Eltnam Altasia melty blood actress VGM OST original sound track Eltnum Theme sho Halgoh PaRaDogi KnightC0re Knightcore xLolicore- Lolicore My Angel Watame Video Game Instrumental electronic
BeatmapID:2454006
BeatmapSetID:1152554

[Difficulty]
HPDrainRate:6
CircleSize:4.2
OverallDifficulty:9
ApproachRate:9
SliderMultiplier:1.9
SliderTickRate:1

[Events]
//Background and Video events
0,0,"Blood Drain BG.jpg",0,0
//Break Periods
//Storyboard Layer 0 (Background)
//Storyboard Layer 1 (Fail)
//Storyboard Layer 2 (Pass)
//Storyboard Layer 3 (Foreground)
//Storyboard Layer 4 (Overlay)
//Storyboard Sound Samples

[TimingPoints]
279,315.789473684211,4,2,1,69,1,0
1068,-125,4,2,1,69,0,0
2015,-142.857142857143,4,2,1,69,0,0
2805,-166.666666666667,4,2,1,69,0,0
4068,-142.857142857143,4,2,1,69,0,0
4542,-166.666666666667,4,2,1,69,0,0
5015,-125,4,2,1,69,0,0
5331,-100,4,2,1,69,0,0
5963,-125,4,2,1,69,0,0
7068,-142.857142857143,4,2,1,69,0,0
7857,-166.666666666667,4,2,1,69,0,0
9121,-100,4,2,1,69,0,0
20173,-83.3333333333333,4,2,1,69,0,0
20489,-100,4,2,1,64,0,0
29963,-66.6666666666667,4,2,1,64,0,0
30594,-100,4,2,1,64,0,0
40384,-100,4,2,1,54,0,0
40700,-111.111111111111,4,2,1,59,0,0
42910,-90.9090909090908,4,2,1,59,0,0
43226,-111.111111111111,4,2,1,59,0,0
45436,-90.9090909090908,4,2,1,59,0,0
45752,-100,4,2,1,64,0,0
49542,-76.9230769230769,4,2,1,64,0,0
50489,-76.9230769230769,4,2,1,54,0,0
50805,-111.111111111111,4,2,1,59,0,0
55542,-90.9090909090909,4,2,1,59,0,0
55857,-90.9090909090909,4,2,1,64,0,0
62173,-66.6666666666667,4,2,1,64,0,0
62331,-83.3333333333333,4,2,1,64,0,0
62489,-66.6666666666667,4,2,1,64,0,0
62647,-111.111111111111,4,2,1,64,0,0
62805,-111.111111111111,4,2,1,74,0,0
63436,-76.9230769230769,4,2,1,89,0,1
65331,-100,4,2,1,89,0,1
65647,-83.3333333333333,4,2,1,89,0,1
65963,-76.9230769230769,4,2,1,89,0,1
66752,-90.9090909090909,4,2,1,89,0,1
67068,-76.9230769230769,4,2,1,89,0,1
67384,-83.3333333333333,4,2,1,89,0,1
68489,-76.9230769230769,4,2,1,89,0,1
70384,-100,4,2,1,89,0,1
71173,-83.3333333333333,4,2,1,89,0,1
71963,-100,4,2,1,89,0,1
72279,-83.3333333333333,4,2,1,89,0,1
74331,-71.4285714285714,4,2,1,89,0,0
74647,-76.9230769230769,4,2,1,89,0,0
74963,-83.3333333333333,4,2,1,89,0,0
75279,-90.9090909090909,4,2,1,89,0,0
75436,-58.8235294117647,4,2,1,89,0,0
75594,-100,4,2,1,89,0,0
76068,-83.3333333333333,4,2,1,89,0,1
76857,-100,4,2,1,89,0,1
77173,-76.9230769230769,4,2,1,89,0,1
80844,-76.9230769230769,4,2,1,74,0,1
80884,-76.9230769230769,4,2,1,89,0,1
80923,-76.9230769230769,4,2,1,74,0,1
80963,-76.9230769230769,4,2,1,89,0,1
81002,-76.9230769230769,4,2,1,74,0,1
81042,-76.9230769230769,4,2,1,89,0,1
81081,-76.9230769230769,4,2,1,74,0,1
81121,-100,4,2,1,69,0,0
82068,-200,4,2,1,69,0,0
83015,-100,4,2,1,69,0,0
84121,-76.9230769230769,4,2,1,69,0,0
84436,-100,4,2,1,69,0,0
84594,-125,4,2,1,59,0,0
86173,-111.111111111111,4,2,1,59,0,0
88384,-71.4285714285714,4,2,1,59,0,0
88700,-125,4,2,1,59,0,0
92647,-83.3333333333333,4,2,1,59,0,0
93436,-142.857142857143,4,2,1,59,0,0
97700,-83.3333333333333,4,2,1,59,0,0
98805,-100,4,2,1,59,0,0
100384,-125,4,2,1,59,0,0
102279,-100,4,2,1,59,0,0
102910,-142.857142857143,4,2,1,59,0,0
103542,-83.3333333333333,4,2,1,59,0,0
104173,-100,4,2,1,59,0,0
106384,-83.3333333333333,4,2,1,59,0,0
108910,-100,4,2,1,69,0,0
113489,-76.9230769230769,4,2,1,69,0,0
113963,-100,4,2,1,69,0,0
118700,-83.3333333333333,4,2,1,69,0,0
119015,-100,4,2,1,64,0,0
128489,-66.6666666666667,4,2,1,64,0,0
129121,-100,4,2,1,64,0,0
138910,-83.3333333333333,4,2,1,54,0,0
139226,-111.111111111111,4,2,1,59,0,0
141436,-90.9090909090908,4,2,1,59,0,0
141752,-111.111111111111,4,2,1,59,0,0
143963,-90.9090909090908,4,2,1,59,0,0
144278,-100,4,2,1,64,0,0
148068,-76.9230769230769,4,2,1,64,0,0
149015,-76.9230769230769,4,2,1,54,0,0
149331,-111.111111111111,4,2,1,59,0,0
151542,-90.9090909090908,4,2,1,59,0,0
151857,-111.111111111111,4,2,1,59,0,0
154068,-90.9090909090909,4,2,1,59,0,0
154383,-90.9090909090909,4,2,1,64,0,0
160700,-66.6666666666667,4,2,1,64,0,0
160857,-83.3333333333333,4,2,1,64,0,0
161015,-66.6666666666667,4,2,1,64,0,0
161173,-111.111111111111,4,2,1,64,0,0
161331,-111.111111111111,4,2,1,74,0,0
161647,-90.9090909090908,4,2,1,74,0,0
161963,-76.9230769230769,4,2,1,89,0,1
163857,-100,4,2,1,89,0,1
164173,-83.3333333333333,4,2,1,89,0,1
164489,-76.9230769230769,4,2,1,89,0,1
165279,-90.9090909090909,4,2,1,89,0,1
165594,-76.9230769230769,4,2,1,89,0,1
165910,-83.3333333333333,4,2,1,89,0,1
167015,-76.9230769230769,4,2,1,89,0,1
168910,-100,4,2,1,89,0,1
169700,-83.3333333333333,4,2,1,89,0,1
172857,-71.4285714285714,4,2,1,89,0,0
173173,-76.9230769230769,4,2,1,89,0,0
173489,-83.3333333333333,4,2,1,89,0,0
173805,-90.9090909090909,4,2,1,89,0,0
173963,-58.8235294117647,4,2,1,89,0,0
174121,-100,4,2,1,89,0,0
174594,-83.3333333333333,4,2,1,89,0,1
175700,-76.9230769230769,4,2,1,89,0,1
179371,-76.9230769230769,4,2,1,74,0,1
179411,-76.9230769230769,4,2,1,89,0,1
179450,-76.9230769230769,4,2,1,74,0,1
179490,-76.9230769230769,4,2,1,89,0,1
179529,-76.9230769230769,4,2,1,74,0,1
179569,-76.9230769230769,4,2,1,89,0,1
179608,-76.9230769230769,4,2,1,74,0,1
179647,-100,4,2,1,69,0,0
180594,-200,4,2,1,69,0,0
181542,-100,4,2,1,69,0,0
182647,-76.9230769230769,4,2,1,69,0,0
182963,-100,4,2,1,69,0,0
183121,-125,4,2,1,59,0,0
184700,-111.111111111111,4,2,1,59,0,0
186910,-71.4285714285714,4,2,1,59,0,0
187226,-125,4,2,1,59,0,0
191173,-83.3333333333333,4,2,1,59,0,0
191963,-142.857142857143,4,2,1,59,0,0
195910,-100,4,2,1,59,0,0
196068,-83.3333333333333,4,2,1,59,0,0
197331,-100,4,2,1,59,0,0
198910,-125,4,2,1,59,0,0
200805,-100,4,2,1,59,0,0
201436,-125,4,2,1,59,0,0
202068,-83.3333333333333,4,2,1,59,0,0
202700,-100,4,2,1,59,0,0
204910,-66.6666666666667,4,2,1,59,0,0
207437,-66.6666666666667,4,2,1,69,0,0
207515,-83.3333333333333,4,2,1,69,0,0
207752,-83.3333333333333,4,2,1,67,0,0
208068,-83.3333333333333,4,2,1,65,0,0
208384,-83.3333333333333,4,2,1,63,0,0
208700,-83.3333333333333,4,2,1,61,0,0
209015,-83.3333333333333,4,2,1,59,0,0
209331,-83.3333333333333,4,2,1,57,0,0
209647,-83.3333333333333,4,2,1,55,0,0
209963,-83.3333333333333,4,2,1,53,0,0
210279,-83.3333333333333,4,2,1,51,0,0
210594,-83.3333333333333,4,2,1,49,0,0
210910,-83.3333333333333,4,2,1,47,0,0
211226,-83.3333333333333,4,2,1,45,0,0
211542,-83.3333333333333,4,2,1,43,0,0
211858,-83.3333333333333,4,2,1,41,0,0
212173,-83.3333333333333,4,2,1,39,0,0
212489,-83.3333333333333,4,2,1,37,0,0
212805,-83.3333333333333,4,2,1,35,0,0
213121,-83.3333333333333,4,2,1,33,0,0
213437,-83.3333333333333,4,2,1,31,0,0
213752,-83.3333333333333,4,2,1,29,0,0
214068,-83.3333333333333,4,2,1,27,0,0
214384,-83.3333333333333,4,2,1,25,0,0
214700,-83.3333333333333,4,2,1,23,0,0
215016,-83.3333333333333,4,2,1,21,0,0
215331,-83.3333333333333,4,2,1,19,0,0
215647,-83.3333333333333,4,2,1,17,0,0
215963,-83.3333333333333,4,2,1,15,0,0
216279,-83.3333333333333,4,2,1,13,0,0
216595,-83.3333333333333,4,2,1,11,0,0
216910,-83.3333333333333,4,2,1,9,0,0
217226,-83.3333333333333,4,2,1,7,0,0
217542,-83.3333333333333,4,2,2,5,0,0

[Colours]
Combo1 : 254,92,238
Combo2 : 0,187,117
Combo3 : 0,145,44
Combo4 : 255,183,237

[HitObjects]
457,100,279,6,0,B|470:39|399:14|350:61|372:139|415:166|415:166|446:197|432:251|399:266|399:266|360:256,1,380,4|2,0:0|0:0,0:0:0:0:
245,167,1068,6,0,L|396:148,1,152,2|0,0:0|0:0,0:0:0:0:
442,278,1542,38,0,P|393:332|320:324,1,152,2|0,0:0|0:0,0:0:0:0:
192,356,2015,2,0,B|177:316|129:303|95:326|95:326|106:337,1,132.999995941162,2|0,0:0|0:0,0:0:0:0:
38,235,2489,2,0,B|13:284|13:284|52:260,1,99.7499969558717,2|0,0:0|0:0,0:0:0:0:
36,21,2805,6,0,B|18:93|66:146|80:92|133:145|113:215,1,227.999993041992,2|2,0:0|0:0,0:0:0:0:
13,383,3594,2,0,P|50:342|106:337,1,113.999996520996,2|0,0:0|0:0,0:0:0:0:
182,249,4068,38,0,P|231:291|296:291,1,132.999995941162,2|0,0:0|0:0,0:0:0:0:
437,363,4542,2,0,P|407:320|363:348,1,113.999996520996,2|0,0:0|0:0,0:0:0:0:
296,290,5015,2,0,P|325:266|336:231,1,76,2|0,0:0|0:0,0:0:0:0:
303,160,5331,5,4,0:0:0:0:
480,124,5489,2,0,B|496:89|496:89|439:100|439:100|433:151|380:166,1,190,2|0,0:0|0:0,0:0:0:0:
270,89,5963,37,2,0:0:0:0:
351,21,6121,2,0,P|370:53|361:89,2,76,2|0|0,0:0|0:0|0:0,0:0:0:0:
303,160,6594,5,2,0:0:0:0:
434,206,6752,2,0,P|415:174|379:165,1,76,2|0,0:0|0:0,0:0:0:0:
270,89,7068,38,0,P|206:103|165:154,1,132.999995941162,2|2,0:0|0:0,0:0:0:0:
55,71,7542,2,0,L|47:6,1,66.4999979705811,2|0,0:0|0:0,0:0:0:0:
59,10,7857,5,2,0:0:0:0:
8,134,8015,2,0,L|120:117,1,113.999996520996,2|0,0:0|0:0,0:0:0:0:
224,208,8489,37,2,0:0:0:0:
126,125,8647,2,0,L|133:64,2,56.9999982604981,2|0|0,0:0|0:0|0:0,0:0:0:0:
104,252,9121,5,8,0:3:0:0:
224,208,9279,37,8,3:3:0:0:
222,193,9357,1,8,3:3:0:0:
221,178,9436,1,4,3:3:0:0:
253,18,9594,5,4,3:3:0:0:
254,33,9673,1,4,3:3:0:0:
256,48,9751,37,0,3:3:0:0:
285,86,9831,1,0,3:0:0:0:
326,96,9910,1,8,3:3:0:0:
361,82,9989,1,8,3:3:0:0:
382,56,10068,5,4,3:3:0:0:
418,43,10147,1,4,3:3:0:0:
460,49,10226,1,0,3:0:0:0:
492,83,10305,1,0,3:0:0:0:
489,140,10384,38,0,L|394:151,1,95,6|0,3:1|0:0,0:0:0:0:
462,240,10700,2,0,P|483:281|468:325,1,95,8|4,0:1|0:3,0:0:0:0:
282,217,11015,2,0,L|376:228,1,95,0|2,3:0|0:0,0:0:0:0:
376,228,11252,1,2,0:0:0:0:
376,228,11331,1,8,0:1:0:0:
489,140,11489,1,0,0:0:0:0:
282,217,11647,5,2,3:0:0:0:
263,141,11805,1,0,0:0:0:0:
207,196,11963,1,8,0:1:0:0:
339,163,12121,1,4,0:0:0:0:
202,26,12279,38,0,L|188:120,1,95,0|2,3:0|0:3,0:0:0:0:
267,310,12594,2,0,L|282:217,1,95,8|0,0:1|0:0,0:0:0:0:
132,173,12910,5,0,3:0:0:0:
207,196,13068,1,0,0:0:0:0:
80,232,13226,2,0,P|55:192|60:145,1,95,8|2,0:1|0:0,0:0:0:0:
70,124,13463,1,2,0:0:0:0:
9,74,13542,38,0,L|103:85,1,95,2|0,3:2|0:0,0:0:0:0:
153,203,13857,2,0,P|157:249|133:289,1,95,8|2,0:1|0:0,0:0:0:0:
133,289,14094,1,2,0:0:0:0:
133,289,14173,5,2,3:0:0:0:
80,232,14331,1,0,0:0:0:0:
232,260,14489,1,8,0:1:0:0:
339,163,14647,1,4,0:0:0:0:
273,93,14805,38,0,L|261:188,1,95,0|2,3:0|0:3,0:0:0:0:
307,309,15042,1,4,0:3:0:0:
318,293,15121,2,0,P|322:269|320:246,1,47.5,8|0,0:1|0:0,0:0:0:0:
339,163,15279,2,0,P|357:178|378:187,1,47.5,2|0,0:0|0:0,0:0:0:0:
487,242,15436,6,0,P|440:243|399:267,1,95,6|0,0:1|0:0,0:0:0:0:
399,111,15752,2,0,L|493:123,1,95,8|4,0:1|0:3,0:0:0:0:
261,187,16068,2,0,P|214:186|173:162,1,95,0|2,3:0|0:0,0:0:0:0:
173,162,16305,1,2,0:0:0:0:
173,162,16384,1,8,0:1:0:0:
166,46,16542,2,0,L|157:93,1,47.5,2|0,0:0|0:0,0:0:0:0:
26,205,16700,37,2,3:3:0:0:
102,194,16857,1,0,0:0:0:0:
73,264,17015,1,8,0:1:0:0:
55,134,17173,1,4,0:0:0:0:
149,253,17331,6,0,B|163:299|163:299|140:340,1,95,0|2,3:0|0:3,0:0:0:0:
26,205,17647,2,0,L|45:112,1,95,8|0,0:1|0:0,0:0:0:0:
140,302,17963,38,0,P|83:341|18:318,1,142.5,0|0,3:0|0:0,0:0:0:0:
73,264,18279,1,8,0:1:0:0:
214,322,18436,1,2,0:0:0:0:
233,308,18515,1,2,0:0:0:0:
256,307,18594,1,0,3:0:0:0:
309,363,18752,5,0,0:0:0:0:
140,339,18910,1,8,0:1:0:0:
245,204,19068,1,0,0:0:0:0:
233,308,19226,37,4,3:0:0:0:
73,264,19384,1,8,0:3:0:0:
309,363,19542,1,8,0:1:0:0:
277,110,19700,1,6,3:1:0:0:
182,249,19857,5,0,3:2:0:0:
205,247,19936,1,0,3:2:0:0:
228,245,20015,1,0,3:0:0:0:
251,243,20094,1,0,3:3:0:0:
322,269,20173,38,0,B|354:173|354:173|377:238,1,170.999994781494,6|0,0:0|0:0,0:0:0:0:
403,351,20489,6,0,L|309:363,1,95,6|2,0:1|0:3,0:0:0:0:
182,249,20805,2,0,P|123:212|55:239,1,142.5,8|0,0:1|0:0,0:0:0:0:
55,248,21121,1,0,3:0:0:0:
183,264,21279,1,2,0:3:0:0:
5,307,21436,1,8,3:1:0:0:
107,189,21594,38,0,L|93:95,1,95,2|0,0:3|3:0,0:0:0:0:
261,252,21910,1,2,0:3:0:0:
259,270,21989,1,2,0:0:0:0:
258,288,22068,1,8,0:1:0:0:
184,187,22226,6,0,L|189:134,1,47.5,2|0,0:3|0:0,0:0:0:0:
55,248,22384,2,0,L|69:342,1,95,0|2,3:0|0:3,0:0:0:0:
261,252,22700,38,0,L|270:157,1,95,8|2,0:1|0:3,0:0:0:0:
381,261,23015,2,0,B|402:302|369:340|330:335|330:335|308:313,1,142.5,0|0,3:0|0:0,0:0:0:0:
390,250,23331,6,0,B|466:256|466:256|479:268,1,95,8|2,0:1|0:3,0:0:0:0:
228,356,23647,2,0,L|237:261,1,95,0|2,3:0|0:3,0:0:0:0:
237,261,23884,1,2,0:0:0:0:
237,261,23963,1,8,0:1:0:0:
150,146,24121,1,2,0:3:0:0:
47,267,24279,38,0,P|100:224|168:237,1,142.5,0|0,3:0|0:0,0:0:0:0:
169,364,24594,2,0,P|128:345|120:300,1,95,8|2,0:1|0:3,0:0:0:0:
34,234,24910,5,2,3:2:0:0:
44,249,24989,1,2,0:0:0:0:
47,267,25068,1,2,0:3:0:0:
0,380,25226,1,8,0:1:0:0:
119,300,25384,1,2,0:3:0:0:
12,158,25542,38,0,L|35:15,1,142.5,6|0,3:1|0:0,0:0:0:0:
134,206,25857,2,0,L|119:300,1,95,8|2,0:1|0:3,0:0:0:0:
88,142,26173,5,0,3:0:0:0:
210,193,26331,1,2,0:3:0:0:
34,234,26489,1,8,0:1:0:0:
195,308,26647,38,0,L|210:215,1,95,2|0,0:3|3:0,0:0:0:0:
162,91,26963,1,2,0:3:0:0:
165,109,27042,1,2,0:0:0:0:
168,127,27121,1,8,0:1:0:0:
286,234,27279,6,0,L|281:187,1,47.5,2|0,0:3|0:0,0:0:0:0:
243,118,27436,38,0,P|265:107|275:87,1,47.5,0|0,3:0|0:0,0:0:0:0:
288,103,27594,2,0,P|285:79|269:62,1,47.5,2|0,0:3|0:0,0:0:0:0:
321,6,27752,2,0,P|351:43|362:89,1,95,8|6,0:1|0:3,0:0:0:0:
421,198,28068,6,0,L|280:186,1,142.5,0|0,3:0|0:0,0:0:0:0:
362,89,28384,1,8,0:1:0:0:
437,215,28542,38,0,L|389:221,1,47.5,2|0,0:3|0:0,0:0:0:0:
286,234,28700,5,0,3:0:0:0:
396,301,28857,1,2,0:3:0:0:
321,354,29015,2,0,B|320:263|359:318|365:223,1,142.5,8|0,0:1|0:0,0:0:0:0:
286,141,29331,38,0,B|276:162|276:162|286:234,1,95,0|2,3:0|0:3,0:0:0:0:
460,130,29647,1,8,3:1:0:0:
463,116,29726,1,0,3:0:0:0:
466,102,29805,1,2,3:3:0:0:
468,87,29884,1,0,3:0:0:0:
404,43,29963,6,0,B|380:28|345:33|345:33|306:65|324:115|324:115|349:137|381:135,1,213.750008153916,12|0,0:1|0:0,0:0:0:0:
388,210,30279,2,0,B|334:212|293:188|293:188|313:237,1,142.500005435944,12|0,0:1|0:0,0:0:0:0:
213,120,30594,38,0,B|223:99|223:99|213:27,1,95,6|2,3:1|0:3,0:0:0:0:
108,192,30910,2,0,B|82:225|88:270|130:290|130:290|156:268,1,142.5,8|0,0:1|0:0,0:0:0:0:
158,262,31226,5,0,3:0:0:0:
56,134,31384,1,2,0:3:0:0:
233,247,31542,1,8,0:1:0:0:
67,359,31700,38,0,L|81:265,1,95,2|0,0:3|3:0,0:0:0:0:
204,130,32015,1,2,0:3:0:0:
201,154,32094,1,2,0:0:0:0:
198,178,32172,1,8,0:1:0:0:
166,308,32331,6,0,L|158:262,1,47.5,2|0,0:3|0:0,0:0:0:0:
56,134,32489,2,0,L|69:39,1,95,0|2,3:0|0:3,0:0:0:0:
233,247,32805,38,0,L|219:341,1,95,8|2,0:1|0:3,0:0:0:0:
198,178,33042,1,2,0:0:0:0:
245,255,33121,6,0,P|313:257|357:204,1,142.5,2|0,3:2|0:0,0:0:0:0:
401,288,33436,2,0,P|365:258|319:253,1,95,8|2,3:1|0:3,0:0:0:0:
423,98,33752,2,0,L|433:193,1,95,0|2,3:0|0:3,0:0:0:0:
433,193,33989,1,2,0:0:0:0:
433,193,34068,1,8,0:1:0:0:
282,186,34226,1,2,0:3:0:0:
337,329,34384,37,0,3:0:0:0:
357,203,34542,1,2,0:3:0:0:
322,340,34700,2,0,L|227:349,1,95,8|2,0:1|0:3,0:0:0:0:
198,178,34936,1,2,0:0:0:0:
195,164,35015,2,0,L|100:154,1,95,2|2,3:2|0:3,0:0:0:0:
19,326,35331,6,0,L|66:320,1,47.5,8|0,0:1|0:0,0:0:0:0:
113,316,35489,2,0,L|161:311,1,47.5,2|0,0:3|0:0,0:0:0:0:
238,247,35647,38,0,P|277:190|255:125,1,142.5,6|0,3:1|0:0,0:0:0:0:
142,57,35963,2,0,L|47:67,1,95,8|2,0:1|0:3,0:0:0:0:
2,146,36279,5,0,3:0:0:0:
152,65,36436,1,2,0:3:0:0:
0,8,36594,1,8,0:1:0:0:
103,168,36752,38,0,L|198:178,1,95,2|0,0:3|3:0,0:0:0:0:
315,68,37068,1,2,0:3:0:0:
313,53,37147,1,2,0:0:0:0:
311,38,37226,1,8,0:1:0:0:
189,130,37384,6,0,L|197:177,1,47.5,2|0,0:3|0:0,0:0:0:0:
304,240,37542,38,0,P|287:224|264:216,1,47.5,0|0,3:0|0:0,0:0:0:0:
321,258,37700,2,0,P|326:234|321:211,1,47.5,2|0,0:3|0:0,0:0:0:0:
389,185,37857,2,0,P|400:231|392:278,1,95,8|2,0:1|0:3,0:0:0:0:
160,311,38173,5,6,3:1:0:0:
321,258,38331,1,6,0:3:0:0:
392,277,38489,37,8,0:1:0:0:
187,229,38647,1,2,0:3:0:0:
331,78,38805,2,0,B|343:184,1,95,0|6,3:0|0:3,0:0:0:0:
341,172,39042,1,0,3:0:0:0:
341,172,39121,1,12,0:1:0:0:
165,358,39279,2,0,L|160:311,1,47.5,10|4,3:0|0:3,0:0:0:0:
160,25,39436,5,6,3:1:0:0:
167,48,39515,1,0,3:0:0:0:
163,72,39594,1,2,3:3:0:0:
148,91,39673,1,0,3:0:0:0:
98,93,39752,37,0,3:3:0:0:
135,123,39831,1,0,3:3:0:0:
136,171,39910,1,2,3:3:0:0:
111,212,39989,1,0,3:3:0:0:
54,220,40068,6,0,L|48:196,6,23.75,0|0|0|0|2|0|0,3:0|3:0|3:0|3:0|3:0|3:0|3:0,3:0:0:0:
160,311,40384,38,0,L|182:302,1,23.75,0|0,3:0|3:0,3:0:0:0:
183,314,40463,2,0,L|205:305,1,23.75,0|0,3:0|3:0,0:0:0:0:
206,317,40541,2,0,L|228:308,1,23.75,2|0,3:0|3:0,0:0:0:0:
229,320,40620,2,0,L|251:311,1,23.75,0|0,3:0|0:0,0:0:0:0:
288,243,40700,6,0,L|302:370,1,128.249996086121,4|0,3:2|0:0,0:0:0:0:
302,370,41015,1,2,0:0:0:0:
457,310,41173,2,0,L|372:302,1,85.4999973907472,2|0,0:0|0:0,0:0:0:0:
283,235,41489,37,2,0:0:0:0:
393,187,41647,1,0,0:0:0:0:
466,322,41805,2,0,L|380:313,1,85.4999973907472,2|0,0:0|0:0,0:0:0:0:
316,164,42121,5,2,0:0:0:0:
393,187,42279,1,0,0:0:0:0:
240,146,42436,2,0,P|296:87|374:112,1,170.999994781494,2|2,0:0|0:0,0:0:0:0:
441,49,42910,38,0,P|367:62|315:7,1,156.750004783631,8|0,0:1|0:0,0:0:0:0:
240,146,43226,6,0,L|112:156,1,128.249996086121,4|0,3:2|0:0,0:0:0:0:
112,155,43542,1,2,0:0:0:0:
24,93,43700,2,0,P|50:60|49:18,1,85.4999973907472,2|0,0:0|0:0,0:0:0:0:
168,35,44015,37,2,0:0:0:0:
112,155,44173,1,0,0:0:0:0:
15,13,44331,2,0,L|29:140,1,128.249996086121,2|0,0:0|0:0,0:0:0:0:
86,229,44647,6,0,P|113:196|112:155,1,85.4999973907472,2|0,0:0|0:0,0:0:0:0:
137,321,44963,2,0,P|90:280|28:281,1,128.249996086121,2|0,0:0|0:0,0:0:0:0:
2,311,45279,2,0,P|18:297|38:290,1,42.7499986953736,0|0,3:0|0:0,0:0:0:0:
164,233,45436,38,0,L|332:245,1,156.750004783631,8|0,0:1|0:0,0:0:0:0:
369,304,45752,5,4,3:1:0:0:
428,192,45910,2,0,L|412:98,1,95,2|8,0:3|0:1,0:0:0:0:
362,312,46226,1,2,0:3:0:0:
365,330,46305,1,2,0:0:0:0:
368,348,46384,1,2,3:2:0:0:
447,293,46542,37,2,0:3:0:0:
320,244,46700,1,8,0:1:0:0:
210,349,46857,1,2,0:3:0:0:
30,255,47015,6,0,L|125:263,1,95,0|2,3:0|0:3,0:0:0:0:
210,349,47331,2,0,P|193:332|187:309,1,47.5,8|0,0:1|0:0,0:0:0:0:
269,135,47489,2,0,P|324:175|320:244,1,142.5,2|0,0:3|0:0,0:0:0:0:
306,260,47805,1,2,0:3:0:0:
164,187,47963,2,0,L|69:179,1,95,8|2,0:1|0:3,0:0:0:0:
174,196,48279,37,6,3:2:0:0:
269,135,48436,6,0,L|271:158,1,23.75,2|0,3:3|0:0,0:0:0:0:
340,125,48515,2,0,L|342:148,1,23.75,2|0,3:2|0:0,0:0:0:0:
420,145,48594,38,0,L|412:98,1,47.5,8|0,0:1|3:0,0:0:0:0:
319,1,48752,5,2,3:3:0:0:
319,1,48831,1,0,3:0:0:0:
319,1,48910,2,0,L|327:48,1,47.5,4|2,3:0|3:2,0:0:0:0:
426,117,49068,2,0,L|418:164,1,47.5,2|2,3:0|3:2,0:0:0:0:
306,260,49226,37,12,0:1:0:0:
350,244,49305,1,0,3:0:0:0:
391,254,49384,1,2,3:0:0:0:
413,284,49463,1,0,3:0:0:0:
419,315,49542,6,0,L|485:324,1,61.7499971733095,4|0,3:2|0:0,0:0:0:0:
418,163,49700,2,0,L|356:155,1,61.7499971733095,2|0,3:0|0:0,0:0:0:0:
256,336,49857,38,0,L|317:343,1,61.7499971733095,8|0,3:1|0:0,0:0:0:0:
244,112,50015,2,0,L|182:104,1,61.7499971733095,2|0,3:0|0:0,0:0:0:0:
67,309,50173,6,0,L|55:280,1,30.8749985866547,0|0,3:0|3:0,3:0:0:0:
108,304,50252,2,0,L|96:275,1,30.8749985866547,0|0,3:0|3:0,0:0:0:0:
149,299,50331,2,0,L|137:270,1,30.8749985866547,2|0,3:0|3:0,0:0:0:0:
190,295,50410,2,0,L|178:266,1,30.8749985866547,0|0,3:0|3:0,0:0:0:0:
256,336,50489,38,0,L|257:355,14,15.4374992933274,0|0|0|0|0|0|0|0|0|0|0|0|0|0|0,3:0|3:0|3:0|3:0|3:0|3:0|3:0|3:0|3:0|3:0|3:0|3:0|3:0|3:0|3:0,3:0:0:0:
322,295,50805,6,0,B|314:235|314:235|278:209|278:209|270:143,1,170.999994781494,4|2,3:2|0:0,0:0:0:0:
365,42,51279,2,0,L|374:128,1,85.4999973907472,2|0,0:0|0:0,0:0:0:0:
411,237,51594,37,2,0:0:0:0:
270,143,51752,1,0,0:0:0:0:
374,30,51910,2,0,L|383:116,1,85.4999973907472,2|0,0:0|0:0,0:0:0:0:
469,185,52226,6,0,L|460:99,1,85.4999973907472,2|0,0:0|0:0,0:0:0:0:
332,175,52542,2,0,L|320:302,1,128.249996086121,2|0,0:0|0:0,0:0:0:0:
320,302,52857,1,0,3:0:0:0:
411,237,53015,1,8,0:1:0:0:
263,140,53173,1,2,0:0:0:0:
237,346,53331,38,0,P|177:288|96:303,1,170.999994781494,4|2,3:2|0:0,0:0:0:0:
23,183,53805,2,0,P|56:210|98:216,1,85.4999973907472,2|0,0:0|0:0,0:0:0:0:
96,303,54121,5,2,0:0:0:0:
146,155,54279,1,0,0:0:0:0:
16,192,54436,2,0,P|48:218|90:224,1,85.4999973907472,2|0,0:0|0:0,0:0:0:0:
163,71,54752,38,0,L|146:155,1,85.4999973907472,2|0,0:0|0:0,0:0:0:0:
230,318,55068,2,0,L|256:192,1,128.249996086121,2|0,0:0|0:0,0:0:0:0:
255,192,55384,1,2,3:0:0:0:
475,254,55542,6,0,B|400:283|399:209|325:237,1,156.750004783631,8|0,0:1|0:0,0:0:0:0:
444,183,55857,38,0,P|463:135|446:87,1,104.500003189087,4|2,3:1|0:3,0:0:0:0:
375,56,56094,2,0,P|349:51|324:57,1,52.2500015945435,2|8,0:0|0:1,0:0:0:0:
255,192,56331,5,2,0:3:0:0:
350,312,56489,2,0,L|453:297,1,104.500003189087,0|2,3:0|0:3,0:0:0:0:
334,170,56805,2,0,P|279:118|203:133,1,156.750004783631,8|0,0:1|0:0,0:0:0:0:
184,223,57121,38,0,L|80:237,1,104.500003189087,0|2,3:0|0:3,0:0:0:0:
80,237,57357,1,2,0:0:0:0:
80,237,57436,1,8,0:1:0:0:
139,89,57594,5,2,0:3:0:0:
255,192,57752,2,0,L|151:206,1,104.500003189087,0|2,3:0|0:3,0:0:0:0:
3,67,58068,2,0,B|26:50|26:50|72:50|105:94|82:140,1,156.750004783631,8|0,0:1|0:0,0:0:0:0:
151,205,58384,37,0,3:0:0:0:
203,44,58542,1,2,0:3:0:0:
63,133,58700,2,0,L|80:236,1,104.500003189087,8|2,0:1|0:3,0:0:0:0:
80,236,58936,1,0,0:0:0:0:
80,236,59015,1,0,3:3:0:0:
207,288,59173,5,2,0:3:0:0:
79,236,59331,1,8,0:1:0:0:
4,348,59489,1,2,0:3:0:0:
228,364,59647,38,0,P|281:311|266:237,1,156.750004783631,0|0,3:3|0:0,0:0:0:0:
109,141,59963,2,0,B|89:159|89:159|78:236,1,104.500003189087,8|2,0:1|0:3,0:0:0:0:
207,288,60279,1,0,3:0:0:0:
237,109,60436,1,2,0:3:0:0:
277,253,60594,5,8,0:1:0:0:
320,234,60673,1,2,0:0:0:0:
361,241,60752,1,2,0:0:0:0:
389,264,60831,1,2,0:0:0:0:
399,293,60910,37,4,3:2:0:0:
270,331,61068,1,2,3:0:0:0:
173,216,61226,5,8,3:1:0:0:
344,349,61384,1,2,3:0:0:0:
342,359,61463,1,0,3:0:0:0:
340,369,61542,1,0,3:2:0:0:
477,284,61700,37,2,3:0:0:0:
270,331,61857,1,8,3:1:0:0:
341,138,62015,1,2,3:0:0:0:
339,128,62094,1,0,3:0:0:0:
337,118,62173,6,0,L|324:48,1,71.2500027179719,4|0,3:0|0:0,0:0:0:0:
416,118,62331,38,0,P|419:146|410:173,1,56.9999982604981,2|0,3:0|0:0,0:0:0:0:
260,124,62489,6,0,L|247:54,1,71.2500027179719,8|0,3:1|0:0,0:0:0:0:
410,173,62647,38,0,P|361:212|300:203,1,128.249996086121,2|0,3:2|0:0,0:0:0:0:
260,124,62963,1,0,3:0:0:0:
437,44,63121,6,0,B|488:31|488:31|468:57,1,85.4999973907472,6|2,0:0|0:0,0:0:0:0:
463,245,63436,6,0,P|389:192|299:202,1,185.249991519928,6|0,3:1|0:0,0:0:0:0:
231,164,63752,1,8,0:1:0:0:
397,283,63910,1,4,0:3:0:0:
372,266,63989,1,0,3:0:0:0:
341,267,64067,1,8,3:3:0:0:
220,362,64226,6,0,B|228:309|228:309|223:298|223:298|233:241,1,123.499994346619,2|8,0:3|0:1,0:0:0:0:
392,76,64542,2,0,B|402:133|402:133|397:144|397:144|405:198,1,123.499994346619,2|0,0:3|3:0,0:0:0:0:
341,267,64857,37,2,0:3:0:0:
231,164,65015,1,8,0:1:0:0:
60,192,65173,1,8,0:3:0:0:
138,241,65331,6,0,L|155:148,1,95,4|4,3:0|0:3,0:0:0:0:
58,0,65647,2,0,P|20:69|82:118,1,170.999994781494,8|0,0:1|0:0,0:0:0:0:
145,71,65963,37,0,3:0:0:0:
52,204,66121,2,0,L|72:325,1,123.499994346619,2|8,0:3|0:1,0:0:0:0:
222,225,66436,5,4,0:3:0:0:
226,194,66514,1,0,3:0:0:0:
231,164,66593,1,8,3:3:0:0:
145,270,66752,2,0,L|162:372,1,104.500003189087,2|8,0:3|0:1,0:0:0:0:
309,189,67068,38,0,B|323:130|277:92|277:92|291:14,1,185.249991519928,2|0,0:3|0:0,0:0:0:0:
231,164,67384,1,2,0:3:0:0:
379,102,67542,1,8,0:1:0:0:
283,22,67700,1,10,0:3:0:0:
453,81,67857,6,0,P|458:30|408:29,1,113.999996520996,4|4,3:3|0:3,0:0:0:0:
309,189,68173,2,0,B|394:159|391:250|485:206,1,170.999994781494,8|0,0:1|0:0,0:0:0:0:
341,261,68489,38,0,B|303:285|295:332|333:359|333:359|374:354|369:314,1,185.249991519928,6|0,3:1|0:0,0:0:0:0:
512,350,68805,2,0,L|450:340,1,61.7499971733095,8|0,0:1|0:0,0:0:0:0:
430,323,68963,2,0,L|369:314,1,61.7499971733095,4|0,0:3|0:0,0:0:0:0:
233,288,69121,6,0,L|172:279,1,61.7499971733095,8|0,3:3|0:0,0:0:0:0:
20,263,69279,38,0,B|-9:315|38:348|38:348|57:330,1,123.499994346619,2|8,0:3|0:1,0:0:0:0:
149,206,69594,2,0,B|118:155|66:179|66:179|72:205,1,123.499994346619,2|0,0:3|3:0,0:0:0:0:
133,346,69910,5,10,0:3:0:0:
172,279,70068,1,8,0:1:0:0:
14,127,70226,1,8,0:3:0:0:
149,206,70384,38,0,L|162:111,1,95,4|4,3:3|0:3,0:0:0:0:
283,22,70700,2,0,L|269:116,1,95,8|2,0:1|0:0,0:0:0:0:
275,124,70936,1,2,0:0:0:0:
278,132,71015,1,2,3:2:0:0:
455,125,71173,6,0,B|406:96|406:96|350:108,1,113.999996520996,2|8,0:3|0:1,0:0:0:0:
156,149,71489,2,0,L|149:206,2,56.9999982604981,4|0|0,0:3|0:0|3:0,0:0:0:0:
332,324,71805,2,0,L|340:268,1,56.9999982604981,2|0,0:3|0:0,0:0:0:0:
392,177,71963,38,0,L|252:206,1,142.5,8|0,0:1|0:0,0:0:0:0:
416,252,72279,5,6,3:1:0:0:
275,124,72436,1,2,0:0:0:0:
235,311,72594,1,8,0:1:0:0:
431,383,72752,38,0,L|439:327,1,56.9999982604981,2|2,3:3|3:2,0:0:0:0:
339,76,72910,5,4,3:3:0:0:
309,52,72988,1,4,3:0:0:0:
271,44,73067,1,6,3:3:0:0:
236,53,73146,1,4,3:0:0:0:
198,122,73226,37,8,3:1:0:0:
175,120,73305,1,8,3:0:0:0:
152,117,73384,1,2,3:3:0:0:
129,115,73463,1,8,3:0:0:0:
63,73,73542,6,0,P|49:97|52:125,1,56.9999982604981,0|0,3:0|0:0,0:0:0:0:
195,225,73700,1,6,3:0:0:0:
173,206,73779,1,4,3:0:0:0:
133,204,73857,38,0,L|77:199,1,56.9999982604981,6|0,3:1|0:0,0:0:0:0:
112,294,74015,6,0,L|169:300,1,56.9999982604981,6|0,0:3|0:0,0:0:0:0:
292,163,74173,38,0,L|236:158,1,56.9999982604981,10|0,0:3|0:0,0:0:0:0:
38,276,74331,22,0,P|72:362|166:350,1,199.499993911743,2|0,3:1|0:0,0:0:0:0:
292,163,74647,6,0,B|310:114|276:65|213:78|213:78|233:117,1,185.249991519928,2|0,3:1|0:0,0:0:0:0:
253,278,74963,38,0,B|274:249|321:240|352:271|352:271|384:286|410:272,1,170.999994781494,2|0,3:1|0:0,0:0:0:0:
481,203,75279,6,0,L|429:199,1,52.2500015945435,10|0,0:1|0:0,0:0:0:0:
332,296,75436,38,0,B|321:334|321:334|342:368,1,80.750001540184,2|0,3:0|0:0,0:0:0:0:
429,199,75594,5,8,3:3:0:0:
432,180,75672,1,8,3:3:0:0:
436,161,75751,1,4,3:3:0:0:
440,143,75830,1,4,3:3:0:0:
444,124,75909,1,0,3:0:0:0:
448,106,75988,1,0,3:0:0:0:
405,27,76068,6,0,B|372:42|372:42|354:117,1,113.999996520996,6|0,3:1|0:0,0:0:0:0:
408,272,76384,1,8,0:1:0:0:
292,163,76542,1,4,0:3:0:0:
448,106,76700,1,8,3:3:0:0:
363,194,76857,6,0,L|269:208,1,95,2|8,0:3|0:1,0:0:0:0:
50,99,77173,2,0,B|143:67|133:161|222:127,1,185.249991519928,2|0,0:3|0:0,0:0:0:0:
248,0,77489,38,0,B|226:-16|226:-16|184:-10|176:29|189:57,1,123.499994346619,2|8,0:3|0:1,0:0:0:0:
67,224,77805,2,0,P|81:197|82:167,1,61.7499971733095,10|0,0:3|0:0,0:0:0:0:
188,56,77963,5,4,3:0:0:0:
198,85,78042,1,0,3:0:0:0:
234,107,78121,1,4,0:3:0:0:
82,167,78279,2,0,P|56:112|-1:94,1,123.499994346619,8|0,0:1|0:0,0:0:0:0:
30,344,78594,38,0,B|44:366|44:366|99:380|148:330|130:270,1,185.249991519928,6|0,3:1|0:0,0:0:0:0:
82,167,78910,1,8,0:1:0:0:
179,331,79068,1,4,0:3:0:0:
20,266,79226,1,8,3:3:0:0:
120,98,79384,5,2,0:3:0:0:
123,79,79463,1,2,0:0:0:0:
127,60,79542,1,8,0:1:0:0:
209,305,79700,2,0,L|198:365,1,61.7499971733095,2|0,0:3|0:0,0:0:0:0:
253,241,79857,37,4,3:1:0:0:
283,233,79936,1,0,3:0:0:0:
313,238,80015,1,0,3:0:0:0:
337,256,80094,1,0,3:0:0:0:
348,284,80173,1,8,3:1:0:0:
360,312,80252,1,0,3:0:0:0:
384,330,80331,1,8,3:0:0:0:
414,336,80410,1,0,3:0:0:0:
443,327,80489,5,4,3:3:0:0:
474,297,80568,1,4,3:3:0:0:
474,253,80647,1,4,3:3:0:0:
445,220,80726,1,4,3:3:0:0:
375,188,80805,38,0,P|360:183|349:172,1,30.8749985866547,8|0,3:3|3:0,0:0:0:0:
352,137,80884,2,0,P|343:123|342:108,1,30.8749985866547,8|0,3:3|3:0,0:0:0:0:
361,82,80963,2,0,P|363:66|372:54,1,30.8749985866547,8|0,3:3|3:0,0:0:0:0:
409,54,81041,2,0,P|420:43|435:39,1,30.8749985866547,8|0,3:3|3:0,0:0:0:0:
456,91,81121,22,0,L|361:82,1,95,6|2,3:2|0:0,0:0:0:0:
268,21,81436,2,0,L|276:68,1,47.5,2|0,0:3|0:0,0:0:0:0:
299,231,81594,6,0,P|239:195|170:206,1,142.5,4|0,3:2|0:0,0:0:0:0:
87,178,81910,2,0,L|95:225,1,47.5,2|0,0:0|0:0,0:0:0:0:
145,377,82068,38,0,B|185:390|185:390|242:379|264:324|235:276,1,190,4|0,3:2|0:0,0:0:0:0:
170,205,82857,5,2,0:0:0:0:
88,253,83015,2,0,L|69:159,1,95,2|0,0:0|0:0,0:0:0:0:
167,83,83331,37,8,3:3:0:0:
165,98,83409,1,8,3:3:0:0:
163,114,83488,1,4,3:3:0:0:
162,130,83567,1,4,3:3:0:0:
170,205,83647,6,0,P|220:196|252:153,1,95,4|2,3:2|0:0,0:0:0:0:
284,54,83963,2,0,P|281:77|291:99,1,47.5,2|0,0:0|0:0,0:0:0:0:
464,264,84121,38,0,P|398:203|309:212,1,185.249991519928,4|0,3:2|0:0,0:0:0:0:
393,294,84436,2,0,P|377:276|354:276,1,47.5,2|0,0:0|0:0,0:0:0:0:
57,360,84594,6,0,B|100:336|116:266|77:227|77:227|15:204|3:147|58:97|58:97|95:153|165:168|234:131|233:35|233:35|158:9|141:51,1,683.999979125977,4|0,3:2|0:0,0:0:0:0:
58,97,86173,38,0,P|45:56|54:15,1,85.4999973907472,4|0,3:2|0:0,0:0:0:0:
196,126,86489,2,0,L|179:260,1,128.249996086121,0|0,3:0|0:0,0:0:0:0:
191,267,86805,6,0,L|275:256,1,85.4999973907472,0|0,3:0|0:0,0:0:0:0:
433,218,87121,2,0,P|382:181|321:192,1,128.249996086121,0|0,3:0|0:0,0:0:0:0:
275,256,87436,38,0,P|266:297|285:334,1,85.4999973907472,0|0,3:0|0:0,0:0:0:0:
396,375,87752,2,0,L|406:291,1,85.4999973907472,0|0,3:0|0:0,0:0:0:0:
401,102,88068,5,8,3:3:0:0:
406,50,88147,1,8,3:3:0:0:
456,40,88226,1,8,3:3:0:0:
482,84,88305,1,8,3:3:0:0:
447,122,88384,38,0,B|407:143|355:129|334:89|334:89|341:130|311:159,1,199.499993911743,4|4,3:3|3:3,0:0:0:0:
258,102,88700,6,0,L|106:88,1,152,4|2,3:1|0:0,0:0:0:0:
106,88,89173,1,0,3:0:0:0:
3,222,89331,2,0,P|60:175|132:192,1,152,8|2,0:1|0:0,0:0:0:0:
41,144,89805,37,2,0:0:0:0:
146,210,89963,2,0,L|136:285,1,76,2|2,3:2|0:0,0:0:0:0:
172,355,90200,1,2,0:0:0:0:
159,357,90278,1,2,0:0:0:0:
147,360,90357,1,2,0:0:0:0:
135,363,90436,1,2,3:2:0:0:
226,299,90594,6,0,L|301:306,1,76,8|2,0:1|0:0,0:0:0:0:
301,306,90831,1,2,0:0:0:0:
301,306,90910,1,2,0:0:0:0:
172,355,91068,1,2,0:0:0:0:
369,368,91226,38,0,P|385:280|309:233,1,190,2|0,3:2|0:0,0:0:0:0:
309,233,91700,1,0,3:0:0:0:
430,95,91857,2,0,B|385:123|399:181|434:198|434:198|460:192,1,152,8|2,0:1|0:0,0:0:0:0:
460,192,92331,1,2,0:0:0:0:
429,86,92489,5,2,3:2:0:0:
256,112,92647,2,0,B|241:45|241:45|277:71,1,113.999996520996,8|2,0:1|0:0,0:0:0:0:
256,124,92963,37,2,3:2:0:0:
83,86,93121,2,0,B|98:19|98:19|61:45,1,113.999996520996,8|2,0:1|0:0,0:0:0:0:
52,52,93357,1,2,0:0:0:0:
47,56,93436,6,0,L|56:121,1,66.4999979705811,2|0,0:0|0:0,0:0:0:0:
117,244,93752,38,0,B|33:231|33:231|59:271,1,132.999995941162,4|2,3:1|0:0,0:0:0:0:
59,271,94226,1,2,3:2:0:0:
177,334,94384,2,0,B|201:310|201:310|188:212,1,132.999995941162,8|0,0:1|0:0,0:0:0:0:
188,212,94857,1,2,0:0:0:0:
256,364,95015,5,2,3:2:0:0:
325,293,95173,2,0,L|391:285,1,66.4999979705811,2|2,0:0|0:0,0:0:0:0:
391,285,95489,1,2,3:2:0:0:
219,143,95647,2,0,L|285:135,1,66.4999979705811,8|2,0:1|0:0,0:0:0:0:
435,164,95963,37,2,0:0:0:0:
260,213,96121,1,2,0:0:0:0:
285,135,96279,6,0,L|291:35,1,99.7499969558717,2|0,3:2|0:0,0:0:0:0:
361,0,96594,2,0,P|375:28|367:60,1,66.4999979705811,2|2,0:0|3:2,0:0:0:0:
357,172,96910,2,0,P|306:212|241:204,1,132.999995941162,8|2,0:1|0:0,0:0:0:0:
241,204,97384,1,2,0:0:0:0:
285,135,97542,38,0,L|278:102,1,33.2499989852906,2|0,3:2|0:0,0:0:0:0:
163,67,97700,5,8,0:1:0:0:
115,87,97779,1,2,0:0:0:0:
100,135,97857,1,2,0:0:0:0:
119,182,97936,1,2,0:0:0:0:
164,205,98015,37,2,3:2:0:0:
175,243,98094,1,2,0:0:0:0:
158,279,98173,1,8,0:1:0:0:
121,295,98252,1,2,0:0:0:0:
81,291,98331,6,0,P|58:271|49:238,1,56.9999982604981,2|2,0:0|0:0,0:0:0:0:
176,355,98489,37,2,3:2:0:0:
194,350,98567,1,2,0:0:0:0:
210,339,98646,1,2,0:0:0:0:
223,325,98725,1,2,0:0:0:0:
252,254,98805,6,0,P|298:307|281:375,1,142.5,4|0,3:1|0:0,0:0:0:0:
319,303,99121,2,0,L|413:313,1,95,8|0,0:1|0:0,0:0:0:0:
510,233,99436,2,0,L|416:223,1,95,8|0,0:1|0:0,0:0:0:0:
443,16,99752,37,8,0:1:0:0:
495,74,99910,2,0,B|524:122|476:155|476:155|419:149|422:91,1,190,2|0,0:0|0:0,0:0:0:0:
288,208,100384,5,8,0:1:0:0:
361,167,100542,2,0,P|298:127|228:148,1,152,2|0,0:0|0:0,0:0:0:0:
110,117,101015,37,8,0:1:0:0:
228,148,101173,1,2,3:2:0:0:
196,31,101331,2,0,L|120:23,1,76,12|0,0:1|0:0,0:0:0:0:
36,142,101647,5,8,0:1:0:0:
110,117,101805,2,0,B|124:161|96:209|53:214|53:214|38:195,1,152,2|0,0:0|0:0,0:0:0:0:
173,241,102279,37,8,0:1:0:0:
38,195,102436,2,0,P|123:168|173:241,1,190,2|0,0:0|0:0,0:0:0:0:
67,335,102910,5,8,0:1:0:0:
164,256,103068,2,0,L|296:242,1,132.999995941162,2|2,0:0|0:0,0:0:0:0:
405,199,103542,38,0,P|381:186|353:188,1,56.9999982604981,8|0,0:1|0:0,0:0:0:0:
306,320,103700,1,0,3:0:0:0:
343,351,103779,1,0,3:0:0:0:
376,343,103857,6,0,P|435:288|411:211,1,170.999994781494,12|0,0:1|0:0,0:0:0:0:
405,199,104173,38,0,P|408:152|443:121,1,95,8|0,0:1|0:0,0:0:0:0:
327,56,104489,6,0,P|323:102|288:133,1,95,8|2,0:1|0:0,0:0:0:0:
273,148,104726,2,0,P|249:151|226:144,1,47.5,2|8,0:0|0:1,0:0:0:0:
162,36,104963,2,0,P|175:56|182:79,1,47.5,2|0,0:0|0:0,0:0:0:0:
114,228,105121,38,0,P|113:182|147:151,1,95,8|0,0:1|0:0,0:0:0:0:
215,269,105436,1,8,0:1:0:0:
209,282,105515,1,2,0:0:0:0:
203,295,105594,2,0,L|99:307,1,95,2|0,0:0|0:0,0:0:0:0:
109,306,105910,1,2,0:0:0:0:
264,344,106068,2,0,P|324:308|393:318,1,142.5,8|0,0:1|0:0,0:0:0:0:
433,282,106384,6,0,P|419:306|393:318,1,56.9999982604981,12|0,3:1|0:0,0:0:0:0:
512,378,106542,2,0,P|484:378|461:362,1,56.9999982604981,8|0,3:1|0:0,0:0:0:0:
343,258,106700,38,0,P|329:234|332:206,1,56.9999982604981,8|0,3:1|0:0,0:0:0:0:
370,123,106857,2,0,P|384:99|410:87,1,56.9999982604981,8|0,3:1|0:0,0:0:0:0:
494,165,107015,6,0,L|437:160,1,56.9999982604981,8|0,3:1|0:0,0:0:0:0:
348,69,107173,2,0,L|405:74,1,56.9999982604981,8|0,3:1|0:0,0:0:0:0:
332,205,107331,38,0,L|275:200,1,56.9999982604981,8|0,3:1|0:0,0:0:0:0:
211,18,107489,2,0,L|268:23,1,56.9999982604981,8|0,3:1|0:0,0:0:0:0:
128,188,107647,21,8,0:3:0:0:
127,167,107725,1,8,0:3:0:0:
115,150,107804,1,8,0:3:0:0:
96,141,107883,1,8,0:3:0:0:
75,145,107962,1,8,3:3:0:0:
60,159,108041,1,8,3:3:0:0:
54,179,108120,1,8,3:3:0:0:
61,200,108199,1,8,3:3:0:0:
77,213,108278,5,12,3:3:0:0:
128,188,108357,1,12,3:3:0:0:
184,195,108436,1,12,3:3:0:0:
218,240,108515,1,12,3:3:0:0:
215,296,108594,1,4,3:3:0:0:
244,344,108673,1,4,3:3:0:0:
297,362,108752,1,4,3:3:0:0:
347,335,108831,1,4,3:3:0:0:
366,291,108910,6,0,L|271:301,1,95,6|0,3:1|0:0,0:0:0:0:
389,165,109226,2,0,L|484:155,1,95,8|4,0:1|0:3,0:0:0:0:
279,74,109542,1,0,3:0:0:0:
385,192,109700,1,2,0:0:0:0:
387,179,109778,1,2,0:0:0:0:
389,165,109857,1,8,0:1:0:0:
413,25,110015,1,0,0:0:0:0:
455,226,110173,5,2,3:0:0:0:
391,270,110331,1,0,0:0:0:0:
385,192,110489,1,8,0:1:0:0:
461,304,110647,1,4,0:0:0:0:
387,179,110805,38,0,L|399:82,1,95,0|2,3:0|0:3,0:0:0:0:
226,201,111121,2,0,L|215:296,1,95,8|0,0:1|0:0,0:0:0:0:
179,140,111436,6,0,P|123:98|54:108,1,142.5,0|0,3:0|0:0,0:0:0:0:
13,175,111752,1,8,0:1:0:0:
138,48,111910,1,2,0:0:0:0:
136,62,111989,1,2,0:0:0:0:
134,76,112068,1,2,3:2:0:0:
226,201,112226,38,0,L|232:149,1,47.5,2|0,0:0|0:0,0:0:0:0:
127,253,112384,2,0,L|132:205,1,47.5,8|0,0:1|0:0,0:0:0:0:
247,321,112542,2,0,L|253:274,1,47.5,2|0,0:0|0:0,0:0:0:0:
347,87,112700,5,2,3:0:0:0:
385,248,112858,1,0,0:0:0:0:
226,201,113015,1,8,0:1:0:0:
336,179,113173,2,0,L|428:158,1,95,4|0,0:0|3:0,0:0:0:0:
445,234,113489,38,0,L|385:248,1,61.7499971733095,2|0,0:3|0:0,0:0:0:0:
270,220,113647,2,0,P|259:160|294:112,1,123.499994346619,8|2,0:1|0:0,0:0:0:0:
348,344,113963,6,0,L|256:324,1,95,6|0,0:1|0:0,0:0:0:0:
101,233,114279,2,0,L|193:253,1,95,8|4,0:1|0:3,0:0:0:0:
193,253,114515,1,2,0:0:0:0:
193,253,114594,1,2,3:2:0:0:
37,303,114752,1,2,0:0:0:0:
74,139,114910,1,8,0:1:0:0:
101,233,115068,38,0,L|54:221,1,47.5,2|0,0:0|0:0,0:0:0:0:
133,90,115226,5,2,3:3:0:0:
145,166,115384,1,0,0:0:0:0:
74,139,115542,1,8,0:1:0:0:
204,117,115700,1,4,0:0:0:0:
248,264,115857,38,0,B|256:310|256:310|231:350,1,95,0|2,3:0|0:3,0:0:0:0:
231,350,116094,1,2,0:0:0:0:
231,350,116173,1,8,0:1:0:0:
316,224,116331,1,0,0:0:0:0:
399,296,116489,6,0,L|352:292,1,47.5,0|0,3:0|0:0,0:0:0:0:
265,165,116647,2,0,L|217:160,1,47.5,2|0,0:0|0:0,0:0:0:0:
101,233,116805,38,0,L|6:223,1,95,8|2,0:1|0:0,0:0:0:0:
6,223,117042,1,2,0:0:0:0:
6,223,117121,1,0,3:0:0:0:
120,158,117279,5,0,0:0:0:0:
141,299,117436,1,8,0:1:0:0:
139,165,117594,1,0,0:0:0:0:
160,306,117752,37,4,3:0:0:0:
267,102,117910,1,8,0:3:0:0:
300,329,118068,1,8,0:1:0:0:
139,165,118226,1,6,3:1:0:0:
366,203,118384,5,0,3:2:0:0:
384,201,118463,1,0,3:2:0:0:
402,199,118542,1,0,3:0:0:0:
420,197,118621,1,0,3:3:0:0:
504,218,118700,38,0,B|420:197|420:197|460:271,1,170.999994781494,6|0,0:0|0:0,0:0:0:0:
382,324,119015,6,0,B|386:306|386:306|350:239,1,95,6|2,0:1|0:3,0:0:0:0:
456,66,119331,2,0,P|410:118|342:115,1,142.5,8|0,0:1|0:0,0:0:0:0:
258,3,119647,1,0,3:0:0:0:
381,46,119805,1,2,0:3:0:0:
300,180,119963,1,8,3:1:0:0:
171,127,120121,38,0,L|187:34,1,95,2|0,0:3|3:0,0:0:0:0:
285,191,120436,1,2,0:3:0:0:
280,214,120515,1,2,0:0:0:0:
275,237,120594,1,8,0:1:0:0:
95,116,120752,6,0,L|103:163,1,47.5,2|0,0:3|0:0,0:0:0:0:
121,237,120910,1,0,3:0:0:0:
187,34,121068,1,2,0:3:0:0:
92,158,121226,38,0,L|107:251,1,95,8|2,0:1|0:3,0:0:0:0:
281,208,121463,1,2,0:0:0:0:
285,191,121542,2,0,L|307:50,1,142.5,0|0,3:0|0:0,0:0:0:0:
185,253,121857,6,0,L|200:346,1,95,8|2,0:1|0:3,0:0:0:0:
284,286,122173,1,0,3:0:0:0:
107,251,122331,1,2,0:3:0:0:
92,250,122410,1,2,0:0:0:0:
77,248,122489,1,8,0:1:0:0:
212,179,122647,1,2,0:3:0:0:
288,298,122805,37,0,3:0:0:0:
185,253,122963,1,0,0:0:0:0:
360,350,123121,2,0,L|375:257,1,95,8|2,0:1|0:3,0:0:0:0:
494,191,123436,5,2,3:2:0:0:
499,205,123515,1,2,0:0:0:0:
504,218,123594,1,2,0:3:0:0:
483,357,123752,1,8,0:1:0:0:
365,245,123910,2,0,L|370:197,1,47.5,2|0,0:3|0:0,0:0:0:0:
483,76,124068,38,0,B|426:87|426:87|410:110|410:110|355:121,1,142.5,6|0,3:1|0:0,0:0:0:0:
259,86,124384,2,0,B|244:43|244:43|272:3,1,95,8|2,0:1|0:3,0:0:0:0:
370,197,124700,2,0,P|328:196|284:160,1,95,0|2,3:0|0:3,0:0:0:0:
287,164,124936,1,2,0:0:0:0:
287,164,125015,1,8,0:1:0:0:
136,204,125173,6,0,P|162:165|206:149,1,95,2|0,0:3|3:0,0:0:0:0:
95,116,125489,1,2,0:3:0:0:
72,107,125568,1,2,0:0:0:0:
57,88,125647,1,8,0:1:0:0:
173,28,125805,38,0,P|171:51|159:72,1,47.5,2|0,0:3|0:0,0:0:0:0:
124,189,125963,6,0,P|100:193|77:192,1,47.5,0|0,3:0|0:0,0:0:0:0:
49,181,126121,2,0,P|28:169|10:153,1,47.5,2|0,0:3|0:0,0:0:0:0:
19,251,126279,38,0,P|64:265|112:265,1,95,8|6,0:1|0:3,0:0:0:0:
155,359,126594,6,0,P|199:307|184:240,1,142.5,0|0,3:0|0:0,0:0:0:0:
206,149,126910,1,8,0:1:0:0:
75,294,127068,2,0,L|123:289,1,47.5,2|0,0:3|0:0,0:0:0:0:
265,373,127226,37,0,3:0:0:0:
183,239,127384,1,2,0:3:0:0:
277,355,127542,2,0,L|418:341,1,142.5,8|0,0:1|0:0,0:0:0:0:
480,294,127857,6,0,P|442:267|395:267,1,95,0|2,3:0|0:3,0:0:0:0:
277,355,128173,37,8,3:1:0:0:
258,357,128252,1,0,3:0:0:0:
239,359,128331,1,2,3:3:0:0:
220,361,128410,1,0,3:0:0:0:
143,363,128489,6,0,B|161:309|99:258|56:285|56:285|39:320|68:345,1,213.750008153916,12|0,0:1|0:0,0:0:0:0:
255,269,128805,2,0,B|313:260|313:260|343:269|343:269|404:260,1,142.500005435944,12|0,0:1|0:0,0:0:0:0:
461,185,129121,37,6,3:1:0:0:
418,340,129279,1,2,0:3:0:0:
466,107,129436,2,0,P|426:163|357:164,1,142.5,8|0,0:1|0:0,0:0:0:0:
303,108,129752,1,0,3:0:0:0:
461,185,129910,1,2,0:3:0:0:
449,10,130068,1,8,0:1:0:0:
289,128,130226,6,0,L|194:138,1,95,2|0,0:3|3:0,0:0:0:0:
56,193,130542,1,2,0:3:0:0:
61,169,130621,1,2,0:0:0:0:
66,145,130700,1,8,0:1:0:0:
12,53,130857,37,2,0:3:0:0:
51,220,131015,1,0,3:0:0:0:
127,97,131173,1,2,0:3:0:0:
47,245,131331,6,0,L|141:234,1,95,8|2,0:1|0:3,0:0:0:0:
234,337,131568,1,2,0:0:0:0:
230,320,131647,2,0,P|169:287|101:301,1,142.5,2|0,3:2|0:0,0:0:0:0:
47,357,131963,37,8,3:1:0:0:
230,320,132121,1,2,0:3:0:0:
100,301,132279,1,0,3:0:0:0:
360,339,132436,1,2,0:3:0:0:
383,341,132514,1,2,0:0:0:0:
407,344,132593,1,8,0:1:0:0:
288,370,132752,1,2,0:3:0:0:
318,213,132910,6,0,L|334:119,1,95,0|2,3:0|0:3,0:0:0:0:
448,252,133226,2,0,L|432:346,1,95,8|2,0:1|0:3,0:0:0:0:
318,213,133463,1,2,0:0:0:0:
308,201,133542,2,0,L|333:60,1,142.5,2|0,3:2|0:0,0:0:0:0:
386,3,133857,1,8,0:1:0:0:
206,50,134015,1,2,0:3:0:0:
350,137,134173,38,0,L|443:121,1,95,6|2,3:1|0:0,0:0:0:0:
358,261,134410,1,2,0:0:0:0:
341,271,134489,2,0,P|276:272|231:215,1,142.5,8|0,0:1|0:0,0:0:0:0:
146,309,134805,1,0,3:0:0:0:
308,201,134963,1,2,0:3:0:0:
179,156,135121,1,8,0:1:0:0:
69,225,135279,6,0,L|78:272,2,47.5,2|0|0,0:3|0:0|3:0,0:0:0:0:
185,133,135594,1,2,0:3:0:0:
180,109,135672,1,2,0:0:0:0:
176,86,135751,1,8,0:1:0:0:
55,146,135910,38,0,L|102:154,1,47.5,2|0,0:3|0:0,0:0:0:0:
343,71,136068,6,0,L|335:118,1,47.5,0|0,3:0|0:0,0:0:0:0:
179,156,136226,2,0,L|170:202,1,47.5,2|0,0:3|0:0,0:0:0:0:
243,240,136384,2,0,L|259:147,1,95,8|2,0:1|0:3,0:0:0:0:
219,21,136700,37,6,3:1:0:0:
278,221,136857,1,6,0:3:0:0:
262,297,137015,5,8,0:1:0:0:
301,80,137173,1,2,0:3:0:0:
469,222,137331,2,0,L|453:315,1,95,0|6,3:0|0:3,0:0:0:0:
452,315,137568,1,0,3:0:0:0:
452,315,137647,1,12,0:1:0:0:
290,69,137805,38,0,L|298:22,1,47.5,10|4,3:0|0:3,0:0:0:0:
278,221,137963,5,6,3:1:0:0:
246,209,138042,1,0,3:0:0:0:
212,211,138121,1,2,3:3:0:0:
184,229,138200,1,0,3:0:0:0:
170,259,138279,37,0,3:3:0:0:
165,310,138357,1,0,3:3:0:0:
132,351,138436,1,2,3:3:0:0:
80,357,138515,1,0,3:3:0:0:
30,319,138594,6,0,P|28:306|33:293,6,23.75,0|0|0|0|2|0|0,3:0|3:0|3:0|3:0|3:0|3:0|3:0,3:0:0:0:
108,215,138910,38,0,P|117:204|117:189,1,28.4999991302491,0|0,3:0|3:0,3:0:0:0:
105,180,138989,2,0,P|109:166|104:153,1,28.4999991302491,0|0,3:0|3:0,0:0:0:0:
87,150,139068,2,0,P|86:135|77:124,1,28.4999991302491,2|0,3:0|3:0,0:0:0:0:
56,133,139147,2,0,P|49:119|38:112,1,28.4999991302491,0|0,3:0|0:0,0:0:0:0:
84,46,139226,6,0,L|211:35,1,128.249996086121,4|0,3:2|0:0,0:0:0:0:
211,35,139542,1,2,0:0:0:0:
133,155,139700,2,0,P|98:132|56:133,1,85.4999973907472,2|0,0:0|0:0,0:0:0:0:
250,107,140015,37,2,0:0:0:0:
147,174,140173,1,0,0:0:0:0:
55,133,140331,2,0,P|98:132|133:155,1,85.4999973907472,2|0,0:0|0:0,0:0:0:0:
254,187,140647,2,0,L|339:179,1,85.4999973907472,2|0,0:0|0:0,0:0:0:0:
440,23,140963,6,0,P|359:26|329:101,1,170.999994781494,2|2,0:0|0:0,0:0:0:0:
421,231,141436,38,0,B|451:206|459:150|418:114|418:114|400:131,1,156.750004783631,8|0,0:1|0:0,0:0:0:0:
338,179,141752,6,0,P|278:162|250:107,1,128.249996086121,4|0,3:2|0:0,0:0:0:0:
250,107,142068,1,2,0:0:0:0:
400,131,142226,2,0,P|417:169|408:215,1,85.4999973907472,2|0,0:0|0:0,0:0:0:0:
361,280,142542,37,2,0:0:0:0:
250,107,142700,1,0,0:0:0:0:
400,131,142857,2,0,P|416:195|382:243,1,128.249996086121,2|0,0:0|0:0,0:0:0:0:
435,299,143173,5,2,0:0:0:0:
307,226,143331,1,0,0:0:0:0:
256,300,143489,2,0,L|128:310,1,128.249996086121,2|0,0:0|0:0,0:0:0:0:
115,324,143805,2,0,L|157:320,1,42.7499986953736,0|0,3:0|0:0,0:0:0:0:
306,359,143963,38,0,P|271:292|306:226,1,156.750004783631,8|0,0:1|0:0,0:0:0:0:
443,306,144279,6,0,L|349:293,1,95,4|2,3:1|0:3,0:0:0:0:
265,160,144594,1,8,0:1:0:0:
343,219,144752,1,2,0:3:0:0:
325,222,144831,1,2,0:0:0:0:
307,225,144910,1,2,3:2:0:0:
256,300,145068,37,2,0:3:0:0:
401,271,145226,1,8,0:1:0:0:
207,240,145384,1,2,0:3:0:0:
419,195,145542,6,0,L|431:100,1,95,0|2,3:0|0:3,0:0:0:0:
307,225,145857,1,8,0:1:0:0:
401,271,146015,2,0,L|447:278,1,47.5,2|0,0:3|0:0,0:0:0:0:
300,53,146173,38,0,L|288:148,1,95,0|2,3:0|0:3,0:0:0:0:
152,296,146489,1,8,0:1:0:0:
307,225,146647,1,2,0:3:0:0:
169,127,146805,5,6,3:2:0:0:
233,238,146963,38,0,L|235:215,1,23.75,2|0,3:3|0:0,0:0:0:0:
305,248,147042,2,0,L|307:225,1,23.75,2|0,3:2|0:0,0:0:0:0:
384,228,147121,6,0,L|376:275,1,47.5,8|0,0:1|3:0,0:0:0:0:
283,372,147279,37,2,3:3:0:0:
283,372,147357,1,0,3:0:0:0:
283,372,147437,2,0,L|291:325,1,47.5,4|2,3:0|3:2,0:0:0:0:
390,256,147595,2,0,L|382:209,1,47.5,2|2,3:0|3:2,0:0:0:0:
270,113,147753,5,12,0:1:0:0:
314,129,147832,1,0,3:0:0:0:
355,119,147911,1,2,3:0:0:0:
377,89,147990,1,0,3:0:0:0:
383,58,148069,38,0,L|444:49,1,61.7499971733095,4|0,3:2|0:0,0:0:0:0:
368,212,148226,2,0,L|306:219,1,61.7499971733095,2|0,3:0|0:0,0:0:0:0:
220,37,148384,6,0,L|281:30,1,61.7499971733095,8|0,3:1|0:0,0:0:0:0:
208,260,148542,2,0,L|146:268,1,61.7499971733095,2|0,3:0|0:0,0:0:0:0:
3,211,148700,38,0,P|1:196|7:181,1,30.8749985866547,0|0,3:0|3:0,3:0:0:0:
31,180,148779,2,0,P|35:165|46:153,1,30.8749985866547,0|0,3:0|3:0,0:0:0:0:
72,176,148858,2,0,P|80:163|95:156,1,30.8749985866547,2|0,3:0|3:0,0:0:0:0:
108,202,148937,2,0,P|120:193|136:191,1,30.8749985866547,0|0,3:0|3:0,0:0:0:0:
146,268,149015,6,0,P|155:270|160:275,14,15.4374992933274,0|0|0|0|0|0|0|0|0|0|0|0|0|0|0,3:0|3:0|3:0|3:0|3:0|3:0|3:0|3:0|3:0|3:0|3:0|3:0|3:0|3:0|3:0,3:0:0:0:
128,347,149331,38,0,L|0:358,1,128.249996086121,4|0,3:2|0:0,0:0:0:0:
0,358,149647,1,2,0:0:0:0:
206,343,149805,2,0,P|233:310|242:269,1,85.4999973907472,2|0,0:0|0:0,0:0:0:0:
137,168,150121,5,2,0:0:0:0:
163,277,150279,1,0,0:0:0:0:
319,266,150436,2,0,P|304:226|273:197,1,85.4999973907472,2|0,0:0|0:0,0:0:0:0:
206,343,150752,38,0,P|233:310|242:269,1,85.4999973907472,2|0,0:0|0:0,0:0:0:0:
341,161,151068,2,0,L|214:148,1,128.249996086121,2|0,0:0|0:0,0:0:0:0:
214,148,151384,1,0,3:0:0:0:
62,215,151542,6,0,B|103:178|158:201|158:201|138:181|139:152,1,156.750004783631,8|0,0:1|0:0,0:0:0:0:
177,83,151857,38,0,P|238:73|287:111,1,128.249996086121,4|0,3:2|0:0,0:0:0:0:
287,111,152173,1,2,0:0:0:0:
449,94,152331,2,0,L|364:86,1,85.4999973907472,2|0,0:0|0:0,0:0:0:0:
287,111,152647,5,2,0:0:0:0:
407,66,152805,1,0,0:0:0:0:
512,179,152963,2,0,L|427:171,1,85.4999973907472,2|0,0:0|0:0,0:0:0:0:
364,86,153279,38,0,P|360:44|391:18,1,85.4999973907472,2|0,0:0|0:0,0:0:0:0:
484,130,153594,2,0,P|495:190|454:241,1,128.249996086121,2|0,0:0|0:0,0:0:0:0:
428,249,153910,2,0,L|385:243,1,42.7499986953736,2|0,3:0|0:0,0:0:0:0:
489,336,154068,6,0,B|399:325|399:325|426:348|428:384,1,156.750004783631,8|0,0:1|0:0,0:0:0:0:
348,383,154384,38,0,P|309:350|258:351,1,104.500003189087,4|2,3:1|0:3,0:0:0:0:
176,307,154621,2,0,P|201:303|219:284,1,52.2500015945435,2|8,0:0|0:1,0:0:0:0:
243,157,154857,5,2,0:3:0:0:
328,240,155015,2,0,L|277:233,1,52.2500015945435,0|0,3:0|0:0,0:0:0:0:
408,234,155173,2,0,L|356:226,1,52.2500015945435,2|0,0:3|0:0,0:0:0:0:
203,88,155331,2,0,P|279:87|321:153,1,156.750004783631,8|0,0:1|0:0,0:0:0:0:
219,284,155647,38,0,L|115:269,1,104.500003189087,0|2,3:0|0:3,0:0:0:0:
115,269,155884,1,2,0:0:0:0:
115,269,155963,1,8,0:1:0:0:
243,157,156121,5,2,0:3:0:0:
328,240,156279,1,0,3:0:0:0:
390,85,156436,1,2,0:3:0:0:
475,168,156594,2,0,L|320:150,1,156.750004783631,8|0,0:1|0:0,0:0:0:0:
320,150,156910,37,0,3:0:0:0:
181,204,157068,1,2,0:3:0:0:
226,18,157226,2,0,L|241:121,1,104.500003189087,8|2,0:1|0:3,0:0:0:0:
241,121,157463,1,0,0:0:0:0:
241,121,157542,1,0,3:3:0:0:
335,291,157700,2,0,L|328:240,2,52.2500015945435,2|0|8,0:3|0:0|0:1,0:0:0:0:
475,168,158015,1,2,0:3:0:0:
328,240,158173,5,0,3:3:0:0:
455,305,158331,1,2,0:3:0:0:
274,378,158489,2,0,L|258:274,1,104.500003189087,8|2,0:1|0:3,0:0:0:0:
384,82,158805,2,0,L|400:186,1,104.500003189087,0|2,3:0|0:3,0:0:0:0:
258,274,159121,38,0,L|206:268,1,52.2500015945435,8|2,0:1|0:0,0:0:0:0:
129,259,159279,1,2,0:0:0:0:
132,284,159357,1,2,0:0:0:0:
136,310,159436,5,4,3:2:0:0:
23,191,159594,1,2,3:0:0:0:
138,334,159752,37,8,3:1:0:0:
241,121,159910,1,2,3:0:0:0:
243,105,159989,1,0,3:0:0:0:
245,89,160068,1,0,3:2:0:0:
337,280,160226,5,2,3:0:0:0:
129,259,160384,1,8,3:1:0:0:
95,41,160542,1,2,3:0:0:0:
109,34,160621,1,0,3:0:0:0:
122,27,160700,38,0,P|156:20|192:33,1,71.2500027179719,4|0,3:0|0:0,0:0:0:0:
301,82,160857,6,0,L|245:89,1,56.9999982604981,2|0,3:0|0:0,0:0:0:0:
117,157,161015,38,0,P|128:124|155:101,1,71.2500027179719,8|0,3:1|0:0,0:0:0:0:
322,155,161173,6,0,L|195:171,1,128.249996086121,2|0,3:2|0:0,0:0:0:0:
117,157,161489,1,0,3:0:0:0:
268,245,161647,38,0,B|210:246|188:187|188:187|177:218|144:231,1,156.750004783631,6|0,0:0|0:0,0:0:0:0:
263,167,161963,22,0,B|318:159|318:159|340:202|400:218|442:184,1,185.249991519928,6|0,3:1|0:0,0:0:0:0:
501,223,162279,1,8,0:1:0:0:
375,68,162436,1,4,0:3:0:0:
369,99,162515,1,0,3:0:0:0:
388,124,162594,1,8,3:3:0:0:
441,272,162752,5,2,0:3:0:0:
466,124,162910,1,8,0:1:0:0:
411,345,163068,2,0,B|370:349|370:349|367:354|367:354|364:350|364:350|292:356,1,123.499994346619,2|0,0:3|3:0,0:0:0:0:
241,157,163305,1,2,0:0:0:0:
235,145,163384,2,0,B|194:149|194:149|191:154|191:154|188:150|188:150|117:157,1,123.499994346619,2|8,0:3|0:1,0:0:0:0:
116,157,163700,1,8,0:3:0:0:
138,334,163857,38,0,L|42:344,1,95,4|4,3:0|0:3,0:0:0:0:
30,268,164094,1,2,0:0:0:0:
20,254,164173,2,0,L|28:197,1,56.9999982604981,8|0,0:1|0:0,0:0:0:0:
219,254,164331,2,0,L|211:311,1,56.9999982604981
121,258,164489,5,0,3:0:0:0:
234,145,164647,2,0,L|357:130,1,123.499994346619,2|8,0:3|0:1,0:0:0:0:
194,23,164963,37,4,0:3:0:0:
190,53,165042,1,0,3:0:0:0:
186,83,165121,1,8,3:3:0:0:
432,105,165279,2,0,P|398:65|348:53,1,104.500003189087,2|8,0:3|0:1,0:0:0:0:
375,278,165594,6,0,B|387:241|353:213|353:213|349:215|349:215|309:174|350:126|350:126|357:130,1,185.249991519928,2|0,0:3|0:0,0:0:0:0:
448,217,165910,1,2,0:3:0:0:
318,196,166068,2,0,L|204:208,1,113.999996520996,8|10,0:1|0:3,0:0:0:0:
39,79,166384,37,4,3:3:0:0:
74,50,166463,1,0,3:0:0:0:
113,48,166542,1,4,0:3:0:0:
144,61,166621,1,0,3:0:0:0:
163,81,166700,2,0,P|174:107|171:136,1,56.9999982604981,8|0,0:1|0:0,0:0:0:0:
83,234,166857,2,0,P|101:212|127:201,1,56.9999982604981,2|0,0:0|0:0,0:0:0:0:
356,264,167015,6,0,B|316:269|283:243|275:206|275:206|270:210|270:210|241:191|204:207,1,185.249991519928,6|0,3:1|0:0,0:0:0:0:
348,186,167331,2,0,B|376:171|376:171|405:177,1,61.7499971733095,8|0,0:1|0:0,0:0:0:0:
424,334,167489,1,6,0:3:0:0:
424,334,167647,38,0,B|396:349|396:349|367:343,1,61.7499971733095,8|0,3:3|0:0,0:0:0:0:
348,186,167805,2,0,B|325:142|370:100|370:100|395:129,1,123.499994346619,2|8,0:3|0:1,0:0:0:0:
357,347,168121,2,0,B|257:327|257:327|237:336,1,123.499994346619,2|0,0:3|3:0,0:0:0:0:
83,234,168436,5,10,0:3:0:0:
81,252,168515,1,2,0:0:0:0:
80,270,168594,1,8,0:1:0:0:
203,207,168752,1,8,0:3:0:0:
152,365,168910,38,0,L|158:271,1,95,4|4,3:3|0:3,0:0:0:0:
247,338,169226,1,8,0:1:0:0:
69,261,169384,1,2,0:0:0:0:
70,243,169463,1,2,0:0:0:0:
72,225,169542,1,2,3:2:0:0:
316,206,169700,6,0,B|268:209|268:209|248:204|248:204|203:207,1,113.999996520996,2|8,0:3|0:1,0:0:0:0:
99,138,170015,1,4,0:3:0:0:
158,270,170173,1,0,3:0:0:0:
249,67,170331,2,0,L|256:124,1,56.9999982604981,2|0,0:3|0:0,0:0:0:0:
246,338,170489,38,0,P|309:286|384:319,1,170.999994781494,8|0,0:1|0:0,0:0:0:0:
482,302,170805,5,6,3:1:0:0:
320,365,170963,1,2,0:0:0:0:
386,171,171121,1,8,0:1:0:0:
492,309,171279,38,0,L|485:252,1,56.9999982604981,2|2,3:3|3:2,0:0:0:0:
361,147,171436,5,4,3:3:0:0:
324,131,171515,1,4,3:0:0:0:
284,130,171594,1,6,3:3:0:0:
249,150,171673,1,4,3:0:0:0:
172,227,171752,37,8,3:1:0:0:
198,242,171831,1,8,3:0:0:0:
228,241,171910,1,2,3:3:0:0:
256,229,171989,1,8,3:0:0:0:
284,130,172068,6,0,L|276:73,1,56.9999982604981,0|0,3:0|0:0,0:0:0:0:
386,171,172226,1,6,3:0:0:0:
368,185,172305,1,4,3:0:0:0:
350,214,172384,38,0,L|357:270,1,56.9999982604981,6|0,3:1|0:0,0:0:0:0:
207,142,172542,1,6,0:3:0:0:
207,142,172621,1,2,0:0:0:0:
207,142,172700,6,0,L|199:85,1,56.9999982604981,10|0,0:3|0:0,0:0:0:0:
54,225,172857,6,0,B|7:262|18:328|69:348|69:348|116:336,1,199.499993911743,2|0,3:1|0:0,0:0:0:0:
199,85,173173,6,0,B|190:26|127:2|85:37|85:37|76:69,1,185.249991519928,2|0,3:1|0:0,0:0:0:0:
248,280,173489,38,0,B|302:302|355:259|346:205|346:205|332:191,1,170.999994781494,2|0,3:1|0:0,0:0:0:0:
166,196,173805,6,0,L|158:247,1,52.2500015945435,10|0,0:1|0:0,0:0:0:0:
264,351,173963,38,0,P|271:312|248:280,1,80.750001540184,2|0,3:0|0:0,0:0:0:0:
117,118,174121,5,8,3:3:0:0:
145,115,174199,1,8,3:3:0:0:
173,112,174278,1,4,3:3:0:0:
202,109,174357,1,4,3:3:0:0:
230,107,174436,1,0,3:0:0:0:
258,104,174515,1,0,3:0:0:0:
323,145,174594,6,0,P|334:90|306:42,1,113.999996520996,6|0,3:1|0:0,0:0:0:0:
494,138,174910,2,0,P|465:186|477:240,1,113.999996520996,8|4,0:1|0:3,0:0:0:0:
488,253,175147,1,2,0:0:0:0:
503,260,175226,1,8,3:3:0:0:
264,351,175384,1,2,0:3:0:0:
323,145,175542,1,8,0:1:0:0:
464,345,175700,6,0,P|397:284|307:286,1,185.249991519928,2|0,0:3|0:0,0:0:0:0:
189,369,176015,2,0,B|123:351|123:351|171:325,1,123.499994346619,2|8,0:3|0:1,0:0:0:0:
340,366,176331,1,10,0:3:0:0:
175,309,176489,37,4,3:0:0:0:
126,300,176568,1,0,3:0:0:0:
82,295,176647,1,4,0:3:0:0:
45,288,176726,1,0,3:0:0:0:
14,283,176805,6,0,L|5:221,1,61.7499971733095,8|0,0:1|0:0,0:0:0:0:
145,115,176963,2,0,L|153:176,1,61.7499971733095
230,184,177121,38,0,B|332:152|306:248|421:207,1,185.249991519928,6|0,3:1|0:0,0:0:0:0:
490,106,177436,1,8,0:1:0:0:
304,211,177594,1,4,0:3:0:0:
488,320,177752,1,8,3:3:0:0:
414,35,177910,6,0,B|390:47|390:47|372:142,1,123.499994346619,2|8,0:3|0:1,0:0:0:0:
232,319,178226,2,0,L|241:258,1,61.7499971733095,2|0,0:3|0:0,0:0:0:0:
182,207,178384,37,4,3:1:0:0:
155,190,178463,1,0,3:0:0:0:
124,189,178542,1,0,3:0:0:0:
94,199,178621,1,0,3:0:0:0:
74,222,178700,1,8,3:1:0:0:
68,252,178779,1,0,3:0:0:0:
78,280,178857,1,8,3:0:0:0:
98,302,178936,1,0,3:0:0:0:
126,313,179015,5,4,3:3:0:0:
174,301,179094,1,4,3:3:0:0:
199,258,179173,1,4,3:3:0:0:
182,207,179252,1,4,3:3:0:0:
155,134,179331,38,0,P|149:119|147:104,1,30.8749985866547,8|0,3:3|3:0,0:0:0:0:
167,73,179410,2,0,P|171:58|180:45,1,30.8749985866547,8|0,3:3|3:0,0:0:0:0:
223,49,179489,2,0,P|236:40|250:36,1,30.8749985866547,8|0,3:3|3:0,0:0:0:0:
281,67,179568,2,0,P|296:69|310:75,1,30.8749985866547,8|0,3:3|3:0,0:0:0:0:
292,151,179647,22,0,L|386:156,1,95,6|2,3:2|0:0,0:0:0:0:
475,91,179963,2,0,L|428:89,1,47.5,2|0,0:3|0:0,0:0:0:0:
277,285,180121,6,0,P|330:241|397:255,1,142.5,4|0,3:2|0:0,0:0:0:0:
499,203,180436,2,0,L|452:201,1,47.5,2|0,0:0|0:0,0:0:0:0:
304,361,180594,38,0,B|261:373|218:353|202:314|202:314|186:353|219:395,1,190,4|0,3:2|0:0,0:0:0:0:
277,285,181384,5,2,0:0:0:0:
382,356,181542,2,0,L|497:366,1,95,2|0,0:0|0:0,0:0:0:0:
202,314,181857,37,8,3:3:0:0:
178,311,181935,1,8,3:3:0:0:
154,309,182014,1,4,3:3:0:0:
131,307,182093,1,4,3:3:0:0:
66,263,182173,6,0,P|103:234|150:232,1,95,4|2,3:2|0:0,0:0:0:0:
284,271,182410,1,2,0:0:0:0:
277,285,182489,2,0,P|262:266|258:243,1,47.5,2|0,0:0|0:0,0:0:0:0:
227,0,182647,38,0,B|214:97|214:97|220:107|220:107|211:183,1,185.249991519928,4|0,3:2|0:0,0:0:0:0:
90,151,182963,2,0,L|138:156,1,47.5,2|0,0:0|0:0,0:0:0:0:
258,243,183121,6,0,B|277:211|334:206|354:227|354:227|361:222|361:222|376:294|456:317|521:268|502:191|502:191|431:196|389:159|369:68|425:89|410:38|410:38|457:42|483:76|480:108,1,684,4|0,3:2|0:0,0:0:0:0:
362,223,184700,38,0,P|319:221|285:197,1,85.4999973907472,4|0,3:2|0:0,0:0:0:0:
256,40,185015,2,0,L|128:48,1,128.249996086121,0|0,3:0|0:0,0:0:0:0:
111,35,185331,6,0,P|137:69|136:111,1,85.4999973907472,0|0,3:0|0:0,0:0:0:0:
19,195,185647,2,0,P|15:134|61:93,1,128.249996086121,0|0,3:0|0:0,0:0:0:0:
195,194,185963,38,0,L|111:185,1,85.4999973907472,0|0,3:0|0:0,0:0:0:0:
258,243,186279,2,0,L|173:233,1,85.4999973907472,0|0,3:0|0:0,0:0:0:0:
31,310,186594,5,8,3:3:0:0:
57,266,186673,1,8,3:3:0:0:
107,276,186752,1,8,3:3:0:0:
112,328,186831,1,8,3:3:0:0:
66,348,186910,38,0,B|106:369|158:355|179:315|179:315|172:356|202:385,1,199.499993911743,4|4,3:3|3:3,0:0:0:0:
256,329,187226,6,0,L|408:343,1,152,4|2,3:1|0:0,0:0:0:0:
407,342,187699,1,0,3:0:0:0:
511,209,187857,2,0,P|454:256|382:239,1,152,8|2,0:1|0:0,0:0:0:0:
473,287,188331,37,2,0:0:0:0:
368,221,188489,2,0,L|378:146,1,76,2|2,3:2|0:0,0:0:0:0:
342,76,188726,1,2,0:0:0:0:
355,74,188804,1,2,0:0:0:0:
367,71,188883,1,2,0:0:0:0:
379,68,188962,1,2,3:2:0:0:
288,132,189121,6,0,L|213:125,1,76,8|2,0:1|0:0,0:0:0:0:
212,124,189357,1,2,0:0:0:0:
212,124,189436,1,2,0:0:0:0:
379,68,189594,1,2,0:0:0:0:
234,21,189752,37,2,3:2:0:0:
288,183,189910,2,0,P|232:133|158:138,1,152,0|0,0:0|3:0,0:0:0:0:
82,150,190384,5,8,0:1:0:0:
93,10,190542,2,0,B|116:39|116:39|111:77,2,76,0|2|2,0:0|0:0|0:0,0:0:0:0:
7,166,191015,37,2,3:2:0:0:
164,244,191173,2,0,B|146:224|146:224|158:137,1,113.999996520996,8|2,0:1|0:0,0:0:0:0:
173,254,191489,5,2,3:2:0:0:
30,345,191647,2,0,B|48:326|48:326|36:239,1,113.999996520996,8|2,0:1|0:0,0:0:0:0:
173,254,191884,1,2,0:0:0:0:
175,267,191963,38,0,L|184:332,1,66.4999979705811,2|0,0:0|0:0,0:0:0:0:
328,192,192279,6,0,B|319:140|319:140|302:125|302:125|292:68,1,132.999995941162,4|2,3:1|0:0,0:0:0:0:
292,68,192752,1,2,3:2:0:0:
390,239,192910,2,0,L|257:228,1,132.999995941162,8|0,0:1|0:0,0:0:0:0:
257,228,193384,1,2,0:0:0:0:
184,332,193542,37,2,3:2:0:0:
102,245,193700,2,0,L|36:239,1,66.4999979705811,2|2,0:0|0:0,0:0:0:0:
36,239,194015,1,2,3:2:0:0:
232,141,194173,2,0,L|165:134,1,66.4999979705811,8|2,0:1|0:0,0:0:0:0:
82,170,194489,5,2,0:0:0:0:
257,219,194647,1,2,0:0:0:0:
232,141,194805,38,0,L|226:41,1,99.7499969558717,2|0,3:2|0:0,0:0:0:0:
156,6,195121,2,0,P|142:34|150:66,1,66.4999979705811,2|2,0:0|3:2,0:0:0:0:
160,178,195436,2,0,P|211:218|276:210,1,132.999995941162,8|2,0:1|0:0,0:0:0:0:
317,145,195831,5,2,0:0:0:0:
324,131,195910,2,0,P|331:109|325:86,1,47.5,2|0,0:0|0:0,0:0:0:0:
451,222,196068,37,2,3:2:0:0:
431,270,196147,1,2,0:0:0:0:
383,285,196225,1,8,0:1:0:0:
336,266,196305,1,0,0:0:0:0:
313,221,196384,5,2,0:0:0:0:
275,210,196463,1,2,0:0:0:0:
239,227,196542,1,2,3:2:0:0:
223,264,196621,1,2,0:0:0:0:
227,304,196700,38,0,P|247:327|280:336,1,56.9999982604981,8|2,0:1|0:0,0:0:0:0:
393,260,196857,2,0,L|336:266,1,56.9999982604981,2|2,0:0|0:0,0:0:0:0:
150,291,197015,5,2,3:2:0:0:
136,277,197093,1,2,0:0:0:0:
119,269,197172,1,2,0:0:0:0:
100,266,197251,1,2,0:0:0:0:
17,240,197331,38,0,P|64:189|133:185,1,142.5,4|0,3:1|0:0,0:0:0:0:
188,108,197647,2,0,L|176:14,1,95,8|0,0:1|0:0,0:0:0:0:
100,266,197963,2,0,L|88:360,1,95,8|0,0:1|0:0,0:0:0:0:
17,240,198279,5,8,0:1:0:0:
166,363,198436,2,0,B|235:381|270:319|270:319|231:320|205:281,1,190,2|0,0:0|0:0,0:0:0:0:
337,240,198910,37,8,0:1:0:0:
270,319,199068,2,0,P|327:272|399:288,1,152,2|0,0:0|0:0,0:0:0:0:
492,369,199542,5,8,0:1:0:0:
414,207,199700,1,2,3:2:0:0:
270,319,199857,2,0,L|194:326,1,76,12|0,0:1|0:0,0:0:0:0:
80,259,200173,37,8,0:1:0:0:
33,360,200331,2,0,B|133:376|133:376|116:354|117:324,1,152,2|0,0:0|0:0,0:0:0:0:
11,147,200805,5,8,0:1:0:0:
80,259,200963,2,0,L|269:241,1,190,2|0,0:0|0:0,0:0:0:0:
341,271,201436,37,8,0:1:0:0:
453,199,201594,2,0,P|385:224|323:184,1,152,2|2,0:0|0:0,0:0:0:0:
297,75,202068,6,0,P|291:47|304:22,1,56.9999982604981,8|0,0:1|0:0,0:0:0:0:
453,199,202226,1,0,3:0:0:0:
471,240,202305,1,0,3:0:0:0:
448,291,202384,38,0,P|363:299|287:262,1,170.999994781494,12|0,0:1|0:0,0:0:0:0:
256,336,202700,6,0,L|161:342,1,95,8|0,0:1|0:0,0:0:0:0:
100,50,203015,38,0,P|104:96|139:127,1,95,8|2,0:1|0:0,0:0:0:0:
154,142,203252,2,0,P|178:145|201:138,1,47.5,2|8,0:0|0:1,0:0:0:0:
265,30,203489,2,0,P|252:50|245:73,1,47.5,2|0,0:0|0:0,0:0:0:0:
313,222,203647,6,0,P|314:176|280:145,1,95,8|0,0:1|0:0,0:0:0:0:
212,263,203962,1,8,0:1:0:0:
218,276,204041,1,2,0:0:0:0:
224,289,204121,2,0,L|328:301,1,95,2|0,0:0|0:0,0:0:0:0:
318,299,204436,1,2,0:0:0:0:
512,193,204594,38,0,L|370:181,1,142.5,8|0,0:1|0:0,0:0:0:0:
329,103,204910,6,0,L|375:49,1,71.2500027179719,12|0,3:1|0:0,0:0:0:0:
181,280,205068,2,0,L|136:334,1,71.2500027179719,8|0,3:1|0:0,0:0:0:0:
370,181,205226,38,0,L|441:174,1,71.2500027179719,8|0,3:1|0:0,0:0:0:0:
141,201,205384,2,0,L|70:208,1,71.2500027179719,8|0,3:1|0:0,0:0:0:0:
343,265,205542,6,0,L|398:311,1,71.2500027179719,8|0,3:1|0:0,0:0:0:0:
168,117,205700,2,0,L|113:71,1,71.2500027179719,8|0,3:1|0:0,0:0:0:0:
265,306,205857,38,0,L|271:377,1,71.2500027179719,8|0,3:1|0:0,0:0:0:0:
246,77,206015,2,0,L|240:6,1,71.2500027179719,8|0,3:1|0:0,0:0:0:0:
256,220,206173,21,8,0:3:0:0:
237,212,206252,1,8,0:3:0:0:
228,192,206331,1,8,0:3:0:0:
236,173,206410,1,8,0:3:0:0:
256,164,206489,1,8,3:3:0:0:
275,172,206568,1,8,3:3:0:0:
284,192,206647,1,8,3:3:0:0:
276,211,206726,1,8,3:3:0:0:
320,254,206805,5,12,3:3:0:0:
345,190,206884,1,12,3:3:0:0:
318,128,206963,1,12,3:3:0:0:
254,103,207042,1,12,3:3:0:0:
192,130,207121,1,4,3:3:0:0:
167,194,207200,1,4,3:3:0:0:
194,256,207279,1,4,3:3:0:0:
258,281,207358,1,4,3:3:0:0:
256,192,207436,37,6,3:1:0:0:
256,192,207515,12,0,217542,0:0:0:0:
