osu file format v14

[General]
AudioFilename: audio.mp3
AudioLeadIn: 0
PreviewTime: 12913
Countdown: 0
SampleSet: Normal
StackLeniency: 0.7
Mode: 3
LetterboxInBreaks: 0
SpecialStyle: 0
WidescreenStoryboard: 1

[Editor]
Bookmarks: 52113
DistanceSpacing: 0.5
BeatDivisor: 6
GridSize: 4
TimelineZoom: 1.6

[Metadata]
Title:i wonder.
TitleUnicode:i wonder.
Artist:rainlord.
ArtistUnicode:rainlord.
Creator:Nihilese
Version:beginner.
Source:
Tags:lofi lo-fi chill beat instrumental amore mio aiutami main theme maestro piero piccioni electronic ethan.
BeatmapID:2910670
BeatmapSetID:998152

[Difficulty]
HPDrainRate:5.8
CircleSize:4
OverallDifficulty:5.8
ApproachRate:5
SliderMultiplier:1.4
SliderTickRate:1

[Events]
//Background and Video events
0,0,"4.jpg",0,0
//Break Periods
//Storyboard Layer 0 (Background)
//Storyboard Layer 1 (Fail)
//Storyboard Layer 2 (Pass)
//Storyboard Layer 3 (Foreground)
//Storyboard Layer 4 (Overlay)
//Storyboard Sound Samples

[TimingPoints]
113,800,4,1,1,50,1,0
76913,779.220779220779,4,1,1,50,1,0

[HitObjects]
448,192,513,128,0,1713:0:0:0:0:
64,192,1713,128,0,2113:0:0:0:0:
192,192,2113,128,0,2513:0:0:0:0:
320,192,2513,128,0,2913:0:0:0:0:
192,192,2913,128,0,3313:0:0:0:0:
448,192,3313,128,0,4913:0:0:0:0:
192,192,4913,128,0,6513:0:0:0:0:
64,192,6513,128,0,8113:0:0:0:0:
320,192,8113,128,0,8513:0:0:0:0:
192,192,8513,128,0,8913:0:0:0:0:
320,192,8913,128,0,9313:0:0:0:0:
448,192,9313,128,0,9713:0:0:0:0:
192,192,9713,128,0,11313:0:0:0:0:
64,192,11313,128,0,12113:0:0:0:0:
192,192,12379,1,2,0:0:0:0:
320,192,12779,1,2,0:0:0:0:
192,192,12913,128,2,14513:0:0:0:0:
64,192,14513,128,2,14913:0:0:0:0:
320,192,14913,128,0,15313:0:0:0:0:
448,192,15313,128,8,15713:0:0:0:0:
192,192,15713,128,0,16113:0:0:0:0:
448,192,16113,128,2,17713:0:0:0:0:
192,192,17713,128,2,19313:0:0:0:0:
64,192,19313,128,2,20913:0:0:0:0:
320,192,20913,128,2,21313:0:0:0:0:
64,192,21313,128,0,21713:0:0:0:0:
448,192,21713,128,8,22113:0:0:0:0:
192,192,22113,128,0,22513:0:0:0:0:
320,192,22513,128,2,24113:0:0:0:0:
64,192,24113,128,2,25713:0:0:0:0:
192,192,25713,128,2,26913:0:0:0:0:
320,192,26913,1,0,0:0:0:0:
448,192,27179,1,2,0:0:0:0:
64,192,27313,128,2,27713:0:0:0:0:
320,192,27713,128,0,28113:0:0:0:0:
64,192,28113,128,8,28513:0:0:0:0:
320,192,28513,128,0,28913:0:0:0:0:
192,192,28913,128,2,29313:0:0:0:0:
448,192,29313,128,2,30113:0:0:0:0:
192,192,30113,128,0,30513:0:0:0:0:
320,192,30513,128,2,31313:0:0:0:0:
192,192,31579,1,2,0:0:0:0:
320,192,31979,1,2,0:0:0:0:
64,192,32113,128,2,33313:0:0:0:0:
192,192,33313,128,0,33713:0:0:0:0:
320,192,33713,128,2,34113:0:0:0:0:
64,192,34113,128,0,34513:0:0:0:0:
320,192,34513,128,8,34913:0:0:0:0:
64,192,34913,128,0,35313:0:0:0:0:
192,192,35313,128,2,36513:0:0:0:0:
320,192,36513,128,0,36913:0:0:0:0:
64,192,36913,128,2,37713:0:0:0:0:
192,192,37713,128,8,38513:0:0:0:0:
320,192,38513,128,2,40113:0:0:0:0:
64,192,40113,128,2,40513:0:0:0:0:
320,192,40513,128,0,40913:0:0:0:0:
448,192,40913,128,8,41313:0:0:0:0:
192,192,41313,128,0,41713:0:0:0:0:
448,192,41713,128,2,42513:0:0:0:0:
64,192,42913,1,0,0:0:0:0:
320,192,43313,1,2,0:0:0:0:
192,192,43713,1,0,0:0:0:0:
64,192,43979,1,2,0:0:0:0:
320,192,44113,1,8,0:0:0:0:
192,192,44513,1,0,0:0:0:0:
64,192,44913,128,2,45313:0:0:0:0:
192,192,45313,128,2,46113:0:0:0:0:
64,192,46113,128,0,46513:0:0:0:0:
320,192,46513,128,2,46913:0:0:0:0:
64,192,46913,128,0,47313:0:0:0:0:
448,192,47313,128,8,47713:0:0:0:0:
192,192,47713,128,0,48113:0:0:0:0:
320,192,48113,128,2,49313:0:0:0:0:
192,192,49313,128,0,49713:0:0:0:0:
64,192,49713,128,2,50513:0:0:0:0:
192,192,50513,128,8,51313:0:0:0:0:
448,192,51313,128,2,52113:0:0:0:0:
192,192,52379,1,2,0:0:0:0:
320,192,52779,1,2,0:0:0:0:
64,192,52913,128,2,53313:0:0:0:0:
192,192,53313,128,0,53713:0:0:0:0:
64,192,53979,1,0,0:0:0:0:
192,192,54379,1,0,0:0:0:0:
448,192,54513,128,2,54913:0:0:0:0:
320,192,54913,128,2,55313:0:0:0:0:
448,192,55713,1,0,0:0:0:0:
64,192,55979,1,0,0:0:0:0:
320,192,56113,128,2,56513:0:0:0:0:
192,192,56513,128,0,56913:0:0:0:0:
448,192,57179,1,0,0:0:0:0:
192,192,57579,1,0,0:0:0:0:
320,192,57713,128,2,58113:0:0:0:0:
192,192,58113,128,2,58513:0:0:0:0:
320,192,58913,1,0,0:0:0:0:
448,192,59179,1,0,0:0:0:0:
64,192,59313,128,2,59713:0:0:0:0:
192,192,59713,128,0,60113:0:0:0:0:
64,192,60379,1,0,0:0:0:0:
320,192,60779,1,0,0:0:0:0:
192,192,60913,128,2,61313:0:0:0:0:
64,192,61313,128,2,61713:0:0:0:0:
192,192,62113,1,0,0:0:0:0:
448,192,62379,1,0,0:0:0:0:
64,192,62513,128,2,62913:0:0:0:0:
192,192,62913,128,0,63313:0:0:0:0:
320,192,63579,1,2,0:0:0:0:
64,192,63713,128,0,64113:0:0:0:0:
448,192,64113,128,2,64513:0:0:0:0:
320,192,64513,128,0,64913:0:0:0:0:
192,192,65313,1,0,0:0:0:0:
448,192,65579,1,2,0:0:0:0:
64,192,65713,128,2,66113:0:0:0:0:
192,192,66113,128,0,66513:0:0:0:0:
64,192,66779,1,0,0:0:0:0:
192,192,67179,1,0,0:0:0:0:
448,192,67313,128,2,67713:0:0:0:0:
320,192,67713,128,2,68113:0:0:0:0:
448,192,68513,1,0,0:0:0:0:
64,192,68779,1,0,0:0:0:0:
320,192,68913,128,2,69313:0:0:0:0:
192,192,69313,128,0,69713:0:0:0:0:
448,192,70113,128,0,70513:0:0:0:0:
192,192,70513,128,2,70913:0:0:0:0:
320,192,70913,128,2,71313:0:0:0:0:
192,192,71713,1,0,0:0:0:0:
448,192,71979,1,0,0:0:0:0:
64,192,72113,128,2,72513:0:0:0:0:
192,192,72513,128,0,72913:0:0:0:0:
64,192,73179,1,0,0:0:0:0:
320,192,73579,1,0,0:0:0:0:
192,192,73713,128,2,74113:0:0:0:0:
64,192,74113,128,2,74513:0:0:0:0:
320,192,74913,1,0,0:0:0:0:
448,192,75179,1,0,0:0:0:0:
64,192,75313,128,2,75713:0:0:0:0:
320,192,75713,128,0,76113:0:0:0:0:
64,192,76113,128,8,76513:0:0:0:0:
320,192,76513,128,0,76913:0:0:0:0:
192,192,76913,128,0,78471:0:0:0:0:
64,192,78471,128,0,78861:0:0:0:0:
192,192,78861,128,0,79250:0:0:0:0:
448,192,79250,128,0,79640:0:0:0:0:
320,192,79640,128,0,80029:0:0:0:0:
448,192,80029,128,0,81588:0:0:0:0:
192,192,81588,128,0,83146:0:0:0:0:
64,192,83146,128,0,84705:0:0:0:0:
320,192,84705,128,0,85094:0:0:0:0:
192,192,85094,128,0,85484:0:0:0:0:
448,192,85484,128,0,85874:0:0:0:0:
192,192,85874,128,0,86263:0:0:0:0:
320,192,86263,128,0,87822:0:0:0:0:
192,192,87822,128,0,89770:0:0:0:0:
