osu file format v14

[General]
AudioFilename: audio.mp3
AudioLeadIn: 0
PreviewTime: 12913
Countdown: 0
SampleSet: Normal
StackLeniency: 0.7
Mode: 3
LetterboxInBreaks: 0
SpecialStyle: 0
WidescreenStoryboard: 0

[Editor]
Bookmarks: 52113
DistanceSpacing: 0.5
BeatDivisor: 6
GridSize: 4
TimelineZoom: 1.6

[Metadata]
Title:i wonder.
TitleUnicode:i wonder.
Artist:rainlord.
ArtistUnicode:rainlord.
Creator:Nihilese
Version:advanced.
Source:
Tags:lofi lo-fi chill beat instrumental amore mio aiutami main theme maestro piero piccioni electronic ethan.
BeatmapID:2087790
BeatmapSetID:998152

[Difficulty]
HPDrainRate:8
CircleSize:4
OverallDifficulty:8
ApproachRate:5
SliderMultiplier:1.4
SliderTickRate:1

[Events]
//Background and Video events
0,0,"4.jpg",0,0
//Break Periods
//Storyboard Layer 0 (Background)
//Storyboard Layer 1 (Fail)
//Storyboard Layer 2 (Pass)
//Storyboard Layer 3 (Foreground)
//Storyboard Layer 4 (Overlay)
//Storyboard Sound Samples

[TimingPoints]
113,800,4,1,1,50,1,0
12113,-151.515151515152,4,1,1,50,0,0
12379,-75.187969924812,4,1,1,50,0,0
12513,-151.515151515152,4,1,1,50,0,0
12779,-75.187969924812,4,1,1,50,0,0
12913,-100,4,1,1,50,0,0
31179,-151.515151515152,4,1,1,50,0,0
31579,-75.187969924812,4,1,1,50,0,0
31713,-151.515151515152,4,1,1,50,0,0
31979,-75.187969924812,4,1,1,50,0,0
32113,-100,4,1,1,50,0,0
52113,-303.030303030303,4,1,1,50,0,0
52313,-44.0528634361233,4,1,1,50,0,0
52379,-100,4,1,1,50,0,0
52513,-303.030303030303,4,1,1,50,0,0
52713,-44.0528634361233,4,1,1,50,0,0
52779,-100,4,1,1,50,0,0
53713,-303.030303030303,4,1,1,50,0,0
53913,-44.0528634361233,4,1,1,50,0,0
53979,-100,4,1,1,50,0,0
54113,-303.030303030303,4,1,1,50,0,0
54313,-44.0528634361233,4,1,1,50,0,0
54379,-100,4,1,1,50,0,0
55313,-303.030303030303,4,1,1,50,0,0
55646,-44.0528634361233,4,1,1,50,0,0
55713,-303.030303030303,4,1,1,50,0,0
55913,-44.0528634361233,4,1,1,50,0,0
55979,-100,4,1,1,50,0,0
56913,-303.030303030303,4,1,1,50,0,0
57113,-44.0528634361233,4,1,1,50,0,0
57179,-100,4,1,1,50,0,0
57313,-303.030303030303,4,1,1,50,0,0
57513,-44.0528634361233,4,1,1,50,0,0
57579,-100,4,1,1,50,0,0
58513,-303.030303030303,4,1,1,50,0,0
58846,-44.0528634361233,4,1,1,50,0,0
58913,-303.030303030303,4,1,1,50,0,0
59113,-44.0528634361233,4,1,1,50,0,0
59179,-100,4,1,1,50,0,0
60113,-303.030303030303,4,1,1,50,0,0
60313,-44.0528634361233,4,1,1,50,0,0
60379,-100,4,1,1,50,0,0
60513,-303.030303030303,4,1,1,50,0,0
60713,-44.0528634361233,4,1,1,50,0,0
60779,-100,4,1,1,50,0,0
61713,-303.030303030303,4,1,1,50,0,0
62046,-44.0528634361233,4,1,1,50,0,0
62113,-303.030303030303,4,1,1,50,0,0
62313,-44.0528634361233,4,1,1,50,0,0
62379,-100,4,1,1,50,0,0
63313,-303.030303030303,4,1,1,50,0,0
63513,-44.0528634361233,4,1,1,50,0,0
63579,-100,4,1,1,50,0,0
64913,-303.030303030303,4,1,1,50,0,0
65246,-44.0528634361233,4,1,1,50,0,0
65313,-303.030303030303,4,1,1,50,0,0
65513,-44.0528634361233,4,1,1,50,0,0
65579,-100,4,1,1,50,0,0
66513,-303.030303030303,4,1,1,50,0,0
66713,-44.0528634361233,4,1,1,50,0,0
66779,-100,4,1,1,50,0,0
66913,-303.030303030303,4,1,1,50,0,0
67113,-44.0528634361233,4,1,1,50,0,0
67179,-100,4,1,1,50,0,0
68113,-303.030303030303,4,1,1,50,0,0
68446,-44.0528634361233,4,1,1,50,0,0
68513,-303.030303030303,4,1,1,50,0,0
68713,-44.0528634361233,4,1,1,50,0,0
68779,-100,4,1,1,50,0,0
69713,-303.030303030303,4,1,1,50,0,0
70046,-44.0528634361233,4,1,1,50,0,0
70113,-100,4,1,1,50,0,0
71313,-303.030303030303,4,1,1,50,0,0
71646,-44.0528634361233,4,1,1,50,0,0
71713,-303.030303030303,4,1,1,50,0,0
71913,-44.0528634361233,4,1,1,50,0,0
71979,-100,4,1,1,50,0,0
72913,-303.030303030303,4,1,1,50,0,0
73113,-44.0528634361233,4,1,1,50,0,0
73179,-100,4,1,1,50,0,0
73313,-303.030303030303,4,1,1,50,0,0
73513,-44.0528634361233,4,1,1,50,0,0
73579,-100,4,1,1,50,0,0
74513,-303.030303030303,4,1,1,50,0,0
74846,-44.0528634361233,4,1,1,50,0,0
74913,-303.030303030303,4,1,1,50,0,0
75113,-44.0528634361233,4,1,1,50,0,0
75179,-100,4,1,1,50,0,0
76913,779.220779220779,4,1,1,50,1,0

[HitObjects]
448,192,513,128,0,1713:0:0:0:0:
64,192,1713,128,0,2113:0:0:0:0:
192,192,2113,128,0,2513:0:0:0:0:
320,192,2513,128,0,2913:0:0:0:0:
192,192,2913,128,0,3313:0:0:0:0:
448,192,3313,128,0,4913:0:0:0:0:
192,192,4913,128,0,6513:0:0:0:0:
64,192,6513,128,0,8113:0:0:0:0:
320,192,8113,128,0,8513:0:0:0:0:
192,192,8513,128,0,8913:0:0:0:0:
320,192,8913,128,0,9313:0:0:0:0:
448,192,9313,128,0,9713:0:0:0:0:
192,192,9713,128,0,11313:0:0:0:0:
64,192,11313,128,0,12113:0:0:0:0:
192,192,11979,1,2,0:0:0:0:
320,192,12113,1,0,0:0:0:0:
448,192,12113,1,8,0:0:0:0:
192,192,12379,1,2,0:0:0:0:
448,192,12513,1,2,0:0:0:0:
320,192,12779,1,2,0:0:0:0:
64,192,12913,1,2,0:0:0:0:
192,192,12913,128,0,14513:0:0:0:0:
448,192,13313,1,0,0:0:0:0:
64,192,13579,1,0,0:0:0:0:
320,192,13713,1,0,0:0:0:0:
448,192,13713,1,8,0:0:0:0:
64,192,14113,1,0,0:0:0:0:
448,192,14379,1,2,0:0:0:0:
64,192,14513,128,0,14913:0:0:0:0:
320,192,14513,1,2,0:0:0:0:
320,192,14913,128,0,15313:0:0:0:0:
192,192,14913,1,0,0:0:0:0:
64,192,15179,1,0,0:0:0:0:
448,192,15313,128,0,15713:0:0:0:0:
192,192,15313,1,8,0:0:0:0:
192,192,15713,128,0,16113:0:0:0:0:
320,192,15713,1,0,0:0:0:0:
448,192,16113,128,0,17713:0:0:0:0:
64,192,16113,1,2,0:0:0:0:
320,192,16513,1,2,0:0:0:0:
64,192,16779,1,0,0:0:0:0:
192,192,16913,1,0,0:0:0:0:
320,192,16913,1,8,0:0:0:0:
192,192,17313,1,0,0:0:0:0:
192,192,17713,128,0,19313:0:0:0:0:
64,192,17713,1,2,0:0:0:0:
448,192,18113,1,0,0:0:0:0:
64,192,18379,1,2,0:0:0:0:
320,192,18513,1,0,0:0:0:0:
448,192,18513,1,8,0:0:0:0:
64,192,18913,1,0,0:0:0:0:
64,192,19313,128,0,20913:0:0:0:0:
320,192,19313,1,2,0:0:0:0:
448,192,19713,1,2,0:0:0:0:
192,192,19979,1,0,0:0:0:0:
320,192,20113,1,0,0:0:0:0:
448,192,20113,1,8,0:0:0:0:
448,192,20513,1,0,0:0:0:0:
320,192,20913,128,0,21313:0:0:0:0:
192,192,20913,1,2,0:0:0:0:
64,192,21313,128,0,21713:0:0:0:0:
448,192,21313,1,0,0:0:0:0:
192,192,21579,1,2,0:0:0:0:
448,192,21713,128,0,22113:0:0:0:0:
320,192,21713,1,8,0:0:0:0:
192,192,22113,128,0,22513:0:0:0:0:
64,192,22113,1,0,0:0:0:0:
320,192,22513,128,2,24113:0:0:0:0:
64,192,22513,1,0,0:0:0:0:
448,192,22779,1,2,0:0:0:0:
192,192,22913,1,2,0:0:0:0:
64,192,23179,1,0,0:0:0:0:
192,192,23313,1,8,0:0:0:0:
448,192,23313,1,0,0:0:0:0:
448,192,23713,1,0,0:0:0:0:
192,192,24113,1,2,0:0:0:0:
64,192,24113,128,0,25713:0:0:0:0:
448,192,24513,1,0,0:0:0:0:
192,192,24779,1,0,0:0:0:0:
448,192,24913,1,8,0:0:0:0:
320,192,24913,1,0,0:0:0:0:
192,192,25179,1,2,0:0:0:0:
320,192,25579,1,2,0:0:0:0:
192,192,25713,128,0,26779:0:0:0:0:
448,192,25713,1,2,0:0:0:0:
448,192,26113,1,0,0:0:0:0:
64,192,26379,1,0,0:0:0:0:
320,192,26513,1,0,0:0:0:0:
448,192,26513,1,8,0:0:0:0:
64,192,26913,1,0,0:0:0:0:
192,192,26913,128,0,27046:0:0:0:0:
448,192,27179,1,2,0:0:0:0:
192,192,27179,128,0,27313:0:0:0:0:
64,192,27313,128,0,27713:0:0:0:0:
320,192,27313,1,2,0:0:0:0:
320,192,27713,128,0,28113:0:0:0:0:
192,192,27713,1,0,0:0:0:0:
448,192,27979,1,0,0:0:0:0:
64,192,28113,128,0,28513:0:0:0:0:
192,192,28113,1,8,0:0:0:0:
320,192,28513,128,0,28913:0:0:0:0:
192,192,28513,1,0,0:0:0:0:
448,192,28913,128,0,29179:0:0:0:0:
64,192,28913,1,2,0:0:0:0:
320,192,29313,1,2,0:0:0:0:
448,192,29313,128,0,29979:0:0:0:0:
64,192,29579,1,0,0:0:0:0:
192,192,29713,1,0,0:0:0:0:
320,192,29713,1,8,0:0:0:0:
192,192,30113,1,0,0:0:0:0:
448,192,30113,128,0,30513:0:0:0:0:
192,192,30513,128,0,31313:0:0:0:0:
64,192,30513,1,2,0:0:0:0:
448,192,30913,1,0,0:0:0:0:
64,192,31179,1,2,0:0:0:0:
64,192,31579,1,2,0:0:0:0:
320,192,31713,1,0,0:0:0:0:
320,192,31979,1,2,0:0:0:0:
192,192,32113,1,2,0:0:0:0:
64,192,32113,128,0,32379:0:0:0:0:
448,192,32513,1,2,0:0:0:0:
64,192,32513,128,0,33179:0:0:0:0:
192,192,32779,1,0,0:0:0:0:
320,192,32913,1,0,0:0:0:0:
448,192,32913,1,8,0:0:0:0:
448,192,33313,1,0,0:0:0:0:
64,192,33313,128,0,33713:0:0:0:0:
320,192,33713,128,0,34113:0:0:0:0:
192,192,33713,1,2,0:0:0:0:
64,192,34113,128,0,34513:0:0:0:0:
448,192,34113,1,0,0:0:0:0:
192,192,34379,1,2,0:0:0:0:
320,192,34513,128,0,34913:0:0:0:0:
448,192,34513,1,8,0:0:0:0:
64,192,34913,128,0,35313:0:0:0:0:
192,192,34913,1,0,0:0:0:0:
320,192,35313,128,0,36379:0:0:0:0:
192,192,35313,1,2,0:0:0:0:
448,192,35579,1,2,0:0:0:0:
192,192,35713,1,2,0:0:0:0:
64,192,35979,1,0,0:0:0:0:
192,192,36113,1,0,0:0:0:0:
448,192,36113,1,8,0:0:0:0:
448,192,36513,1,0,0:0:0:0:
320,192,36513,128,0,36913:0:0:0:0:
64,192,36913,128,0,37579:0:0:0:0:
192,192,36913,1,2,0:0:0:0:
448,192,37313,1,0,0:0:0:0:
320,192,37579,1,0,0:0:0:0:
192,192,37713,1,8,0:0:0:0:
64,192,37713,128,0,38513:0:0:0:0:
320,192,37979,1,2,0:0:0:0:
320,192,38379,1,2,0:0:0:0:
192,192,38513,128,0,40113:0:0:0:0:
448,192,38513,1,2,0:0:0:0:
448,192,38913,1,0,0:0:0:0:
64,192,39179,1,0,0:0:0:0:
320,192,39313,1,0,0:0:0:0:
448,192,39313,1,8,0:0:0:0:
64,192,39713,1,0,0:0:0:0:
448,192,39979,1,2,0:0:0:0:
64,192,40113,128,0,40513:0:0:0:0:
320,192,40113,1,2,0:0:0:0:
320,192,40513,128,0,40913:0:0:0:0:
192,192,40513,1,0,0:0:0:0:
64,192,40779,1,0,0:0:0:0:
448,192,40913,128,0,41313:0:0:0:0:
192,192,40913,1,8,0:0:0:0:
192,192,41313,128,0,41713:0:0:0:0:
320,192,41313,1,0,0:0:0:0:
320,192,41579,128,0,41713:0:0:0:0:
448,192,41713,128,0,42513:0:0:0:0:
64,192,41713,128,2,41979:0:0:0:0:
192,192,41979,128,0,42113:0:0:0:0:
320,192,42113,1,2,0:0:0:0:
64,192,42379,128,0,42513:0:0:0:0:
192,192,42513,1,8,0:0:0:0:
320,192,42513,128,0,42913:0:0:0:0:
64,192,42913,1,0,0:0:0:0:
192,192,43113,128,0,43313:0:0:0:0:
448,192,43313,128,0,43513:0:0:0:0:
320,192,43313,1,2,0:0:0:0:
320,192,43579,128,0,43713:0:0:0:0:
448,192,43713,128,0,43979:0:0:0:0:
192,192,43713,1,0,0:0:0:0:
64,192,43979,128,0,44113:0:0:0:0:
192,192,43979,1,2,0:0:0:0:
320,192,44113,128,0,44646:0:0:0:0:
448,192,44113,1,8,0:0:0:0:
192,192,44513,1,0,0:0:0:0:
448,192,44779,128,0,44913:0:0:0:0:
320,192,44913,128,2,45179:0:0:0:0:
64,192,44913,128,0,45179:0:0:0:0:
192,192,45179,128,0,45313:0:0:0:0:
448,192,45313,128,2,45579:0:0:0:0:
64,192,45313,128,0,45979:0:0:0:0:
192,192,45579,128,0,45713:0:0:0:0:
448,192,45713,1,8,0:0:0:0:
320,192,45713,128,0,45846:0:0:0:0:
192,192,45979,128,0,46113:0:0:0:0:
448,192,46113,128,0,46246:0:0:0:0:
64,192,46113,128,0,46513:0:0:0:0:
448,192,46379,128,0,46513:0:0:0:0:
320,192,46513,128,0,46913:0:0:0:0:
192,192,46513,128,2,46646:0:0:0:0:
448,192,46779,128,0,46913:0:0:0:0:
64,192,46913,128,0,47313:0:0:0:0:
192,192,46913,128,0,47046:0:0:0:0:
192,192,47179,128,2,47313:0:0:0:0:
448,192,47313,128,0,47713:0:0:0:0:
320,192,47313,128,8,47579:0:0:0:0:
192,192,47713,128,0,48113:0:0:0:0:
64,192,47713,1,0,0:0:0:0:
64,192,48113,1,2,0:0:0:0:
320,192,48113,128,0,49179:0:0:0:0:
448,192,48379,1,2,0:0:0:0:
192,192,48513,1,2,0:0:0:0:
64,192,48779,1,0,0:0:0:0:
192,192,48913,1,0,0:0:0:0:
448,192,48913,1,8,0:0:0:0:
448,192,49313,1,0,0:0:0:0:
320,192,49313,128,0,49713:0:0:0:0:
192,192,49713,1,2,0:0:0:0:
64,192,49713,128,0,50379:0:0:0:0:
448,192,50113,1,0,0:0:0:0:
192,192,50379,1,0,0:0:0:0:
448,192,50513,1,8,0:0:0:0:
64,192,50513,128,0,51179:0:0:0:0:
192,192,50779,1,2,0:0:0:0:
320,192,51179,1,2,0:0:0:0:
448,192,51313,128,2,52113:0:0:0:0:
192,192,52113,1,8,0:0:0:0:
64,192,52113,1,0,0:0:0:0:
192,192,52379,1,2,0:0:0:0:
320,192,52513,1,0,0:0:0:0:
320,192,52779,128,0,52913:0:0:0:0:
448,192,52779,1,2,0:0:0:0:
64,192,52913,128,0,53179:0:0:0:0:
192,192,52913,1,2,0:0:0:0:
64,192,53313,128,0,53713:0:0:0:0:
320,192,53313,1,0,0:0:0:0:
192,192,53579,1,0,0:0:0:0:
320,192,53713,1,0,0:0:0:0:
448,192,53713,1,8,0:0:0:0:
192,192,53979,128,0,54113:0:0:0:0:
64,192,54113,1,0,0:0:0:0:
320,192,54379,128,0,54513:0:0:0:0:
448,192,54513,128,0,54779:0:0:0:0:
192,192,54513,1,2,0:0:0:0:
192,192,54913,1,2,0:0:0:0:
448,192,54913,128,0,55313:0:0:0:0:
320,192,55179,1,0,0:0:0:0:
192,192,55313,1,8,0:0:0:0:
64,192,55313,1,0,0:0:0:0:
64,192,55713,1,0,0:0:0:0:
192,192,55979,128,0,56113:0:0:0:0:
320,192,56113,128,0,56379:0:0:0:0:
448,192,56113,1,2,0:0:0:0:
320,192,56513,128,0,56913:0:0:0:0:
192,192,56513,1,0,0:0:0:0:
448,192,56779,1,2,0:0:0:0:
192,192,56913,1,8,0:0:0:0:
64,192,56913,1,0,0:0:0:0:
448,192,57179,128,0,57313:0:0:0:0:
192,192,57313,1,0,0:0:0:0:
320,192,57579,128,0,57713:0:0:0:0:
192,192,57713,128,0,57979:0:0:0:0:
64,192,57713,1,2,0:0:0:0:
192,192,58113,128,0,58513:0:0:0:0:
320,192,58113,1,2,0:0:0:0:
64,192,58379,1,0,0:0:0:0:
320,192,58513,1,0,0:0:0:0:
448,192,58513,1,8,0:0:0:0:
320,192,58913,1,0,0:0:0:0:
192,192,59179,128,0,59313:0:0:0:0:
64,192,59313,128,0,59579:0:0:0:0:
448,192,59313,1,2,0:0:0:0:
64,192,59713,128,0,60113:0:0:0:0:
320,192,59713,1,0,0:0:0:0:
192,192,59979,1,2,0:0:0:0:
320,192,60113,1,8,0:0:0:0:
448,192,60113,1,0,0:0:0:0:
64,192,60379,128,0,60513:0:0:0:0:
192,192,60513,1,0,0:0:0:0:
320,192,60779,128,0,60913:0:0:0:0:
192,192,60913,128,0,61179:0:0:0:0:
64,192,60913,1,2,0:0:0:0:
320,192,61179,1,2,0:0:0:0:
192,192,61313,128,0,61713:0:0:0:0:
448,192,61313,1,2,0:0:0:0:
64,192,61579,1,0,0:0:0:0:
320,192,61713,1,0,0:0:0:0:
448,192,61713,1,8,0:0:0:0:
320,192,62113,1,0,0:0:0:0:
192,192,62379,128,0,62513:0:0:0:0:
64,192,62513,128,0,62779:0:0:0:0:
320,192,62513,1,2,0:0:0:0:
64,192,62913,128,0,63313:0:0:0:0:
448,192,62913,1,0,0:0:0:0:
192,192,63179,1,0,0:0:0:0:
320,192,63313,1,0,0:0:0:0:
448,192,63313,1,8,0:0:0:0:
320,192,63579,1,2,0:0:0:0:
64,192,63713,128,0,64113:0:0:0:0:
192,192,63713,1,0,0:0:0:0:
192,192,63979,1,2,0:0:0:0:
448,192,64113,128,2,64379:0:0:0:0:
192,192,64513,1,0,0:0:0:0:
448,192,64513,128,0,64913:0:0:0:0:
320,192,64779,1,0,0:0:0:0:
192,192,64913,1,8,0:0:0:0:
64,192,64913,1,0,0:0:0:0:
192,192,65313,1,0,0:0:0:0:
320,192,65579,128,0,65713:0:0:0:0:
448,192,65579,1,2,0:0:0:0:
64,192,65713,128,0,65979:0:0:0:0:
192,192,65713,1,2,0:0:0:0:
64,192,66113,128,0,66513:0:0:0:0:
320,192,66113,1,0,0:0:0:0:
192,192,66379,1,0,0:0:0:0:
320,192,66513,1,0,0:0:0:0:
448,192,66513,1,8,0:0:0:0:
192,192,66779,128,0,66913:0:0:0:0:
64,192,66913,1,0,0:0:0:0:
320,192,67179,128,0,67313:0:0:0:0:
448,192,67313,128,0,67579:0:0:0:0:
192,192,67313,1,2,0:0:0:0:
192,192,67713,1,2,0:0:0:0:
448,192,67713,128,0,68113:0:0:0:0:
320,192,67979,1,0,0:0:0:0:
192,192,68113,1,8,0:0:0:0:
64,192,68113,1,0,0:0:0:0:
64,192,68513,1,0,0:0:0:0:
192,192,68779,128,0,68913:0:0:0:0:
320,192,68913,128,0,69179:0:0:0:0:
448,192,68913,1,2,0:0:0:0:
320,192,69313,128,0,69713:0:0:0:0:
192,192,69313,1,0,0:0:0:0:
448,192,69579,1,2,0:0:0:0:
192,192,69713,1,8,0:0:0:0:
64,192,69713,1,0,0:0:0:0:
320,192,70113,128,0,70513:0:0:0:0:
448,192,70113,1,0,0:0:0:0:
192,192,70513,128,0,70779:0:0:0:0:
64,192,70513,1,2,0:0:0:0:
192,192,70913,128,0,71313:0:0:0:0:
320,192,70913,1,2,0:0:0:0:
64,192,71179,1,0,0:0:0:0:
320,192,71313,1,0,0:0:0:0:
448,192,71313,1,8,0:0:0:0:
320,192,71713,1,0,0:0:0:0:
192,192,71979,128,0,72113:0:0:0:0:
64,192,72113,128,0,72379:0:0:0:0:
448,192,72113,1,2,0:0:0:0:
64,192,72513,128,0,72913:0:0:0:0:
320,192,72513,1,0,0:0:0:0:
192,192,72779,1,2,0:0:0:0:
320,192,72913,1,0,0:0:0:0:
448,192,72913,1,8,0:0:0:0:
64,192,73179,128,0,73313:0:0:0:0:
192,192,73313,1,0,0:0:0:0:
320,192,73579,128,0,73713:0:0:0:0:
192,192,73713,128,0,73979:0:0:0:0:
64,192,73713,1,2,0:0:0:0:
320,192,73979,1,2,0:0:0:0:
192,192,74113,128,0,74513:0:0:0:0:
448,192,74113,1,2,0:0:0:0:
64,192,74379,1,0,0:0:0:0:
320,192,74513,1,0,0:0:0:0:
448,192,74513,1,8,0:0:0:0:
320,192,74913,1,0,0:0:0:0:
192,192,75179,128,0,75313:0:0:0:0:
64,192,75313,128,0,75579:0:0:0:0:
320,192,75313,1,2,0:0:0:0:
64,192,75713,128,0,75979:0:0:0:0:
448,192,75713,1,0,0:0:0:0:
192,192,75979,1,0,0:0:0:0:
448,192,76113,1,8,0:0:0:0:
64,192,76113,128,0,76379:0:0:0:0:
320,192,76379,1,2,0:0:0:0:
64,192,76513,128,0,76913:0:0:0:0:
192,192,76513,1,0,0:0:0:0:
192,192,76779,1,2,0:0:0:0:
320,192,76913,128,0,78471:0:0:0:0:
64,192,78471,128,0,78861:0:0:0:0:
192,192,78861,128,0,79250:0:0:0:0:
448,192,79250,128,0,79640:0:0:0:0:
320,192,79640,128,0,80029:0:0:0:0:
448,192,80029,128,0,81588:0:0:0:0:
192,192,81588,128,0,83146:0:0:0:0:
64,192,83146,128,0,84705:0:0:0:0:
320,192,84705,128,0,85094:0:0:0:0:
192,192,85094,128,0,85484:0:0:0:0:
448,192,85484,128,0,85874:0:0:0:0:
192,192,85874,128,0,86263:0:0:0:0:
320,192,86263,128,0,87822:0:0:0:0:
192,192,87822,128,0,89770:0:0:0:0:
