osu file format v14

[General]
AudioFilename: audio.mp3
AudioLeadIn: 0
PreviewTime: 29730
Countdown: 0
SampleSet: Soft
StackLeniency: 0.7
Mode: 3
LetterboxInBreaks: 0
SpecialStyle: 0
WidescreenStoryboard: 0
SamplesMatchPlaybackRate: 1

[Editor]
DistanceSpacing: 2
BeatDivisor: 16
GridSize: 8
TimelineZoom: 0.9000001

[Metadata]
Title:Stronger than you
TitleUnicode:Stronger than you
Artist:rachie/djsmell/Milkychan
ArtistUnicode:rachie/djsmell/Milkychan
Creator:Alyxia
Version:Frisk
Source:
Tags:
BeatmapID:1098235
BeatmapSetID:516817

[Difficulty]
HPDrainRate:5
CircleSize:4
OverallDifficulty:6
ApproachRate:5
SliderMultiplier:1.2
SliderTickRate:1

[Events]
//Background and Video events
0,0,"frisk_wallpaper_by_shinjifurokawa-d9hkv67.jpg",0,0
//Break Periods
//Storyboard Layer 0 (Background)
//Storyboard Layer 1 (Fail)
//Storyboard Layer 2 (Pass)
//Storyboard Layer 3 (Foreground)
//Storyboard Sound Samples

[TimingPoints]
636.575676979751,500,4,2,1,0,1,0
29699,-100,4,2,1,0,0,1
50199,-100,4,2,1,0,0,0
88761,-100,4,2,1,0,0,1
108636,-100,4,2,1,0,0,0
130386,-100,4,2,1,0,0,1
140324,-100,4,2,1,0,0,0
154152,-100,4,2,0,0,0,0

[HitObjects]
192,192,636,128,0,1261:0:0:0:0:
64,192,636,128,0,1261:0:0:0:0:
448,192,949,1,0,0:0:0:0:
320,192,1261,1,0,0:0:0:0:
320,192,1855,128,0,2480:0:0:0:0:
192,192,1855,128,0,2167:0:0:0:0:
64,192,2167,1,0,0:0:0:0:
192,192,2480,1,0,0:0:0:0:
320,192,3074,128,0,3699:0:0:0:0:
448,192,3074,128,0,3699:0:0:0:0:
64,192,3386,1,0,0:0:0:0:
192,192,3699,1,0,0:0:0:0:
64,192,4324,128,0,4949:0:0:0:0:
192,192,4324,128,0,4949:0:0:0:0:
320,192,4605,1,0,0:0:0:0:
448,192,4917,128,0,5386:0:0:0:0:
320,192,5542,128,0,6167:0:0:0:0:
64,192,5542,128,0,6167:0:0:0:0:
192,192,5855,1,0,0:0:0:0:
448,192,6136,1,0,0:0:0:0:
320,192,6761,128,0,7386:0:0:0:0:
448,192,6761,128,0,7386:0:0:0:0:
192,192,7074,1,0,0:0:0:0:
64,192,7386,1,0,0:0:0:0:
64,192,7980,128,0,8136:0:0:0:0:
192,192,7980,128,0,8449:0:0:0:0:
320,192,7980,128,0,8730:0:0:0:0:
448,192,7980,128,0,9042:0:0:0:0:
64,192,8292,1,0,0:0:0:0:
192,192,8605,1,0,0:0:0:0:
320,192,8886,1,0,0:0:0:0:
448,192,9199,1,0,0:0:0:0:
64,192,10417,128,0,11167:0:0:0:0:
192,192,10417,128,0,11167:0:0:0:0:
448,192,10417,128,0,11167:0:0:0:0:
192,192,11355,1,0,0:0:0:0:
320,192,11511,1,0,0:0:0:0:
64,192,11667,128,0,12417:0:0:0:0:
192,192,11667,128,0,12417:0:0:0:0:
448,192,11667,128,0,12417:0:0:0:0:
64,192,12886,128,0,13636:0:0:0:0:
192,192,12886,128,0,13636:0:0:0:0:
320,192,12886,128,0,13636:0:0:0:0:
448,192,12886,128,0,13636:0:0:0:0:
448,192,13949,1,0,0:0:0:0:
64,192,14105,128,0,14574:0:0:0:0:
192,192,14105,128,0,14574:0:0:0:0:
320,192,14417,1,0,0:0:0:0:
448,192,14730,1,0,0:0:0:0:
320,192,15011,1,0,0:0:0:0:
192,192,15324,128,0,16074:0:0:0:0:
320,192,15324,128,0,16074:0:0:0:0:
192,192,16261,1,0,0:0:0:0:
320,192,16386,1,0,0:0:0:0:
448,192,16542,128,0,17449:0:0:0:0:
192,192,16542,128,0,17449:0:0:0:0:
64,192,16542,128,0,17449:0:0:0:0:
320,192,17636,1,0,0:0:0:0:
448,192,17792,128,0,20074:0:0:0:0:
320,192,17792,128,0,20074:0:0:0:0:
192,192,17792,128,0,20074:0:0:0:0:
64,192,17792,128,0,20074:0:0:0:0:
320,192,20230,128,0,20980:0:0:0:0:
448,192,20230,128,0,20980:0:0:0:0:
320,192,21136,1,0,0:0:0:0:
192,192,21136,1,0,0:0:0:0:
64,192,21449,128,0,22230:0:0:0:0:
192,192,21449,128,0,22230:0:0:0:0:
64,192,22386,1,0,0:0:0:0:
320,192,22386,1,0,0:0:0:0:
320,192,22667,128,0,23417:0:0:0:0:
448,192,22667,128,0,23417:0:0:0:0:
192,192,23886,128,0,24355:0:0:0:0:
320,192,23886,128,0,24355:0:0:0:0:
448,192,23886,128,0,24355:0:0:0:0:
448,192,24511,128,0,24980:0:0:0:0:
192,192,24511,128,0,24980:0:0:0:0:
64,192,24511,128,0,24980:0:0:0:0:
64,192,25136,128,0,25605:0:0:0:0:
320,192,25136,128,0,25605:0:0:0:0:
448,192,25136,128,0,25605:0:0:0:0:
192,192,26355,128,0,26824:0:0:0:0:
448,192,26355,128,0,26824:0:0:0:0:
320,192,26355,128,0,26824:0:0:0:0:
64,192,27574,128,0,29417:0:0:0:0:
192,192,27574,128,0,29417:0:0:0:0:
448,192,27574,128,0,29417:0:0:0:0:
320,192,27574,128,0,29417:0:0:0:0:
64,192,29730,1,0,0:0:0:0:
64,192,30011,1,0,0:0:0:0:
192,192,30324,1,0,0:0:0:0:
320,192,30636,1,0,0:0:0:0:
448,192,30792,1,0,0:0:0:0:
320,192,30949,1,0,0:0:0:0:
192,192,31105,1,0,0:0:0:0:
320,192,31261,1,0,0:0:0:0:
64,192,31542,1,0,0:0:0:0:
320,192,32167,1,0,0:0:0:0:
448,192,32167,1,0,0:0:0:0:
320,192,32480,1,0,0:0:0:0:
192,192,32480,1,0,0:0:0:0:
192,192,32792,1,0,0:0:0:0:
192,192,32917,1,0,0:0:0:0:
64,192,33074,1,0,0:0:0:0:
192,192,33230,1,0,0:0:0:0:
320,192,33386,1,0,0:0:0:0:
192,192,33542,1,0,0:0:0:0:
448,192,33699,128,0,34324:0:0:0:0:
320,192,33699,1,0,0:0:0:0:
192,192,34011,1,0,0:0:0:0:
64,192,34324,1,0,0:0:0:0:
320,192,34605,1,0,0:0:0:0:
64,192,34917,1,0,0:0:0:0:
192,192,34917,1,0,0:0:0:0:
192,192,35230,1,0,0:0:0:0:
320,192,35542,1,0,0:0:0:0:
448,192,35699,1,0,0:0:0:0:
320,192,35855,1,0,0:0:0:0:
192,192,35980,1,0,0:0:0:0:
320,192,36136,1,0,0:0:0:0:
448,192,36136,1,0,0:0:0:0:
64,192,36449,1,0,0:0:0:0:
320,192,36761,1,0,0:0:0:0:
192,192,36980,1,0,0:0:0:0:
192,192,37136,1,0,0:0:0:0:
320,192,37386,1,0,0:0:0:0:
448,192,37386,1,0,0:0:0:0:
64,192,37386,1,0,0:0:0:0:
320,192,37605,1,0,0:0:0:0:
192,192,37824,1,0,0:0:0:0:
64,192,37980,1,0,0:0:0:0:
448,192,38449,1,0,0:0:0:0:
192,192,38605,1,0,0:0:0:0:
192,192,38886,1,0,0:0:0:0:
64,192,39199,1,0,0:0:0:0:
192,192,39261,1,0,0:0:0:0:
320,192,39292,1,0,0:0:0:0:
448,192,39355,1,0,0:0:0:0:
320,192,39511,1,0,0:0:0:0:
192,192,39667,1,0,0:0:0:0:
64,192,39824,1,0,0:0:0:0:
320,192,39824,1,0,0:0:0:0:
448,192,39824,1,0,0:0:0:0:
64,192,40136,1,0,0:0:0:0:
320,192,40417,1,0,0:0:0:0:
448,192,40730,1,0,0:0:0:0:
448,192,40886,1,0,0:0:0:0:
192,192,41042,128,0,41511:0:0:0:0:
64,192,41042,128,0,41511:0:0:0:0:
448,192,41667,1,0,0:0:0:0:
320,192,41824,1,0,0:0:0:0:
192,192,41949,1,0,0:0:0:0:
64,192,42105,1,0,0:0:0:0:
448,192,42261,1,0,0:0:0:0:
320,192,42261,1,0,0:0:0:0:
320,192,42574,1,0,0:0:0:0:
192,192,42886,1,0,0:0:0:0:
320,192,43199,1,0,0:0:0:0:
320,192,43355,1,0,0:0:0:0:
64,192,43480,1,0,0:0:0:0:
192,192,43480,1,0,0:0:0:0:
448,192,43480,1,0,0:0:0:0:
192,192,43792,1,0,0:0:0:0:
448,192,44105,1,0,0:0:0:0:
320,192,44261,1,0,0:0:0:0:
192,192,44417,1,0,0:0:0:0:
64,192,44574,1,0,0:0:0:0:
448,192,44730,1,0,0:0:0:0:
320,192,44730,1,0,0:0:0:0:
192,192,44730,1,0,0:0:0:0:
192,192,45011,1,0,0:0:0:0:
320,192,45011,1,0,0:0:0:0:
320,192,45324,1,0,0:0:0:0:
448,192,45636,1,0,0:0:0:0:
448,192,45792,1,0,0:0:0:0:
64,192,45949,128,0,46730:0:0:0:0:
192,192,45949,128,0,46730:0:0:0:0:
320,192,45949,128,0,46730:0:0:0:0:
320,192,46855,1,0,0:0:0:0:
192,192,47011,1,0,0:0:0:0:
64,192,47167,1,0,0:0:0:0:
64,192,47480,1,0,0:0:0:0:
192,192,47636,1,0,0:0:0:0:
448,192,47917,1,0,0:0:0:0:
320,192,47917,1,0,0:0:0:0:
320,192,48230,1,0,0:0:0:0:
192,192,48230,1,0,0:0:0:0:
192,192,48542,1,0,0:0:0:0:
64,192,48542,1,0,0:0:0:0:
448,192,49011,1,0,0:0:0:0:
320,192,49167,1,0,0:0:0:0:
192,192,49386,1,0,0:0:0:0:
64,192,49605,1,0,0:0:0:0:
192,192,49917,1,0,0:0:0:0:
448,192,49917,1,0,0:0:0:0:
64,192,50230,1,0,0:0:0:0:
192,192,50230,1,0,0:0:0:0:
320,192,50542,1,0,0:0:0:0:
448,192,50855,1,0,0:0:0:0:
320,192,50855,1,0,0:0:0:0:
448,192,51136,1,0,0:0:0:0:
192,192,51292,1,0,0:0:0:0:
320,192,51292,1,0,0:0:0:0:
448,192,51761,1,0,0:0:0:0:
64,192,52074,1,0,0:0:0:0:
448,192,52074,1,0,0:0:0:0:
192,192,52386,1,0,0:0:0:0:
320,192,52667,1,0,0:0:0:0:
448,192,52980,1,0,0:0:0:0:
320,192,53292,1,0,0:0:0:0:
192,192,53292,1,0,0:0:0:0:
64,192,53292,1,0,0:0:0:0:
448,192,53605,1,0,0:0:0:0:
192,192,53761,1,0,0:0:0:0:
64,192,53761,1,0,0:0:0:0:
192,192,54199,1,0,0:0:0:0:
320,192,54199,1,0,0:0:0:0:
448,192,54199,1,0,0:0:0:0:
64,192,54511,1,0,0:0:0:0:
192,192,54824,1,0,0:0:0:0:
320,192,55136,1,0,0:0:0:0:
448,192,55136,1,0,0:0:0:0:
448,192,55417,1,0,0:0:0:0:
192,192,55417,1,0,0:0:0:0:
320,192,55730,1,0,0:0:0:0:
64,192,55730,1,0,0:0:0:0:
192,192,55730,1,0,0:0:0:0:
64,192,56042,1,0,0:0:0:0:
192,192,56199,1,0,0:0:0:0:
64,192,56511,1,0,0:0:0:0:
320,192,56667,1,0,0:0:0:0:
64,192,56949,1,0,0:0:0:0:
448,192,56949,1,0,0:0:0:0:
192,192,57261,1,0,0:0:0:0:
320,192,57574,1,0,0:0:0:0:
64,192,57574,1,0,0:0:0:0:
320,192,57886,1,0,0:0:0:0:
192,192,57886,1,0,0:0:0:0:
448,192,58199,1,0,0:0:0:0:
192,192,58199,1,0,0:0:0:0:
64,192,58199,1,0,0:0:0:0:
448,192,58480,1,0,0:0:0:0:
64,192,58480,1,0,0:0:0:0:
320,192,58480,1,0,0:0:0:0:
320,192,58792,1,0,0:0:0:0:
64,192,59105,1,0,0:0:0:0:
64,192,59417,1,0,0:0:0:0:
320,192,59417,1,0,0:0:0:0:
192,192,59730,1,0,0:0:0:0:
320,192,60011,1,0,0:0:0:0:
448,192,60324,1,0,0:0:0:0:
192,192,60636,1,0,0:0:0:0:
64,192,60636,1,0,0:0:0:0:
448,192,60636,1,0,0:0:0:0:
320,192,60949,1,0,0:0:0:0:
448,192,61105,1,0,0:0:0:0:
192,192,61386,1,0,0:0:0:0:
64,192,61542,1,0,0:0:0:0:
64,192,61855,1,0,0:0:0:0:
192,192,62167,1,0,0:0:0:0:
320,192,62480,1,0,0:0:0:0:
448,192,62792,1,0,0:0:0:0:
192,192,63074,1,0,0:0:0:0:
320,192,63074,1,0,0:0:0:0:
448,192,63386,1,0,0:0:0:0:
192,192,63542,1,0,0:0:0:0:
64,192,63542,1,0,0:0:0:0:
448,192,63855,1,0,0:0:0:0:
320,192,64011,1,0,0:0:0:0:
192,192,64011,1,0,0:0:0:0:
64,192,64324,1,0,0:0:0:0:
192,192,64605,1,0,0:0:0:0:
448,192,64605,1,0,0:0:0:0:
320,192,64917,1,0,0:0:0:0:
448,192,65230,1,0,0:0:0:0:
320,192,65542,1,0,0:0:0:0:
192,192,65542,1,0,0:0:0:0:
64,192,65542,1,0,0:0:0:0:
320,192,65855,1,0,0:0:0:0:
448,192,65980,1,0,0:0:0:0:
192,192,66449,1,0,0:0:0:0:
64,192,66761,1,0,0:0:0:0:
192,192,67074,1,0,0:0:0:0:
320,192,67386,1,0,0:0:0:0:
448,192,67667,1,0,0:0:0:0:
320,192,67980,1,0,0:0:0:0:
192,192,67980,1,0,0:0:0:0:
64,192,67980,1,0,0:0:0:0:
64,192,68292,1,0,0:0:0:0:
192,192,68605,1,0,0:0:0:0:
320,192,68886,1,0,0:0:0:0:
64,192,69199,1,0,0:0:0:0:
64,192,69511,1,0,0:0:0:0:
64,192,69667,1,0,0:0:0:0:
192,192,69980,1,0,0:0:0:0:
320,192,70136,1,0,0:0:0:0:
64,192,71042,1,0,0:0:0:0:
448,192,71355,1,0,0:0:0:0:
320,192,71667,1,0,0:0:0:0:
192,192,71667,1,0,0:0:0:0:
64,192,71667,1,0,0:0:0:0:
192,192,71949,1,0,0:0:0:0:
192,192,72105,1,0,0:0:0:0:
320,192,72417,1,0,0:0:0:0:
448,192,72574,1,0,0:0:0:0:
192,192,73949,1,0,0:0:0:0:
448,192,74105,1,0,0:0:0:0:
320,192,74105,1,0,0:0:0:0:
64,192,74105,1,0,0:0:0:0:
320,192,74417,1,0,0:0:0:0:
192,192,74574,1,0,0:0:0:0:
192,192,74886,1,0,0:0:0:0:
64,192,75167,1,0,0:0:0:0:
192,192,75324,1,0,0:0:0:0:
320,192,75636,1,0,0:0:0:0:
64,192,75949,1,0,0:0:0:0:
448,192,76261,1,0,0:0:0:0:
320,192,76542,1,0,0:0:0:0:
192,192,76542,1,0,0:0:0:0:
64,192,76542,1,0,0:0:0:0:
192,192,76855,1,0,0:0:0:0:
64,192,77011,1,0,0:0:0:0:
320,192,77324,1,0,0:0:0:0:
448,192,77324,1,0,0:0:0:0:
192,192,77636,1,0,0:0:0:0:
448,192,77792,1,0,0:0:0:0:
320,192,77792,1,0,0:0:0:0:
64,192,77792,1,0,0:0:0:0:
64,192,79011,1,0,0:0:0:0:
192,192,79011,1,0,0:0:0:0:
320,192,79011,1,0,0:0:0:0:
64,192,79324,1,0,0:0:0:0:
64,192,79449,1,0,0:0:0:0:
192,192,79761,1,0,0:0:0:0:
320,192,79917,1,0,0:0:0:0:
320,192,80542,1,0,0:0:0:0:
448,192,80855,1,0,0:0:0:0:
64,192,81136,1,0,0:0:0:0:
192,192,81449,1,0,0:0:0:0:
320,192,81449,1,0,0:0:0:0:
448,192,81449,1,0,0:0:0:0:
192,192,81761,1,0,0:0:0:0:
192,192,81917,1,0,0:0:0:0:
64,192,82230,1,0,0:0:0:0:
448,192,82386,1,0,0:0:0:0:
448,192,82980,1,0,0:0:0:0:
320,192,83292,1,0,0:0:0:0:
192,192,83605,1,0,0:0:0:0:
192,192,83761,1,0,0:0:0:0:
64,192,83886,1,0,0:0:0:0:
192,192,83886,1,0,0:0:0:0:
192,192,84199,1,0,0:0:0:0:
64,192,84355,1,0,0:0:0:0:
448,192,84667,1,0,0:0:0:0:
448,192,85136,1,0,0:0:0:0:
320,192,85417,1,0,0:0:0:0:
192,192,85730,1,0,0:0:0:0:
64,192,86042,1,0,0:0:0:0:
192,192,86355,1,0,0:0:0:0:
320,192,86355,1,0,0:0:0:0:
448,192,86355,1,0,0:0:0:0:
192,192,86667,1,0,0:0:0:0:
64,192,86824,1,0,0:0:0:0:
320,192,87105,1,0,0:0:0:0:
192,192,87417,1,0,0:0:0:0:
64,192,88480,1,0,0:0:0:0:
192,192,88792,1,0,0:0:0:0:
64,192,88792,1,0,0:0:0:0:
320,192,88792,1,0,0:0:0:0:
64,192,89105,1,0,0:0:0:0:
192,192,89105,1,0,0:0:0:0:
64,192,89417,1,0,0:0:0:0:
192,192,89574,1,0,0:0:0:0:
320,192,89730,1,0,0:0:0:0:
192,192,89886,1,0,0:0:0:0:
320,192,90011,1,0,0:0:0:0:
64,192,90324,1,0,0:0:0:0:
192,192,90636,1,0,0:0:0:0:
448,192,90949,1,0,0:0:0:0:
320,192,91261,1,0,0:0:0:0:
64,192,91261,1,0,0:0:0:0:
64,192,91542,1,0,0:0:0:0:
64,192,91699,1,0,0:0:0:0:
192,192,91855,1,0,0:0:0:0:
320,192,92011,1,0,0:0:0:0:
192,192,92167,1,0,0:0:0:0:
64,192,92324,1,0,0:0:0:0:
448,192,92480,1,0,0:0:0:0:
64,192,92792,1,0,0:0:0:0:
448,192,93074,1,0,0:0:0:0:
320,192,93386,1,0,0:0:0:0:
64,192,93699,1,0,0:0:0:0:
192,192,93699,1,0,0:0:0:0:
192,192,94011,1,0,0:0:0:0:
320,192,94324,1,0,0:0:0:0:
192,192,94449,1,0,0:0:0:0:
320,192,94605,1,0,0:0:0:0:
192,192,94761,1,0,0:0:0:0:
64,192,94917,1,0,0:0:0:0:
448,192,95230,1,0,0:0:0:0:
448,192,95730,1,0,0:0:0:0:
320,192,95949,1,0,0:0:0:0:
192,192,96136,1,0,0:0:0:0:
64,192,96136,1,0,0:0:0:0:
192,192,96324,1,0,0:0:0:0:
64,192,96324,1,0,0:0:0:0:
448,192,96574,1,0,0:0:0:0:
320,192,96574,1,0,0:0:0:0:
448,192,96761,1,0,0:0:0:0:
320,192,96761,1,0,0:0:0:0:
448,192,96980,1,0,0:0:0:0:
320,192,96980,1,0,0:0:0:0:
320,192,97230,1,0,0:0:0:0:
448,192,97230,1,0,0:0:0:0:
192,192,97386,1,0,0:0:0:0:
320,192,97386,1,0,0:0:0:0:
192,192,97667,1,0,0:0:0:0:
320,192,97667,1,0,0:0:0:0:
64,192,97980,1,0,0:0:0:0:
192,192,98136,1,0,0:0:0:0:
320,192,98292,1,0,0:0:0:0:
448,192,98449,1,0,0:0:0:0:
320,192,98605,1,0,0:0:0:0:
192,192,98605,1,0,0:0:0:0:
64,192,98605,1,0,0:0:0:0:
192,192,98886,1,0,0:0:0:0:
192,192,99042,1,0,0:0:0:0:
320,192,99199,1,0,0:0:0:0:
448,192,99355,1,0,0:0:0:0:
320,192,99667,1,0,0:0:0:0:
448,192,99667,1,0,0:0:0:0:
192,192,99824,1,0,0:0:0:0:
64,192,99824,1,0,0:0:0:0:
448,192,99824,1,0,0:0:0:0:
64,192,100417,1,0,0:0:0:0:
192,192,100574,1,0,0:0:0:0:
320,192,100730,1,0,0:0:0:0:
448,192,100886,1,0,0:0:0:0:
320,192,101042,1,0,0:0:0:0:
192,192,101042,1,0,0:0:0:0:
64,192,101042,1,0,0:0:0:0:
320,192,101355,1,0,0:0:0:0:
320,192,101511,1,0,0:0:0:0:
192,192,101667,1,0,0:0:0:0:
320,192,101824,1,0,0:0:0:0:
192,192,102105,1,0,0:0:0:0:
64,192,102261,1,0,0:0:0:0:
192,192,102261,1,0,0:0:0:0:
448,192,102574,1,0,0:0:0:0:
64,192,102886,1,0,0:0:0:0:
320,192,102886,1,0,0:0:0:0:
192,192,103042,1,0,0:0:0:0:
64,192,103199,1,0,0:0:0:0:
448,192,103480,1,0,0:0:0:0:
320,192,103480,1,0,0:0:0:0:
320,192,103792,1,0,0:0:0:0:
448,192,103792,1,0,0:0:0:0:
192,192,104105,1,0,0:0:0:0:
320,192,104261,1,0,0:0:0:0:
192,192,104261,1,0,0:0:0:0:
448,192,104574,1,0,0:0:0:0:
64,192,104730,1,0,0:0:0:0:
192,192,104730,1,0,0:0:0:0:
192,192,105011,1,0,0:0:0:0:
64,192,105011,1,0,0:0:0:0:
448,192,105324,1,0,0:0:0:0:
320,192,105480,1,0,0:0:0:0:
320,192,105792,1,0,0:0:0:0:
448,192,105949,1,0,0:0:0:0:
448,192,106261,1,0,0:0:0:0:
320,192,106261,1,0,0:0:0:0:
448,192,106386,1,0,0:0:0:0:
320,192,106699,128,0,108230:0:0:0:0:
192,192,106792,128,0,108167:0:0:0:0:
64,192,106855,128,0,108074:0:0:0:0:
64,192,110230,1,0,0:0:0:0:
192,192,110386,1,0,0:0:0:0:
320,192,110605,1,0,0:0:0:0:
448,192,110761,1,0,0:0:0:0:
320,192,110761,1,0,0:0:0:0:
192,192,110761,1,0,0:0:0:0:
448,192,111074,1,0,0:0:0:0:
64,192,111074,1,0,0:0:0:0:
320,192,111449,1,0,0:0:0:0:
448,192,111449,1,0,0:0:0:0:
64,192,111761,1,0,0:0:0:0:
448,192,112074,1,0,0:0:0:0:
320,192,112074,1,0,0:0:0:0:
448,192,112386,1,0,0:0:0:0:
320,192,112511,1,0,0:0:0:0:
64,192,112917,1,0,0:0:0:0:
64,192,113292,1,0,0:0:0:0:
192,192,113605,1,0,0:0:0:0:
320,192,113886,1,0,0:0:0:0:
448,192,114199,1,0,0:0:0:0:
320,192,114511,1,0,0:0:0:0:
192,192,114511,1,0,0:0:0:0:
64,192,114511,1,0,0:0:0:0:
320,192,114824,1,0,0:0:0:0:
192,192,114980,1,0,0:0:0:0:
448,192,115417,1,0,0:0:0:0:
64,192,115730,1,0,0:0:0:0:
192,192,116042,1,0,0:0:0:0:
320,192,116355,1,0,0:0:0:0:
448,192,116667,1,0,0:0:0:0:
320,192,116949,1,0,0:0:0:0:
192,192,116949,1,0,0:0:0:0:
64,192,116949,1,0,0:0:0:0:
448,192,117417,1,0,0:0:0:0:
192,192,117886,1,0,0:0:0:0:
64,192,118199,1,0,0:0:0:0:
192,192,118480,1,0,0:0:0:0:
320,192,118792,1,0,0:0:0:0:
448,192,119105,1,0,0:0:0:0:
320,192,119105,1,0,0:0:0:0:
320,192,119261,1,0,0:0:0:0:
320,192,119417,1,0,0:0:0:0:
192,192,119417,1,0,0:0:0:0:
192,192,119730,1,0,0:0:0:0:
64,192,119730,1,0,0:0:0:0:
320,192,120011,1,0,0:0:0:0:
448,192,120011,1,0,0:0:0:0:
192,192,120324,1,0,0:0:0:0:
320,192,120636,1,0,0:0:0:0:
448,192,120949,1,0,0:0:0:0:
320,192,121261,1,0,0:0:0:0:
192,192,121261,1,0,0:0:0:0:
64,192,121261,1,0,0:0:0:0:
192,192,121542,1,0,0:0:0:0:
448,192,121855,1,0,0:0:0:0:
320,192,121855,1,0,0:0:0:0:
192,192,121855,1,0,0:0:0:0:
320,192,122167,1,0,0:0:0:0:
192,192,122324,1,0,0:0:0:0:
448,192,122792,1,0,0:0:0:0:
64,192,123074,1,0,0:0:0:0:
192,192,123386,1,0,0:0:0:0:
320,192,123699,1,0,0:0:0:0:
448,192,124011,1,0,0:0:0:0:
448,192,124324,1,0,0:0:0:0:
320,192,124324,1,0,0:0:0:0:
448,192,124605,1,0,0:0:0:0:
320,192,124761,1,0,0:0:0:0:
64,192,125230,1,0,0:0:0:0:
64,192,125542,1,0,0:0:0:0:
192,192,125855,1,0,0:0:0:0:
320,192,126136,1,0,0:0:0:0:
448,192,126449,1,0,0:0:0:0:
320,192,126761,1,0,0:0:0:0:
192,192,126761,1,0,0:0:0:0:
64,192,126761,1,0,0:0:0:0:
320,192,127074,1,0,0:0:0:0:
192,192,127230,1,0,0:0:0:0:
64,192,127230,1,0,0:0:0:0:
192,192,127511,1,0,0:0:0:0:
448,192,127667,1,0,0:0:0:0:
320,192,127667,1,0,0:0:0:0:
64,192,127980,1,0,0:0:0:0:
192,192,128292,1,0,0:0:0:0:
320,192,128605,1,0,0:0:0:0:
448,192,128886,1,0,0:0:0:0:
320,192,128886,1,0,0:0:0:0:
320,192,129042,1,0,0:0:0:0:
320,192,129199,1,0,0:0:0:0:
192,192,129199,1,0,0:0:0:0:
64,192,129511,1,0,0:0:0:0:
192,192,129511,1,0,0:0:0:0:
192,192,129824,1,0,0:0:0:0:
320,192,129824,1,0,0:0:0:0:
320,192,130136,1,0,0:0:0:0:
448,192,130417,1,0,0:0:0:0:
192,192,130417,1,0,0:0:0:0:
64,192,130417,1,0,0:0:0:0:
192,192,130730,1,0,0:0:0:0:
448,192,131042,1,0,0:0:0:0:
320,192,131355,1,0,0:0:0:0:
192,192,131667,1,0,0:0:0:0:
64,192,131667,1,0,0:0:0:0:
320,192,131667,1,0,0:0:0:0:
320,192,132105,1,0,0:0:0:0:
192,192,132574,1,0,0:0:0:0:
64,192,132886,1,0,0:0:0:0:
192,192,133199,1,0,0:0:0:0:
320,192,133480,1,0,0:0:0:0:
448,192,133792,1,0,0:0:0:0:
320,192,134105,1,0,0:0:0:0:
448,192,134105,1,0,0:0:0:0:
64,192,134417,1,0,0:0:0:0:
192,192,134574,1,0,0:0:0:0:
320,192,134574,1,0,0:0:0:0:
192,192,134886,1,0,0:0:0:0:
64,192,135011,1,0,0:0:0:0:
64,192,135324,1,0,0:0:0:0:
192,192,135636,1,0,0:0:0:0:
320,192,135949,1,0,0:0:0:0:
448,192,136261,1,0,0:0:0:0:
448,192,136542,1,0,0:0:0:0:
320,192,136542,1,0,0:0:0:0:
192,192,136542,1,0,0:0:0:0:
320,192,137011,1,0,0:0:0:0:
192,192,137480,1,0,0:0:0:0:
64,192,137792,1,0,0:0:0:0:
192,192,138074,1,0,0:0:0:0:
320,192,138386,1,0,0:0:0:0:
448,192,138699,1,0,0:0:0:0:
320,192,138699,1,0,0:0:0:0:
320,192,138855,1,0,0:0:0:0:
320,192,139011,1,0,0:0:0:0:
192,192,139011,1,0,0:0:0:0:
64,192,139324,1,0,0:0:0:0:
192,192,139324,1,0,0:0:0:0:
192,192,139605,1,0,0:0:0:0:
320,192,139605,1,0,0:0:0:0:
64,192,139917,1,0,0:0:0:0:
320,192,140230,1,0,0:0:0:0:
448,192,140230,1,0,0:0:0:0:
64,192,140230,1,0,0:0:0:0:
320,192,140855,1,0,0:0:0:0:
64,192,141136,1,0,0:0:0:0:
320,192,141449,1,0,0:0:0:0:
448,192,141449,1,0,0:0:0:0:
448,192,141917,1,0,0:0:0:0:
320,192,142386,1,0,0:0:0:0:
320,192,142667,1,0,0:0:0:0:
192,192,142667,1,0,0:0:0:0:
64,192,142667,1,0,0:0:0:0:
320,192,143292,1,0,0:0:0:0:
192,192,143605,1,0,0:0:0:0:
64,192,143886,1,0,0:0:0:0:
448,192,144355,1,0,0:0:0:0:
320,192,144824,1,0,0:0:0:0:
320,192,145136,1,0,0:0:0:0:
192,192,145136,1,0,0:0:0:0:
64,192,145136,1,0,0:0:0:0:
64,192,145730,1,0,0:0:0:0:
192,192,146042,1,0,0:0:0:0:
320,192,146355,1,0,0:0:0:0:
448,192,146824,1,0,0:0:0:0:
192,192,147261,1,0,0:0:0:0:
320,192,147574,128,0,151574:0:0:0:0:
64,192,147574,128,0,151574:0:0:0:0:
448,192,147574,128,0,151574:0:0:0:0:
