osu file format v14

[General]
AudioFilename: audio.mp3
AudioLeadIn: 0
PreviewTime: 52107
Countdown: 0
SampleSet: None
StackLeniency: 0.7
Mode: 2
LetterboxInBreaks: 0
WidescreenStoryboard: 0

[Editor]
Bookmarks: 23686,92257,160828
DistanceSpacing: 1.2
BeatDivisor: 4
GridSize: 8
TimelineZoom: 1

[Metadata]
Title:Sayoko
TitleUnicode:Sayoko
Artist:rachie
ArtistUnicode:rachie
Creator:Time-
Version:Sorrow
Source:
Tags:yutaite みきとP mikitop Setsuna Plus+ 刹那プラス+ Hatsune Miku Vocaloid
BeatmapID:1085985
BeatmapSetID:510814

[Difficulty]
HPDrainRate:5
CircleSize:4
OverallDifficulty:8.8
ApproachRate:8.8
SliderMultiplier:1.9
SliderTickRate:2

[Events]
//Background and Video events
0,0,"bgg.jpg",0,0
//Break Periods
//Storyboard Layer 0 (Background)
//Storyboard Layer 1 (Fail)
//Storyboard Layer 2 (Pass)
//Storyboard Layer 3 (Foreground)
//Storyboard Sound Samples

[TimingPoints]
2032,451.127819548872,4,2,0,40,1,0
52558,-100,4,2,0,40,0,1
77821,-100,4,2,0,40,0,0
121129,-100,4,2,0,40,0,1
146392,-100,4,2,0,40,0,0
175265,-100,4,2,0,40,0,1
200528,-100,4,2,0,40,0,0

[HitObjects]
192,304,2032,6,0,P|88:240|96:188,1,190
208,160,2708,1,0,0:0:0:0:
352,104,2934,2,0,L|256:104,1,95
120,216,3385,1,0,0:0:0:0:
288,280,3610,6,0,P|288:192|191:166,1,190
32,80,4287,2,0,L|128:80,1,95
264,80,4738,1,0,0:0:0:0:
88,176,4964,1,0,0:0:0:0:
248,224,5189,1,0,0:0:0:0:
424,264,5415,1,0,0:0:0:0:
248,320,5641,6,0,P|144:256|152:204,1,190
304,160,6317,1,0,0:0:0:0:
160,72,6543,2,0,L|264:72,1,95
400,72,6994,1,0,0:0:0:0:
104,280,7219,2,0,P|32:216|64:120,1,190
200,160,7896,2,0,L|304:160,1,95
480,304,8347,2,0,L|384:304,1,95
224,312,8798,5,0,0:0:0:0:
376,224,9024,2,0,L|424:224,2,47.5
88,272,9475,1,0,0:0:0:0:
224,176,9701,2,0,L|128:176,1,95
296,256,10152,2,0,L|192:256,1,95
384,168,10603,1,0,0:0:0:0:
96,304,10828,2,0,P|48:216|104:160,1,190
256,128,11505,5,0,0:0:0:0:
448,120,11731,1,0,0:0:0:0:
160,232,11956,2,0,L|64:232,1,95
232,304,12407,2,0,L|344:304,1,95
152,208,12859,1,0,0:0:0:0:
328,144,13084,1,0,0:0:0:0:
144,80,13310,2,0,L|248:80,1,95
416,176,13761,2,0,L|320:176,1,95
120,152,14212,5,0,0:0:0:0:
416,336,14438,2,0,P|472:248|416:192,1,190
272,128,15114,2,0,L|376:128,1,95
184,216,15565,2,0,L|80:216,1,95
288,296,16016,1,0,0:0:0:0:
96,296,16242,1,0,0:0:0:0:
80,280,16355,1,0,0:0:0:0:
64,256,16468,6,0,L|168:256,1,95
320,136,16919,2,0,L|416:136,2,95
136,192,17595,1,0,0:0:0:0:
288,304,17821,1,0,0:0:0:0:
104,320,18047,2,0,P|48:256|96:176,1,190
280,160,18723,2,0,L|376:160,1,95
72,240,19174,1,0,0:0:0:0:
224,304,19400,1,0,0:0:0:0:
64,328,19625,1,0,0:0:0:0:
224,248,19851,1,0,0:0:0:0:
384,168,20077,6,0,L|288:168,1,95
96,216,20528,2,0,L|200:216,1,95
368,280,20979,2,0,L|272:280,2,95
80,304,21656,2,0,P|32:240|80:152,1,190
120,128,22219,1,0,0:0:0:0:
184,112,22332,1,0,0:0:0:0:
392,144,22445,1,0,0:0:0:0:
433,205,22558,1,0,0:0:0:0:
417,278,22671,1,0,0:0:0:0:
354,317,22783,5,0,0:0:0:0:
104,304,22896,2,0,L|40:304,1,47.5
112,232,23122,2,0,L|160:232,1,47.5
360,160,23347,2,0,L|432:160,1,47.5
144,152,23573,1,0,0:0:0:0:
80,128,23686,6,0,P|40:216|104:304,1,190
224,288,24362,1,0,0:0:0:0:
392,232,24588,2,0,L|296:232,1,95
120,232,25039,1,0,0:0:0:0:
320,128,25265,1,0,0:0:0:0:
176,128,25490,1,0,0:0:0:0:
352,232,25716,1,0,0:0:0:0:
184,296,25941,2,0,L|280:296,1,95
96,208,26392,2,0,L|200:208,1,95
480,120,26844,6,0,L|376:120,1,95
200,336,27295,2,0,P|176:248|280:192,1,190
65,272,27971,1,0,0:0:0:0:
240,184,28197,2,0,L|136:184,1,95
344,128,28648,1,0,0:0:0:0:
136,96,28874,1,0,0:0:0:0:
280,232,29099,2,0,L|392:232,1,95
80,304,29550,5,0,0:0:0:0:
392,176,29776,1,0,0:0:0:0:
216,256,30001,2,0,L|320:256,1,95
128,176,30453,2,0,L|24:176,1,95
96,232,30791,1,0,0:0:0:0:
352,152,30904,2,0,L|448:152,2,95
176,224,31580,1,0,0:0:0:0:
360,296,31806,2,0,L|264:296,1,95
88,272,32257,6,0,L|184:272,2,95
416,176,32934,1,0,0:0:0:0:
256,240,33159,2,0,L|352:240,1,95
184,160,33610,2,0,L|80:160,1,95
392,176,34062,1,0,0:0:0:0:
221,264,34287,1,0,0:0:0:0:
48,328,34513,2,0,P|32:232|104:192,1,190
256,160,35189,1,0,0:0:0:0:
104,264,35415,5,0,0:0:0:0:
424,208,35641,1,0,0:0:0:0:
112,168,35866,1,0,0:0:0:0:
400,320,36092,2,0,P|448:256|392:152,1,190
232,208,36768,2,0,L|328:208,1,95
136,304,37219,2,0,L|40:304,1,95
264,224,37671,1,0,0:0:0:0:
88,168,37896,2,0,L|24:168,2,47.5
376,272,38347,1,0,0:0:0:0:
224,208,38573,6,0,L|328:208,1,95
136,112,39024,2,0,L|264:112,1,95
400,112,39475,1,0,0:0:0:0:
96,328,39701,1,0,0:0:0:0:
288,272,39926,1,0,0:0:0:0:
136,208,40152,1,0,0:0:0:0:
424,136,40377,2,0,L|304:136,1,95
128,112,40828,2,0,L|240:112,1,95
40,184,41280,6,0,L|160:184,1,95
432,272,41731,1,0,0:0:0:0:
264,152,41956,1,0,0:0:0:0:
432,120,42182,2,0,L|328:120,1,95
152,224,42633,2,0,L|256:224,2,95
328,304,43310,2,0,L|432:304,1,95
248,208,43761,2,0,L|136:208,1,95
285,159,44212,1,0,0:0:0:0:
415,96,44438,2,0,L|320:96,1,95
144,208,44889,6,0,L|16:208,1,95
256,288,45340,2,0,P|304:256|256:136,1,190
440,208,46016,1,0,0:0:0:0:
88,128,46242,2,0,L|216:128,1,95
376,200,46693,2,0,L|256:200,1,95
88,304,47144,1,0,0:0:0:0:
264,208,47370,1,0,0:0:0:0:
96,160,47595,1,0,0:0:0:0:
384,328,47821,1,0,0:0:0:0:
480,240,48047,5,0,0:0:0:0:
352,128,48272,1,0,0:0:0:0:
176,88,48498,1,0,0:0:0:0:
40,200,48723,1,0,0:0:0:0:
368,256,48949,2,0,L|496:256,2,95
176,256,49625,1,0,0:0:0:0:
315,195,49851,1,0,0:0:0:0:
456,136,50077,1,0,0:0:0:0:
160,128,50302,5,0,0:0:0:0:
336,64,50528,2,0,P|384:88|352:224,1,190
192,312,51204,1,0,0:0:0:0:
112,272,51316,1,0,0:0:0:0:
160,192,51429,1,0,0:0:0:0:
400,160,51543,1,0,0:0:0:0:
456,112,51656,1,0,0:0:0:0:
184,216,52332,5,0,0:0:0:0:
120,216,52445,1,0,0:0:0:0:
56,136,52558,2,0,L|184:136,1,95
352,216,53009,2,0,L|216:216,1,95
72,288,53460,1,0,0:0:0:0:
264,168,53686,1,0,0:0:0:0:
64,128,53911,1,0,0:0:0:0:
368,256,54137,2,0,L|256:256,2,95
212,212,54813,1,0,0:0:0:0:
56,136,55039,1,0,0:0:0:0:
352,264,55265,6,0,L|464:264,1,95
264,144,55716,2,0,L|152:144,1,95
384,216,56167,2,0,L|288:216,2,95
72,280,56844,1,0,0:0:0:0:
264,216,57069,1,0,0:0:0:0:
104,136,57295,1,0,0:0:0:0:
272,56,57520,2,0,L|152:56,1,95
376,152,57971,6,0,L|264:152,1,95
48,256,58422,2,0,L|144:256,1,95
440,240,58874,2,0,L|328:240,2,95
128,168,59550,1,0,0:0:0:0:
416,320,59776,2,0,P|464:208|408:144,1,190
240,104,60453,1,0,0:0:0:0:
48,184,60678,2,0,L|152:184,1,95
368,280,61129,2,0,L|256:280,1,95
72,216,61580,6,0,L|176:216,2,95
368,224,62257,1,0,0:0:0:0:
192,120,62483,2,0,L|320:120,1,95
80,208,62934,2,0,L|208:208,1,95
416,328,63385,2,0,P|464:256|416:168,1,190
232,144,64062,1,0,0:0:0:0:
432,72,64287,1,0,0:0:0:0:
248,192,64513,1,0,0:0:0:0:
64,272,64738,2,0,L|176:272,1,95
352,264,65189,5,0,0:0:0:0:
64,112,65415,1,0,0:0:0:0:
408,208,65641,2,0,L|272:208,2,95
80,272,66317,1,0,0:0:0:0:
368,280,66543,1,0,0:0:0:0:
428,211,66655,1,0,0:0:0:0:
411,121,66768,1,0,0:0:0:0:
329,79,66881,1,0,0:0:0:0:
56,152,66994,6,0,L|176:152,1,95
344,248,67445,2,0,L|232:248,1,95
424,152,67896,1,0,0:0:0:0:
232,88,68122,1,0,0:0:0:0:
400,224,68347,1,0,0:0:0:0:
96,256,68573,1,0,0:0:0:0:
264,152,68798,2,0,L|160:152,1,95
368,264,69250,2,0,L|472:264,1,95
128,192,69701,2,0,L|32:192,1,95
224,320,70152,6,0,P|304:224|264:176,1,190
112,152,70828,1,0,0:0:0:0:
288,96,71054,1,0,0:0:0:0:
464,176,71280,1,0,0:0:0:0:
264,240,71505,2,0,L|360:240,1,95
72,208,71956,1,0,0:0:0:0:
392,104,72182,1,0,0:0:0:0:
224,208,72407,2,0,L|112:208,2,95
416,208,73084,1,0,0:0:0:0:
208,312,73310,6,0,L|80:312,1,95
296,192,73761,2,0,L|408:192,1,95
88,256,74212,2,0,P|32:152|96:72,1,190
224,128,74889,1,0,0:0:0:0:
416,208,75114,2,0,L|304:208,1,95
112,288,75565,2,0,L|216:288,1,95
392,280,76016,1,0,0:0:0:0:
208,160,76242,1,0,0:0:0:0:
416,112,76468,5,0,0:0:0:0:
120,312,76693,2,0,P|48:224|104:144,1,190
352,320,77257,1,0,0:0:0:0:
414,288,77369,1,0,0:0:0:0:
443,224,77482,1,0,0:0:0:0:
425,157,77595,1,0,0:0:0:0:
368,116,77708,1,0,0:0:0:0:
144,168,77821,6,0,L|40:168,2,95
296,168,78498,1,0,0:0:0:0:
472,248,78723,2,0,L|360:248,1,95
184,304,79174,1,0,0:0:0:0:
368,296,79400,2,0,P|432:256|392:152,1,190
240,112,80077,1,0,0:0:0:0:
56,88,80302,1,0,0:0:0:0:
448,208,80528,2,0,L|352:208,1,95
168,288,80979,2,0,L|296:288,1,95
80,192,81430,5,0,0:0:0:0:
256,192,81656,1,0,0:0:0:0:
432,192,81881,2,0,L|328:192,2,95
256,280,82558,1,0,0:0:0:0:
424,272,82783,1,0,0:0:0:0:
128,296,83009,2,0,P|64:216|120:136,1,190
288,88,83686,1,0,0:0:0:0:
120,176,83911,1,0,0:0:0:0:
312,272,84137,2,0,L|416:272,1,95
240,272,84588,1,0,0:0:0:0:
160,224,84700,1,0,0:0:0:0:
192,128,84813,1,0,0:0:0:0:
264,80,84926,1,0,0:0:0:0:
416,152,85039,6,0,L|320:152,1,95
136,232,85490,2,0,L|24:232,1,95
216,128,85941,2,0,L|96:128,1,95
424,232,86392,1,0,0:0:0:0:
128,320,86618,2,0,P|80:288|104:160,1,190
272,192,87295,1,0,0:0:0:0:
448,96,87520,2,0,L|344:96,1,95
184,144,87971,1,0,0:0:0:0:
352,256,88197,1,0,0:0:0:0:
176,304,88422,1,0,0:0:0:0:
480,176,88648,6,0,L|368:176,1,95
216,248,89099,2,0,L|328:248,1,95
120,328,89550,2,0,L|16:328,1,95
200,248,90001,1,0,0:0:0:0:
408,240,90227,2,0,P|464:168|416:72,1,190
248,56,90904,5,0,0:0:0:0:
200,94,91016,1,0,0:0:0:0:
179,151,91129,1,0,0:0:0:0:
191,211,91242,1,0,0:0:0:0:
392,168,91355,1,0,0:0:0:0:
461,222,91469,1,0,0:0:0:0:
453,295,91582,1,0,0:0:0:0:
392,336,91694,1,0,0:0:0:0:
96,288,91806,1,0,0:0:0:0:
40,208,91919,1,0,0:0:0:0:
88,120,92031,1,0,0:0:0:0:
160,80,92144,1,0,0:0:0:0:
392,88,92257,6,0,P|440:176|392:240,1,190
232,296,92934,1,0,0:0:0:0:
72,224,93159,2,0,L|176:224,1,95
336,136,93610,2,0,L|240:136,2,95
160,128,94287,1,0,0:0:0:0:
360,240,94513,2,0,L|256:240,1,95
72,160,94964,2,0,L|184:160,1,95
328,232,95415,1,0,0:0:0:0:
136,304,95641,1,0,0:0:0:0:
304,96,95866,6,0,P|368:152|328:256,1,190
192,192,96543,1,0,0:0:0:0:
40,128,96768,1,0,0:0:0:0:
216,72,96994,1,0,0:0:0:0:
400,144,97219,2,0,L|272:144,1,95
120,272,97671,2,0,L|224:272,1,95
48,168,98122,1,0,0:0:0:0:
264,80,98347,1,0,0:0:0:0:
104,168,98573,2,0,L|200:168,1,95
488,304,99024,6,0,L|368:304,1,95
160,304,99475,2,0,P|96:216|144:112,1,190
296,120,100152,1,0,0:0:0:0:
104,224,100377,2,0,L|216:224,1,95
408,304,100828,2,0,L|272:304,1,95
120,224,101280,1,0,0:0:0:0:
304,160,101505,1,0,0:0:0:0:
160,48,101731,1,0,0:0:0:0:
456,168,101956,2,0,L|360:168,2,95
296,288,102633,6,0,L|184:288,1,95
40,144,103084,2,0,L|144:144,1,95
360,264,103535,2,0,P|408:208|336:104,1,190
160,184,104212,1,0,0:0:0:0:
448,304,104438,2,0,L|344:304,1,95
48,216,104889,2,0,L|168:216,1,95
328,320,105340,1,0,0:0:0:0:
152,224,105565,1,0,0:0:0:0:
376,112,105791,1,0,0:0:0:0:
72,88,106016,1,0,0:0:0:0:
416,224,106242,2,0,L|288:224,1,95
448,128,106693,5,0,0:0:0:0:
128,208,106919,2,0,L|56:208,2,47.5
288,296,107370,1,0,0:0:0:0:
456,88,107595,2,0,L|344:88,1,95
152,136,108047,2,0,L|280:136,1,95
440,240,108498,1,0,0:0:0:0:
272,304,108723,1,0,0:0:0:0:
104,248,108949,1,0,0:0:0:0:
296,136,109174,2,0,L|192:136,2,95
104,320,109851,6,0,P|40:256|88:160,1,190
392,176,110528,1,0,0:0:0:0:
216,256,110753,1,0,0:0:0:0:
40,328,110979,1,0,0:0:0:0:
208,176,111204,2,0,L|112:176,1,95
288,288,111656,2,0,L|392:288,1,95
160,200,112107,2,0,L|64:200,2,95
376,208,112783,1,0,0:0:0:0:
216,288,113009,2,0,L|120:288,1,95
280,168,113460,2,0,L|384:168,1,95
320,120,113798,1,0,0:0:0:0:
56,160,113911,6,0,L|160:160,2,95
248,224,114588,1,0,0:0:0:0:
48,272,114813,1,0,0:0:0:0:
360,272,115039,1,0,0:0:0:0:
176,152,115265,2,0,L|288:152,1,95
448,232,115716,2,0,L|352:232,1,95
224,256,116167,1,0,0:0:0:0:
96,312,116392,2,0,P|48:216|96:152,1,190
432,152,117069,6,0,L|320:152,1,95
48,256,117520,2,0,L|144:256,1,95
360,328,117971,2,0,P|416:280|392:168,1,190
72,80,118648,1,0,0:0:0:0:
368,192,118874,1,0,0:0:0:0:
160,288,119099,2,0,P|104:248|168:136,1,190
328,88,119776,2,0,L|400:88,2,47.5
144,176,120227,1,0,0:0:0:0:
328,264,120453,1,0,0:0:0:0:
168,328,120678,1,0,0:0:0:0:
104,272,120791,1,0,0:0:0:0:
80,192,120904,1,0,0:0:0:0:
144,112,121016,1,0,0:0:0:0:
440,136,121129,6,0,L|312:136,1,95
128,224,121580,2,0,L|224:224,1,95
416,224,122031,1,0,0:0:0:0:
224,112,122257,1,0,0:0:0:0:
408,56,122483,1,0,0:0:0:0:
72,272,122708,1,0,0:0:0:0:
256,200,122934,1,0,0:0:0:0:
96,120,123159,1,0,0:0:0:0:
264,56,123385,2,0,L|168:56,1,95
376,208,123836,2,0,L|472:208,1,95
256,320,124287,2,0,P|200:264|272:152,1,190
376,120,124964,5,0,0:0:0:0:
184,64,125189,2,0,L|72:64,1,95
288,160,125641,2,0,L|176:160,1,95
392,264,126092,1,0,0:0:0:0:
96,304,126317,2,0,L|192:304,2,95
280,192,126994,2,0,L|392:192,1,95
160,88,127445,1,0,0:0:0:0:
336,256,127671,2,0,L|384:256,2,47.5
40,168,128122,1,0,0:0:0:0:
352,48,128347,6,0,P|448:120|400:192,1,190
240,280,129024,1,0,0:0:0:0:
48,192,129250,2,0,L|168:192,1,95
368,48,129701,1,0,0:0:0:0:
204,62,129926,1,0,0:0:0:0:
40,72,130152,1,0,0:0:0:0:
200,136,130377,1,0,0:0:0:0:
384,256,130603,2,0,L|264:256,1,95
64,152,131054,2,0,L|168:152,1,95
368,144,131505,2,0,L|488:144,1,95
144,296,131956,6,0,P|88:280|96:152,1,190
296,112,132633,1,0,0:0:0:0:
72,56,132859,2,0,L|192:56,1,95
456,248,133310,2,0,L|344:248,1,95
160,168,133761,2,0,L|88:168,2,47.5
360,104,134212,1,0,0:0:0:0:
64,240,134438,1,0,0:0:0:0:
360,304,134663,2,0,L|456:304,1,95
248,304,135114,1,0,0:0:0:0:
190,285,135226,1,0,0:0:0:0:
157,234,135339,1,0,0:0:0:0:
165,174,135452,1,0,0:0:0:0:
424,104,135565,6,0,L|304:104,2,95
240,192,136242,1,0,0:0:0:0:
456,288,136468,2,0,L|336:288,1,95
120,208,136919,1,0,0:0:0:0:
408,72,137144,2,0,L|504:72,2,95
240,144,137821,2,0,L|104:144,1,95
344,272,138272,2,0,L|456:272,1,95
272,336,138723,2,0,P|224:304|280:192,1,190
424,136,139400,5,0,0:0:0:0:
136,272,139625,2,0,L|32:272,1,95
232,160,140077,1,0,0:0:0:0:
64,328,140189,1,0,0:0:0:0:
424,152,140302,1,0,0:0:0:0:
80,216,140528,1,0,0:0:0:0:
376,336,140753,1,0,0:0:0:0:
192,312,140979,1,0,0:0:0:0:
336,192,141204,1,0,0:0:0:0:
144,120,141430,2,0,L|40:120,1,95
208,240,141881,2,0,L|304:240,1,95
168,144,142332,1,0,0:0:0:0:
376,80,142558,1,0,0:0:0:0:
88,312,142783,6,0,P|32:240|80:160,1,190
272,48,143460,1,0,0:0:0:0:
464,176,143686,2,0,L|352:176,1,95
160,256,144137,2,0,L|288:256,1,95
448,264,144588,1,0,0:0:0:0:
248,144,144813,1,0,0:0:0:0:
56,240,145039,1,0,0:0:0:0:
392,312,145265,2,0,P|464:224|408:144,1,190
160,320,145829,1,0,0:0:0:0:
98,288,145941,1,0,0:0:0:0:
69,224,146054,1,0,0:0:0:0:
87,157,146167,1,0,0:0:0:0:
144,116,146280,1,0,0:0:0:0:
368,240,146392,6,0,L|472:240,2,95
216,232,147069,1,0,0:0:0:0:
48,136,147295,2,0,L|144:136,1,95
352,184,147746,2,0,L|240:184,1,95
72,288,148197,2,0,L|280:288,2,190
256,216,149325,1,0,0:0:0:0:
432,128,149550,2,0,L|296:128,1,95
160,128,150001,5,0,0:0:0:0:
301,210,150227,1,0,0:0:0:0:
440,288,150453,1,0,0:0:0:0:
216,264,150678,1,0,0:0:0:0:
400,160,150904,2,0,L|272:160,1,95
120,160,151355,1,0,0:0:0:0:
312,240,151580,1,0,0:0:0:0:
128,328,151806,2,0,P|56:256|96:176,1,190
256,136,152483,5,0,0:0:0:0:
424,176,152708,1,0,0:0:0:0:
256,288,152934,1,0,0:0:0:0:
48,200,153159,2,0,L|152:200,1,95
208,200,153498,1,0,0:0:0:0:
408,88,153610,6,0,L|208:88,2,190
208,104,154738,1,0,0:0:0:0:
416,232,154964,1,0,0:0:0:0:
104,320,155189,2,0,P|40:280|72:160,1,190
248,152,155866,2,0,L|360:152,1,95
168,248,156317,1,0,0:0:0:0:
392,304,156543,1,0,0:0:0:0:
224,160,156768,1,0,0:0:0:0:
384,112,156994,1,0,0:0:0:0:
48,240,157219,6,0,L|144:240,1,95
312,168,157671,1,0,0:0:0:0:
128,88,157896,1,0,0:0:0:0:
456,296,158122,2,0,L|336:296,1,95
48,144,158573,2,0,L|152:144,1,95
368,56,159024,1,0,0:0:0:0:
464,152,159250,1,0,0:0:0:0:
416,304,159475,1,0,0:0:0:0:
232,352,159701,1,0,0:0:0:0:
64,280,159926,1,0,0:0:0:0:
94,206,160038,1,0,0:0:0:0:
159,158,160151,1,0,0:0:0:0:
238,150,160264,1,0,0:0:0:0:
448,144,160377,2,0,L|336:144,1,95
128,256,160828,6,0,L|16:256,1,95
232,152,161280,2,0,L|328:152,1,95
120,256,161731,1,0,0:0:0:0:
288,256,161956,1,0,0:0:0:0:
456,248,162182,1,0,0:0:0:0:
144,48,162407,2,0,P|64:96|64:192,1,190
256,240,163084,1,0,0:0:0:0:
80,312,163310,1,0,0:0:0:0:
456,272,163535,2,0,L|328:272,1,95
176,160,163986,2,0,L|296:160,1,95
64,240,164438,6,0,L|176:240,1,95
320,288,164889,2,0,L|208:288,2,95
472,200,165565,1,0,0:0:0:0:
80,152,165791,1,0,0:0:0:0:
368,80,166016,2,0,P|415:159|387:246,1,190
208,328,166693,2,0,L|312:328,1,95
472,216,167144,2,0,L|360:216,1,95
184,216,167595,2,0,L|56:216,1,95
152,184,167934,1,0,0:0:0:0:
440,112,168047,6,0,L|320:112,2,95
288,208,168723,1,0,0:0:0:0:
112,304,168949,2,0,L|224:304,1,95
64,208,169400,1,0,0:0:0:0:
360,320,169625,2,0,P|416:256|368:160,1,190
176,136,170302,1,0,0:0:0:0:
352,56,170528,1,0,0:0:0:0:
192,240,170753,2,0,L|96:240,1,95
272,176,171204,2,0,L|168:176,1,95
368,96,171656,6,0,P|456:160|424:224,1,190
248,304,172332,1,0,0:0:0:0:
64,240,172558,1,0,0:0:0:0:
224,168,172783,1,0,0:0:0:0:
384,88,173009,1,0,0:0:0:0:
136,304,173235,2,0,P|72:256|136:144,1,190
336,88,173911,2,0,L|424:88,2,47.5
104,224,175039,5,0,0:0:0:0:
184,224,175152,1,0,0:0:0:0:
264,224,175265,2,0,L|136:224,1,95
352,96,175716,2,0,L|472:96,1,95
232,168,176167,2,0,L|368:168,1,95
472,160,176618,1,0,0:0:0:0:
128,272,176844,2,0,L|240:272,2,95
344,128,177520,2,0,L|224:128,1,95
72,136,177971,1,0,0:0:0:0:
272,240,178197,1,0,0:0:0:0:
56,264,178422,5,0,0:0:0:0:
360,272,178648,2,0,L|464:272,2,95
136,168,179325,2,0,L|240:168,1,95
416,56,179776,2,0,P|464:160|424:232,1,190
80,272,180453,1,0,0:0:0:0:
256,256,180678,2,0,P|296:208|224:96,1,190
80,96,181355,1,0,0:0:0:0:
256,160,181580,1,0,0:0:0:0:
432,248,181806,1,0,0:0:0:0:
136,312,182031,2,0,L|40:312,1,95
104,272,182370,1,0,0:0:0:0:
336,176,182483,6,0,L|448:176,1,95
256,264,182934,2,0,L|144:264,1,95
312,176,183385,1,0,0:0:0:0:
104,96,183610,1,0,0:0:0:0:
296,56,183836,1,0,0:0:0:0:
120,192,184062,2,0,L|240:192,2,95
432,280,184738,2,0,L|312:280,1,95
144,272,185189,2,0,L|40:272,1,95
264,184,185641,1,0,0:0:0:0:
88,80,185866,1,0,0:0:0:0:
384,136,186092,6,0,L|264:136,1,95
112,192,186543,1,0,0:0:0:0:
416,288,186768,2,0,L|304:288,2,95
216,208,187445,1,0,0:0:0:0:
400,120,187671,1,0,0:0:0:0:
80,272,187896,2,0,L|184:272,1,95
384,160,188347,2,0,L|472:160,2,47.5
104,168,189024,5,0,0:0:0:0:
392,328,189250,1,0,0:0:0:0:
429,278,189362,1,0,0:0:0:0:
422,217,189475,1,0,0:0:0:0:
376,176,189588,1,0,0:0:0:0:
48,256,189701,2,0,L|152:256,1,95
336,168,190152,2,0,L|232:168,1,95
392,232,190603,1,0,0:0:0:0:
96,224,190828,1,0,0:0:0:0:
272,144,191054,1,0,0:0:0:0:
88,72,191280,2,0,L|200:72,2,95
376,264,191956,2,0,L|488:264,1,95
264,184,192407,2,0,L|384:184,1,95
144,264,192859,2,0,L|272:264,1,95
408,264,193310,5,0,0:0:0:0:
96,160,193535,1,0,0:0:0:0:
280,224,193761,2,0,L|160:224,1,95
376,112,194212,2,0,L|504:112,2,95
56,184,194889,1,0,0:0:0:0:
240,184,195114,1,0,0:0:0:0:
424,192,195340,1,0,0:0:0:0:
232,304,195565,2,0,L|128:304,1,95
336,208,196016,1,0,0:0:0:0:
104,64,196242,1,0,0:0:0:0:
352,56,196468,1,0,0:0:0:0:
176,168,196693,2,0,L|104:168,2,47.5
432,232,197370,6,0,L|312:232,1,95
136,232,197821,2,0,L|264:232,1,95
56,152,198272,1,0,0:0:0:0:
424,264,198498,1,0,0:0:0:0:
248,192,198723,1,0,0:0:0:0:
392,112,198949,1,0,0:0:0:0:
96,312,199174,1,0,0:0:0:0:
24,208,199400,1,0,0:0:0:0:
136,96,199625,5,0,0:0:0:0:
328,112,199851,1,0,0:0:0:0:
371,156,199963,1,0,0:0:0:0:
378,218,200076,1,0,0:0:0:0:
345,271,200189,1,0,0:0:0:0:
224,312,200302,1,0,0:0:0:0:
104,248,200415,1,0,0:0:0:0:
208,144,200528,6,0,L|352:312,1,190
224,296,201204,1,0,0:0:0:0:
112,288,201430,1,0,0:0:0:0:
328,312,201881,2,0,L|424:136,1,190
288,128,202558,1,0,0:0:0:0:
128,200,202783,1,0,0:0:0:0:
312,296,203235,2,0,L|192:128,1,190
72,304,204137,5,0,0:0:0:0:
216,248,204362,1,0,0:0:0:0:
368,184,204588,2,0,L|152:184,2,190
224,280,205716,1,0,0:0:0:0:
416,320,205941,1,0,0:0:0:0:
152,296,206392,1,0,0:0:0:0:
384,184,206844,1,0,0:0:0:0:
192,144,207182,1,0,0:0:0:0:
376,264,207520,1,0,0:0:0:0:
432,208,207633,1,0,0:0:0:0:
480,152,207746,6,0,L|384:152,1,95
200,248,208197,2,0,L|104:248,1,95
272,128,208648,2,0,L|160:128,1,95
344,232,209099,2,0,L|240:232,1,95
48,152,209550,2,0,L|152:152,1,95
320,288,210001,2,0,L|432:288,1,95
112,216,210453,2,0,L|8:216,1,95
368,96,210904,2,0,L|480:96,1,95
120,280,211355,5,0,0:0:0:0:
312,256,211580,1,0,0:0:0:0:
168,176,211806,1,0,0:0:0:0:
312,104,212031,1,0,0:0:0:0:
128,96,212257,2,0,L|16:96,1,95
328,272,212708,2,0,L|464:272,1,95
72,296,213159,5,0,0:0:0:0:
240,296,213385,1,0,0:0:0:0:
72,184,213610,1,0,0:0:0:0:
240,184,213836,1,0,0:0:0:0:
72,72,214062,1,0,0:0:0:0:
440,296,214287,5,0,0:0:0:0:
272,296,214513,1,0,0:0:0:0:
440,184,214738,1,0,0:0:0:0:
360,184,214851,1,0,0:0:0:0:
280,184,214964,2,0,L|400:184,1,95
224,264,215415,2,0,L|104:264,1,95
464,336,215866,2,0,L|360:336,1,95
176,320,216317,1,0,0:0:0:0:
376,240,216543,2,0,P|424:192|376:88,1,190
72,176,217219,6,0,L|208:176,1,95
408,296,217671,2,0,L|280:296,1,95
112,296,218122,1,0,0:0:0:0:
336,208,218347,1,0,0:0:0:0:
152,144,218573,2,0,L|272:144,2,95
288,216,219250,1,0,0:0:0:0:
168,312,219475,1,0,0:0:0:0:
40,224,219701,1,0,0:0:0:0:
392,176,219926,1,0,0:0:0:0:
224,56,220152,2,0,P|160:136|192:240,1,190
328,280,220828,5,0,0:0:0:0:
120,336,221054,1,0,0:0:0:0:
336,208,221280,1,0,0:0:0:0:
192,136,221505,1,0,0:0:0:0:
400,96,221731,1,0,0:0:0:0:
112,264,221956,2,0,L|40:264,2,47.5
272,240,222407,1,0,0:0:0:0:
440,112,222633,2,0,L|304:112,1,95
168,192,223084,2,0,L|272:192,2,95
464,280,223761,1,0,0:0:0:0:
288,208,223986,1,0,0:0:0:0:
448,112,224212,1,0,0:0:0:0:
104,152,224438,6,0,L|240:152,1,95
332,207,224889,1,0,0:0:0:0:
464,312,225114,1,0,0:0:0:0:
264,320,225340,2,0,L|136:320,1,95
344,216,225791,2,0,L|456:216,1,95
248,120,226242,2,0,L|128:120,1,95
352,184,226693,1,0,0:0:0:0:
184,264,226919,1,0,0:0:0:0:
384,336,227144,1,0,0:0:0:0:
96,344,227370,2,0,P|32:288|56:160,1,190
424,224,228047,2,0,L|304:224,1,95
104,224,228498,1,0,0:0:0:0:
160,104,228723,1,0,0:0:0:0:
352,64,228949,1,0,0:0:0:0:
136,48,229174,1,0,0:0:0:0:
96,112,229287,1,0,0:0:0:0:
72,192,229400,1,0,0:0:0:0:
256,192,229625,12,0,236618,0:0:0:0:
