osu file format v14

[General]
AudioFilename: audio.mp3
AudioLeadIn: 0
PreviewTime: 76891
Countdown: 1
SampleSet: Soft
StackLeniency: 0.7
Mode: 0
LetterboxInBreaks: 0
WidescreenStoryboard: 0

[Editor]
Bookmarks: 11049,21154,31259,41523,51470,66628,76891,97102,107207,127259,132312,142575,162628,167680,188049,193102,203207,223417,243470,258628,263680
DistanceSpacing: 1.4
BeatDivisor: 4
GridSize: 4
TimelineZoom: 1.8

[Metadata]
Title:IMAGINARY LIKE THE JUSTICE English Cover
TitleUnicode:IMAGINARY LIKE THE JUSTICE English Cover
Artist:rachie
ArtistUnicode:rachie
Creator:Mismagius
Version:The End Has Arrived
Source:
Tags:
BeatmapID:1871292
BeatmapSetID:895580

[Difficulty]
HPDrainRate:5
CircleSize:4.1
OverallDifficulty:9
ApproachRate:9.3
SliderMultiplier:2
SliderTickRate:1

[Events]
//Background and Video events
0,0,"maxresdefault.jpg",0,0
//Break Periods
2,1144,5396
//Storyboard Layer 0 (Background)
//Storyboard Layer 1 (Fail)
//Storyboard Layer 2 (Pass)
//Storyboard Layer 3 (Foreground)
//Storyboard Layer 4 (Overlay)
//Storyboard Sound Samples

[TimingPoints]
1102,315.789473684211,4,2,0,70,1,0
5996,-142.857142857143,4,2,0,70,0,0
11049,-100,4,2,0,70,0,0
31259,-111.111111111111,4,2,0,70,0,0
41365,-100,4,2,0,70,0,0
75628,-142.857142857143,4,2,0,70,0,0
76891,-83.3333333333334,4,2,0,70,0,1
96944,-83.3333333333334,4,2,0,70,0,0
107049,-111.111111111111,4,2,0,70,0,0
112102,-100,4,2,0,70,0,0
141312,-142.857142857143,4,2,0,70,0,0
142575,-83.3333333333333,4,2,0,70,0,1
162628,-142.857142857143,4,2,0,70,0,0
166417,-100,4,2,0,70,0,0
188049,-142.857142857143,4,2,0,70,0,0
191838,-200,4,2,0,70,0,0
192470,-500,4,2,0,70,0,0
193102,-200,4,2,0,70,0,0
198154,-125,4,2,0,70,0,0
205733,-83.3333333333333,4,2,0,70,0,1
223338,-83.3333333333333,4,2,0,70,0,0
223417,-71.4285714285714,4,2,0,70,0,1
243470,-83.3333333333333,4,2,0,70,0,0
243470,-83.3333333333333,4,2,0,70,0,0
258628,-142.857142857143,4,2,0,70,0,0

[Colours]
Combo1 : 250,255,138
Combo2 : 149,255,149
Combo3 : 255,153,119
Combo4 : 172,194,163

[HitObjects]
165,267,786,5,0,0:0:0:0:
210,63,944,1,4,0:1:0:0:
114,60,5996,6,0,P|148:112|133:192,1,139.999995727539,2|0,0:0|0:0,0:0:0:0:
56,242,6470,2,0,P|48:285|53:319,1,69.9999978637696,2|0,0:0|0:0,0:0:0:0:
220,356,6786,2,0,P|228:313|223:279,1,69.9999978637696,2|0,0:0|0:0,0:0:0:0:
225,287,7259,6,0,L|378:269,1,139.999995727539,2|0,0:0|0:0,0:0:0:0:
411,184,7733,2,0,L|487:175,1,69.9999978637696,2|0,0:0|0:0,0:0:0:0:
373,86,8049,2,0,L|449:77,1,69.9999978637696,2|0,0:0|0:0,0:0:0:0:
308,169,8365,1,0,0:0:0:0:
308,169,8523,6,0,L|155:187,1,139.999995727539,2|0,0:0|0:0,0:0:0:0:
89,127,8996,2,0,P|78:90|87:48,1,69.9999978637696,2|0,0:0|0:0,0:0:0:0:
31,207,9312,2,0,P|42:244|33:286,2,69.9999978637696,2|0|0,0:0|0:0|0:0,0:0:0:0:
82,59,9786,6,0,L|235:41,1,139.999995727539,2|0,0:0|0:0,0:0:0:0:
370,164,10259,1,2,0:0:0:0:
169,130,10417,1,0,0:0:0:0:
404,45,10575,5,4,3:0:0:0:
446,60,10653,1,0,0:0:0:0:
477,92,10732,1,2,0:0:0:0:
498,132,10811,1,0,0:0:0:0:
507,176,10890,1,2,0:0:0:0:
496,220,10969,1,0,0:0:0:0:
481,259,11049,6,0,B|451:284|375:284|398:233|322:233|292:259,1,200,6|0,0:0|0:0,0:0:0:0:
143,319,11523,2,0,L|162:203,1,100,2|0,1:2|0:0,0:0:0:0:
73,85,11838,2,0,L|54:201,1,100,2|0,0:0|0:0,0:0:0:0:
263,149,12154,1,0,1:2:0:0:
51,76,12312,6,0,L|17:278,1,200,2|0,0:0|0:0,0:0:0:0:
245,348,12786,1,2,1:2:0:0:
47,283,12944,1,0,0:0:0:0:
274,358,13102,2,0,L|290:256,1,100,2|0,0:0|0:0,0:0:0:0:
319,88,13417,1,0,1:2:0:0:
479,259,13575,6,0,B|449:284|373:284|396:233|320:233|290:259,1,200,2|0,0:0|0:0,0:0:0:0:
144,327,14049,2,0,P|88:331|41:310,1,100,2|0,1:2|0:0,0:0:0:0:
1,161,14365,2,0,P|57:157|104:178,1,100,2|0,0:0|0:0,0:0:0:0:
144,327,14680,1,0,1:2:0:0:
243,75,14838,6,0,L|32:39,1,200,4|0,0:0|0:0,0:0:0:0:
106,209,15312,1,2,1:2:0:0:
243,75,15470,2,0,L|454:111,1,200,4|0,0:0|0:0,0:0:0:0:
328,246,15944,1,2,1:2:0:0:
243,75,16102,6,0,L|207:286,1,200,6|0,0:0|0:0,0:0:0:0:
336,368,16575,2,0,P|390:366|443:337,1,100,2|0,1:2|0:0,0:0:0:0:
209,272,16891,2,0,P|155:274|102:303,1,100,2|0,0:0|0:0,0:0:0:0:
336,368,17207,1,0,1:0:0:0:
394,162,17365,6,0,L|374:59,1,100,2|0,0:0|0:0,0:0:0:0:
416,261,17680,1,0,0:0:0:0:
473,69,17838,1,2,1:2:0:0:
321,200,17996,1,0,0:0:0:0:
509,267,18154,2,0,P|512:322|499:370,1,100,2|0,0:2|0:0,0:0:0:0:
321,200,18470,1,0,1:0:0:0:
473,69,18628,6,0,L|265:41,1,200,2|0,0:2|0:0,0:0:0:0:
74,17,19102,2,0,P|63:74|71:119,1,100,2|0,1:2|0:0,0:0:0:0:
291,227,19417,2,0,P|302:170|294:125,1,100,2|0,0:2|0:0,0:0:0:0:
92,300,19733,2,0,L|148:315,1,50,2|0,1:2|0:0,0:0:0:0:
238,337,19891,6,0,B|268:362|344:362|321:311|397:311|427:337,1,200,4|0,0:0|0:0,0:0:0:0:
482,109,20365,1,2,1:2:0:0:
426,336,20523,1,0,0:0:0:0:
308,100,20680,1,2,1:2:0:0:
345,330,20838,1,0,0:0:0:0:
482,109,20996,1,2,1:2:0:0:
254,254,21154,6,0,P|171:262|77:186,1,200,4|2,1:2|0:2,0:0:0:0:
150,27,21628,1,0,1:0:0:0:
7,125,21786,1,2,0:2:0:0:
221,137,21944,2,0,L|335:111,1,100,0|2,0:0|0:2,0:0:0:0:
111,259,22259,1,0,1:0:0:0:
225,99,22417,6,0,L|427:52,1,200,2|2,0:2|0:2,0:0:0:0:
360,204,22891,1,0,1:0:0:0:
430,30,23049,1,2,0:2:0:0:
499,204,23207,2,0,P|511:253|498:305,1,100,0|2,0:0|0:2,0:0:0:0:
426,124,23523,1,0,1:0:0:0:
348,324,23680,6,0,P|296:340|164:274,1,200,2|2,0:2|0:2,0:0:0:0:
156,101,24154,1,0,1:0:0:0:
32,231,24312,1,2,0:2:0:0:
231,180,24470,2,0,L|352:193,1,100,0|2,0:0|0:2,0:0:0:0:
254,25,24786,1,0,1:0:0:0:
225,213,24944,6,0,B|316:222|316:222|330:236|330:236|422:246,1,200,2|2,0:2|0:2,0:0:0:0:
251,313,25417,2,0,L|130:300,1,100,0|2,1:0|0:2,0:0:0:0:
35,242,25733,1,0,0:0:0:0:
10,114,25891,1,0,3:0:0:0:
60,370,26049,1,6,3:0:0:0:
231,180,26207,6,0,P|304:166|427:242,1,200,4|0,0:0|0:0,0:0:0:0:
251,302,26680,1,0,1:0:0:0:
422,357,26838,1,2,0:0:0:0:
216,291,26996,2,0,L|109:311,1,100,0|2,0:0|0:0,0:0:0:0:
325,273,27312,1,0,1:0:0:0:
124,212,27470,6,0,P|66:129|92:33,1,200,2|2,0:0|0:0,0:0:0:0:
266,7,27944,2,0,L|372:22,1,100,0|2,1:0|0:0,0:0:0:0:
483,156,28259,1,0,0:0:0:0:
304,135,28417,1,2,0:0:0:0:
464,274,28575,1,0,1:0:0:0:
285,253,28733,6,0,L|68:289,1,200,2|2,0:0|0:0,0:0:0:0:
177,128,29207,1,0,1:0:0:0:
16,209,29365,1,2,0:0:0:0:
204,117,29523,2,0,L|312:135,1,100,0|2,0:0|0:0,0:0:0:0:
73,92,29838,5,4,1:2:0:0:
310,20,29996,1,0,0:0:0:0:
191,238,30154,1,6,1:2:0:0:
120,1,30312,1,0,0:0:0:0:
337,120,30470,1,6,1:2:0:0:
100,191,30628,1,0,0:0:0:0:
310,20,30786,2,0,P|363:18|404:40,1,100,4|0,1:2|0:0,0:0:0:0:
501,240,31102,1,0,1:0:0:0:
463,271,31180,1,0,1:0:0:0:
421,299,31259,6,0,P|331:297|270:232,1,179.999994506836,2|0,1:2|0:0,0:0:0:0:
389,110,31733,2,0,L|476:131,1,89.9999972534181,2|0,1:2|0:0,0:0:0:0:
307,165,32049,2,0,L|132:122,1,179.999994506836,2|0,0:2|1:0,0:0:0:0:
256,3,32523,1,0,0:0:0:0:
307,165,32680,6,0,P|312:224|299:261,1,89.9999972534181,2|0,0:2|0:0,0:0:0:0:
134,286,32996,1,0,1:0:0:0:
278,377,33154,2,0,L|466:351,1,179.999994506836,2|0,0:2|0:0,0:0:0:0:
496,184,33628,1,2,1:2:0:0:
330,142,33786,1,0,0:0:0:0:
288,312,33944,1,2,0:2:0:0:
456,352,34102,1,0,0:0:0:0:
496,184,34259,2,0,P|508:132|499:87,1,89.9999972534181,2|0,1:2|0:0,0:0:0:0:
341,238,34575,6,0,L|166:196,1,179.999994506836,2|0,0:2|1:0,0:0:0:0:
1,154,35049,1,0,0:2:0:0:
250,77,35207,2,0,L|150:108,1,89.9999972534181,2|0,0:2|0:0,0:0:0:0:
329,54,35523,1,0,1:0:0:0:
166,5,35680,1,0,0:0:0:0:
285,192,35838,5,2,0:2:0:0:
479,115,35996,1,0,0:0:0:0:
375,318,36154,1,2,1:2:0:0:
375,318,36233,1,0,1:0:0:0:
374,318,36312,6,0,P|288:335|207:298,1,179.999994506836,2|2,0:2|0:0,0:0:0:0:
111,155,36786,1,0,1:0:0:0:
242,44,36944,2,0,P|328:27|409:64,1,179.999994506836,2|2,0:0|0:0,0:0:0:0:
506,208,37418,1,0,1:0:0:0:
374,318,37575,6,0,B|288:339|288:339|207:298,1,179.999994506836,2|2,0:0|0:0,0:0:0:0:
111,155,38049,1,0,1:0:0:0:
242,44,38207,2,0,B|328:23|328:23|409:63,1,179.999994506836,2|2,0:0|0:0,0:0:0:0:
506,208,38681,1,0,1:0:0:0:
312,121,38838,6,0,L|130:167,1,179.999994506836,2|2,0:0|0:0,0:0:0:0:
334,223,39312,2,0,L|243:245,1,89.9999972534181,0|0,1:0|0:0,0:0:0:0:
356,325,39628,1,2,0:0:0:0:
181,369,39786,1,0,0:0:0:0:
357,217,39944,1,0,1:0:0:0:
127,269,40102,6,0,P|88:212|95:104,1,179.999994506836,2|0,0:0|0:0,0:0:0:0:
305,18,40575,1,0,1:0:0:0:
246,244,40733,1,0,0:0:0:0:
440,63,40891,1,2,1:2:0:0:
381,289,41049,1,0,1:0:0:0:
305,18,41207,1,0,1:0:0:0:
246,244,41365,6,0,P|148:249|76:180,1,200,4|0,1:2|0:0,0:0:0:0:
170,29,41838,1,2,1:2:0:0:
5,101,41996,1,0,0:0:0:0:
229,153,42154,1,2,0:2:0:0:
32,108,42312,1,0,0:0:0:0:
134,256,42470,1,2,1:2:0:0:
257,63,42628,6,0,P|355:58|427:127,1,200,2|2,0:2|0:0,0:0:0:0:
229,153,43102,1,0,1:0:0:0:
370,304,43259,2,0,P|272:309|200:240,1,200,2|2,0:0|0:0,0:0:0:0:
398,214,43733,1,2,1:2:0:0:
257,63,43891,1,0,0:0:0:0:
424,239,44049,2,0,L|411:351,1,100,2|0,0:2|0:0,0:0:0:0:
438,137,44365,1,2,1:2:0:0:
255,218,44523,1,0,0:0:0:0:
472,118,44680,6,0,B|442:93|366:93|389:144|313:144|283:118,1,200,2|0,0:2|1:0,0:0:0:0:
109,16,45154,1,4,0:0:0:0:
57,250,45312,2,0,L|259:217,1,200,2|2,0:0|1:2,0:0:0:0:
453,188,45786,1,0,0:0:0:0:
250,337,45944,1,2,0:2:0:0:
292,106,46102,1,0,0:0:0:0:
245,364,46259,1,0,1:0:0:0:
27,218,46417,6,0,P|-4:126|29:34,1,200,6|2,0:2|0:2,0:0:0:0:
125,211,46891,1,0,1:0:0:0:
229,40,47049,2,0,P|261:132|227:224,1,200,2|2,0:2|0:2,0:0:0:0:
132,48,47523,1,0,1:0:0:0:
27,218,47680,6,0,B|-9:126|-9:126|29:34,1,200,2|2,0:2|0:2,0:0:0:0:
125,211,48154,1,2,1:2:0:0:
229,40,48312,1,0,0:0:0:0:
333,211,48470,2,0,L|437:211,1,100,2|0,0:2|0:0,0:0:0:0:
249,294,48786,1,2,1:2:0:0:
283,96,48944,6,0,B|313:71|389:71|366:122|442:122|472:96,1,200,2|2,0:2|0:2,0:0:0:0:
415,288,49417,1,0,1:0:0:0:
283,96,49575,2,0,B|253:71|177:71|200:122|124:122|94:96,1,200,2|2,0:2|0:2,0:0:0:0:
151,288,50048,1,0,1:0:0:0:
283,96,50207,6,0,L|253:-3,1,100,4|0,0:0|0:0,0:0:0:0:
220,201,50523,1,0,0:0:0:0:
403,125,50680,1,0,1:0:0:0:
299,294,50838,1,0,0:2:0:0:
283,96,50996,5,2,0:2:0:0:
447,275,51154,1,0,0:0:0:0:
220,201,51312,1,2,1:2:0:0:
473,157,51470,6,0,L|282:95,1,200,4|2,1:2|0:0,0:0:0:0:
91,33,51944,1,2,1:2:0:0:
220,201,52102,1,0,3:0:0:0:
220,201,52180,1,0,3:0:0:0:
220,201,52259,2,0,L|220:309,1,100,2|0,3:2|0:0,0:0:0:0:
282,95,52575,1,4,1:2:0:0:
86,157,52733,6,0,P|54:245|86:345,1,200,2|2,0:0|0:2,0:0:0:0:
220,201,53207,1,4,1:2:0:0:
355,343,53365,2,0,P|385:249|354:157,1,200,0|2,0:2|0:2,0:0:0:0:
220,301,53839,1,4,1:2:0:0:
463,177,53996,6,0,L|251:137,1,200,2|0,0:2|0:0,0:0:0:0:
36,99,54470,1,4,1:2:0:0:
219,19,54628,1,2,0:2:0:0:
219,19,54707,1,0,0:0:0:0:
219,19,54786,2,0,P|268:8|330:14,1,100,2|0,0:2|0:2,0:0:0:0:
172,150,55102,1,0,1:0:0:0:
400,110,55259,6,0,P|435:174|415:315,1,200,6|0,0:2|0:0,0:0:0:0:
235,366,55733,1,0,1:0:0:0:
235,366,55812,1,0,0:0:0:0:
235,366,55891,1,0,0:0:0:0:
284,172,56049,1,2,0:2:0:0:
71,303,56207,1,4,1:2:0:0:
358,346,56365,1,6,1:2:0:0:
127,189,56523,6,0,P|107:135|147:-1,1,200,6|0,0:2|0:2,0:0:0:0:
284,172,56996,1,2,1:2:0:0:
21,100,57154,1,0,0:0:0:0:
21,100,57233,1,0,0:0:0:0:
21,100,57312,1,2,0:2:0:0:
237,16,57470,1,0,0:0:0:0:
127,189,57628,1,2,1:2:0:0:
343,105,57786,6,0,L|326:328,1,200,2|2,0:2|0:2,0:0:0:0:
460,93,58259,1,0,1:0:0:0:
232,186,58417,1,2,0:2:0:0:
423,244,58575,1,0,0:0:0:0:
343,105,58733,5,2,0:2:0:0:
327,304,58891,1,0,1:0:0:0:
346,67,59049,6,0,L|187:48,1,150,2|0,0:2|0:0,0:0:0:0:
159,45,59365,1,2,0:2:0:0:
411,5,59523,1,4,1:2:0:0:
244,149,59680,6,0,L|402:167,1,150,2|0,0:2|0:0,0:0:0:0:
431,171,59996,1,2,0:2:0:0:
179,211,60154,1,4,1:2:0:0:
346,67,60312,6,0,L|454:79,1,100,6|0,0:2|0:0,0:0:0:0:
310,228,60628,1,2,0:2:0:0:
164,91,60786,1,2,1:2:0:0:
126,78,60865,1,0,0:0:0:0:
86,80,60944,1,0,0:0:0:0:
51,100,61023,1,0,0:0:0:0:
28,133,61102,1,0,1:0:0:0:
143,330,61259,1,4,1:2:0:0:
164,91,61417,1,4,1:2:0:0:
34,293,61575,6,0,L|248:309,1,200,2|0,0:0|0:0,0:0:0:0:
450,328,62049,1,2,1:2:0:0:
282,378,62207,1,0,0:0:0:0:
430,242,62365,2,0,P|437:182|421:134,1,100,2|0,0:2|0:0,0:0:0:0:
294,21,62680,1,2,1:2:0:0:
210,204,62838,6,0,B|180:229|104:229|127:178|51:178|21:204,1,200,2|2,0:2|0:2,0:0:0:0:
180,117,63312,1,0,1:0:0:0:
261,310,63470,2,0,B|291:335|367:335|344:284|420:284|450:310,1,200,2|2,0:2|0:2,0:0:0:0:
291,223,63944,1,0,1:0:0:0:
480,122,64102,6,0,L|466:226,1,100,2|0,0:2|0:0,0:0:0:0:
494,35,64417,1,0,0:0:0:0:
304,123,64575,2,0,L|290:227,1,100,2|0,1:2|0:0,0:0:0:0:
318,36,64891,2,0,L|95:6,1,200,2|0,0:2|1:0,0:0:0:0:
304,123,65365,2,0,L|526:93,1,200,2|2,0:2|0:2,0:0:0:0:
318,36,65838,1,0,1:0:0:0:
274,268,65996,2,0,P|185:276|143:259,1,100,2|0,0:2|0:0,0:0:0:0:
35,49,66312,5,4,1:2:0:0:
304,123,66470,1,4,1:2:0:0:
38,209,66628,6,0,B|77:292|215:322|204:166|343:195|381:282,1,400,2|0,0:2|0:0,0:0:0:0:
170,349,67417,2,0,P|110:357|60:334,1,100,2|0,0:2|0:0,0:0:0:0:
131,165,67733,1,0,1:0:0:0:
342,349,67891,6,0,P|402:357|452:334,1,100,2|0,0:2|0:0,0:0:0:0:
381,165,68207,1,0,0:0:0:0:
159,274,68365,1,2,1:2:0:0:
256,49,68523,1,0,0:0:0:0:
353,274,68680,1,2,0:2:0:0:
244,21,68838,1,0,0:0:0:0:
466,142,68996,1,2,1:2:0:0:
212,194,69154,6,0,L|8:169,1,200,2|2,0:2|0:2,0:0:0:0:
159,274,69628,2,0,L|261:286,1,100,2|0,1:2|0:0,0:0:0:0:
103,92,69944,2,0,L|205:104,1,100,0|2,0:0|0:2,0:0:0:0:
400,129,70259,1,0,1:0:0:0:
258,286,70417,6,0,L|282:84,1,200,2|0,0:2|0:0,0:0:0:0:
382,263,70891,1,2,1:2:0:0:
127,300,71049,1,0,0:0:0:0:
398,346,71207,1,2,0:2:0:0:
143,383,71365,1,0,0:0:0:0:
382,263,71523,1,2,1:2:0:0:
127,300,71680,6,0,P|74:257|61:119,1,200,4|0,2:2|0:0,0:0:0:0:
234,39,72154,2,0,P|256:94|253:147,1,100,2|0,1:2|0:0,0:0:0:0:
447,199,72470,2,0,P|425:144|428:91,1,100,2|0,0:2|0:0,0:0:0:0:
234,39,72786,1,0,1:0:0:0:
348,244,72944,6,0,L|135:278,1,200,2|0,0:2|0:0,0:0:0:0:
335,350,73417,1,0,1:0:0:0:
361,138,73575,2,2,L|254:154,1,100,2|0,0:2|0:0,0:0:0:0:
63,183,73891,1,0,0:0:0:0:
183,23,74049,1,2,1:2:0:0:
150,275,74207,1,0,0:0:0:0:
324,38,74365,5,4,3:3:0:0:
375,21,74443,1,0,3:3:0:0:
428,33,74522,1,0,3:3:0:0:
468,70,74601,1,0,3:3:0:0:
482,123,74680,1,4,3:3:0:0:
469,175,74759,1,0,3:3:0:0:
430,213,74838,1,0,3:3:0:0:
377,227,74917,1,0,3:3:0:0:
322,217,74996,1,4,3:3:0:0:
276,185,75075,1,0,3:3:0:0:
230,154,75154,1,0,3:3:0:0:
177,136,75233,1,0,3:3:0:0:
121,136,75312,1,4,3:3:0:0:
69,154,75391,1,0,3:3:0:0:
35,197,75470,1,0,3:3:0:0:
27,251,75549,1,0,3:3:0:0:
42,303,75628,6,0,P|74:322|113:324,1,69.9999978637696,6|0,0:0|0:0,0:0:0:0:
256,266,75944,2,0,P|290:269|320:288,1,69.9999978637696,2|0,0:0|0:0,0:0:0:0:
106,324,76259,2,0,P|81:255|92:164,1,139.999995727539,2|2,0:0|1:2,0:0:0:0:
84,189,76891,5,6,0:2:0:0:
198,22,77049,1,0,0:0:0:0:
285,204,77207,1,2,1:2:0:0:
119,90,77365,1,0,0:0:0:0:
352,90,77523,5,2,0:2:0:0:
186,204,77681,1,0,0:0:0:0:
273,22,77839,1,2,1:2:0:0:
387,189,77997,1,0,0:0:0:0:
205,102,78154,5,2,0:2:0:0:
271,309,78312,1,0,0:0:0:0:
118,135,78470,5,2,1:2:0:0:
184,342,78628,1,0,0:0:0:0:
31,168,78786,5,2,0:2:0:0:
97,375,78944,1,0,0:0:0:0:
305,293,79102,2,0,P|302:235|270:176,1,119.999996337891,2|0,1:2|0:0,0:0:0:0:
50,86,79417,5,2,0:2:0:0:
244,25,79575,1,0,0:0:0:0:
199,223,79733,1,2,1:2:0:0:
129,0,79891,1,0,0:0:0:0:
278,136,80049,5,2,0:2:0:0:
84,197,80207,1,0,0:0:0:0:
233,334,80365,1,2,1:2:0:0:
163,110,80523,1,0,0:0:0:0:
118,308,80680,5,2,0:2:0:0:
312,247,80838,1,0,0:0:0:0:
84,197,80996,5,2,1:2:0:0:
278,136,81154,1,0,0:0:0:0:
50,86,81312,6,0,L|168:42,1,119.999996337891,2|0,0:2|0:0,0:0:0:0:
312,247,81628,2,0,L|194:291,1,119.999996337891,0|0,1:0|0:0,0:0:0:0:
306,108,81944,5,6,0:2:0:0:
371,301,82102,1,0,0:0:0:0:
431,106,82259,1,2,1:2:0:0:
267,228,82417,1,0,0:0:0:0:
463,82,82575,5,2,0:2:0:0:
403,277,82732,1,0,0:0:0:0:
338,84,82891,1,2,1:2:0:0:
504,201,83049,1,0,0:0:0:0:
267,228,83207,5,2,0:2:0:0:
431,106,83365,1,0,0:0:0:0:
174,206,83523,5,2,1:2:0:0:
338,84,83681,1,0,0:0:0:0:
81,184,83838,5,2,0:2:0:0:
245,62,83996,1,0,0:0:0:0:
273,267,84154,2,0,P|276:333|255:384,1,119.999996337891,2|0,1:2|0:0,0:0:0:0:
81,184,84470,6,0,L|326:144,1,239.999992675781,2|0,0:2|1:0,0:0:0:0:
490,12,84944,1,2,0:2:0:0:
431,200,85102,2,0,L|186:240,1,239.999992675781,2|0,0:2|1:0,0:0:0:0:
22,372,85576,1,2,0:2:0:0:
81,184,85733,6,0,P|88:117|63:51,1,119.999996337891,2|0,0:2|0:0,0:0:0:0:
310,29,86049,2,0,P|303:96|328:162,1,119.999996337891,2|0,1:2|0:0,0:0:0:0:
464,306,86365,1,2,0:2:0:0:
217,262,86523,1,0,0:0:0:0:
436,203,86680,1,2,1:2:0:0:
244,364,86838,1,0,0:0:0:0:
318,145,86996,5,6,0:2:0:0:
132,255,87154,1,0,0:0:0:0:
129,38,87312,1,2,1:2:0:0:
241,225,87470,1,0,0:0:0:0:
238,8,87628,5,2,0:2:0:0:
350,195,87786,1,0,0:0:0:0:
132,198,87944,1,2,1:2:0:0:
320,87,88102,1,0,0:0:0:0:
213,278,88259,5,2,0:2:0:0:
211,60,88417,1,0,0:0:0:0:
112,278,88575,5,2,1:2:0:0:
110,60,88733,1,0,0:0:0:0:
11,278,88891,5,2,0:2:0:0:
9,60,89049,1,0,0:0:0:0:
213,278,89207,2,0,L|343:278,1,119.999996337891,2|0,1:2|0:0,0:0:0:0:
464,104,89523,5,2,0:2:0:0:
441,346,89680,1,0,0:0:0:0:
355,125,89838,1,2,1:2:0:0:
441,346,89996,1,0,0:0:0:0:
464,104,90154,5,2,0:2:0:0:
271,197,90312,1,0,0:0:0:0:
485,213,90471,1,2,1:2:0:0:
271,197,90628,1,0,0:0:0:0:
448,318,90786,5,2,0:2:0:0:
464,104,90944,1,0,0:0:0:0:
250,88,91102,1,2,1:2:0:0:
234,302,91259,1,0,0:0:0:0:
448,318,91417,2,0,P|469:254|460:197,1,119.999996337891,2|0,0:2|0:0,0:0:0:0:
250,88,91733,2,0,P|229:152|238:209,1,119.999996337891,2|0,1:2|0:0,0:0:0:0:
358,23,92049,6,0,L|76:59,1,239.999992675781,4|2,0:0|1:2,0:0:0:0:
44,257,92523,1,0,0:0:0:0:
246,185,92680,2,0,L|365:169,1,119.999996337891,2|0,0:2|0:0,0:0:0:0:
149,195,92996,1,0,1:0:0:0:
349,276,93154,1,2,0:2:0:0:
264,77,93312,5,2,0:2:0:0:
464,158,93470,1,0,0:0:0:0:
238,68,93628,2,0,L|116:91,1,119.999996337891,2|0,1:2|0:0,0:0:0:0:
65,328,93944,5,2,0:2:0:0:
17,106,94102,1,0,0:0:0:0:
210,224,94259,1,2,1:2:0:0:
17,106,94417,2,0,L|261:60,1,239.999992675781,2|0,0:2|0:0,0:0:0:0:
454,166,94891,6,0,P|454:226|433:302,1,119.999996337891,2|0,1:2|0:0,0:0:0:0:
130,245,95207,2,0,P|130:305|151:381,1,119.999996337891,0|0,1:0|0:0,0:0:0:0:
286,159,95523,1,0,1:0:0:0:
17,106,95680,1,0,0:0:0:0:
17,106,95759,1,0,0:0:0:0:
17,106,95838,1,0,1:0:0:0:
222,6,95996,1,0,0:0:0:0:
130,245,96154,5,0,1:0:0:0:
128,286,96233,1,0,0:0:0:0:
134,327,96312,1,0,0:0:0:0:
339,227,96470,1,0,1:2:0:0:
54,154,96628,1,0,0:0:0:0:
54,154,96707,1,0,0:0:0:0:
54,154,96786,1,0,1:0:0:0:
407,57,96944,6,0,L|432:302,1,239.999992675781,6|0,0:2|0:0,0:0:0:0:
289,165,97417,2,0,L|166:177,1,119.999996337891,2|0,1:2|0:0,0:0:0:0:
75,346,97733,2,0,L|197:333,1,119.999996337891,2|0,0:2|0:0,0:0:0:0:
304,134,98049,1,0,1:2:0:0:
68,244,98207,6,0,L|93:-1,1,239.999992675781,2|0,0:2|0:2,0:0:0:0:
304,134,98680,2,0,P|383:132|438:101,1,119.999996337891,2|0,1:2|0:0,0:0:0:0:
182,21,98996,1,2,0:2:0:0:
182,21,99075,1,0,0:0:0:0:
182,21,99154,1,0,0:0:0:0:
271,243,99312,1,2,1:2:0:0:
271,243,99391,1,0,0:0:0:0:
271,243,99470,6,0,P|376:259|497:202,1,239.999992675781,2|0,0:2|0:0,0:0:0:0:
506,157,99865,1,0,0:0:0:0:
502,109,99944,2,0,L|487:48,1,59.9999981689454,2|0,0:2|0:0,0:0:0:0:
370,4,100102,2,0,L|385:65,1,59.9999981689454,2|0,0:2|0:0,0:0:0:0:
298,153,100259,2,0,L|283:92,1,59.9999981689454,2|0,0:2|0:0,0:0:0:0:
166,48,100417,2,0,L|181:109,1,59.9999981689454,2|0,0:2|0:0,0:0:0:0:
132,212,100575,1,2,0:2:0:0:
132,212,100654,1,0,0:0:0:0:
132,212,100733,2,0,P|242:193|353:260,1,239.999992675781,4|2,0:0|0:2,0:0:0:0:
373,296,101128,1,0,0:0:0:0:
381,343,101207,5,2,0:2:0:0:
391,296,101286,1,0,0:0:0:0:
401,249,101365,1,0,0:0:0:0:
411,202,101444,1,0,0:0:0:0:
421,155,101523,2,0,L|435:88,1,59.9999981689454,2|0,1:2|0:0,0:0:0:0:
267,68,101680,2,0,L|200:54,1,59.9999981689454,2|0,1:2|0:0,0:0:0:0:
180,222,101838,2,0,L|166:289,1,59.9999981689454,2|0,1:2|0:0,0:0:0:0:
334,309,101996,6,0,L|457:334,1,119.999996337891,6|0,0:2|0:0,0:0:0:0:
433,96,102312,1,0,0:0:0:0:
180,222,102470,2,0,L|56:196,1,119.999996337891,2|0,1:2|0:0,0:0:0:0:
303,131,102786,1,2,0:2:0:0:
316,84,102865,1,0,0:0:0:0:
304,37,102944,1,0,0:0:0:0:
267,5,103023,1,0,0:0:0:0:
219,1,103102,1,2,1:2:0:0:
287,227,103259,2,0,P|386:236|497:134,1,239.999992675781,2|0,0:2|0:0,0:0:0:0:
304,36,103733,6,0,B|272:16|203:22|234:65|166:71|134:51,1,179.999994506836,2|0,1:2|0:0,0:0:0:0:
95,22,104049,2,0,L|36:49,1,59.9999981689454,2|0,0:2|0:0,0:0:0:0:
183,145,104207,2,0,L|242:118,1,59.9999981689454,0|0,0:0|0:0,0:0:0:0:
65,226,104365,2,0,L|6:253,1,59.9999981689454,2|0,1:2|0:0,0:0:0:0:
162,329,104523,5,0,0:0:0:0:
212,345,104601,1,0,0:0:0:0:
264,333,104680,1,2,0:2:0:0:
304,297,104759,1,0,0:0:0:0:
333,251,104838,1,0,0:0:0:0:
366,209,104917,1,0,0:0:0:0:
413,185,104996,1,2,1:2:0:0:
466,188,105075,1,0,0:0:0:0:
507,214,105154,1,0,0:0:0:0:
212,345,105312,6,0,L|195:275,1,59.9999981689454,2|0,0:2|0:0,0:0:0:0:
57,192,105470,2,0,L|74:262,1,59.9999981689454,2|0,0:2|0:0,0:0:0:0:
152,87,105628,2,0,L|137:28,1,59.9999981689454,2|0,1:2|0:0,0:0:0:0:
181,194,105786,6,0,L|330:155,1,119.999996337891,4|2,0:0|0:2,0:0:0:0:
344,150,106023,1,0,0:0:0:0:
344,150,106102,1,0,0:0:0:0:
212,345,106259,1,2,1:2:0:0:
212,345,106338,1,0,0:0:0:0:
212,345,106417,1,0,0:0:0:0:
152,87,106575,1,2,0:2:0:0:
46,286,106733,1,2,0:2:0:0:
344,150,106891,1,2,1:2:0:0:
344,150,106970,1,0,0:0:0:0:
344,150,107049,6,0,P|428:137|509:211,1,179.999994506836,2|0,1:2|0:0,0:0:0:0:
406,335,107523,2,0,L|312:335,1,89.9999972534181,2|0,1:2|0:0,0:0:0:0:
170,222,107838,2,0,L|264:222,1,89.9999972534181,2|0,0:2|0:0,0:0:0:0:
129,335,108154,1,0,1:0:0:0:
203,125,108312,1,0,0:0:0:0:
123,356,108470,6,0,P|80:361|20:341,1,89.9999972534181,2|0,0:2|0:0,0:0:0:0:
260,222,108786,1,0,1:0:0:0:
123,88,108944,2,0,P|80:83|20:103,1,89.9999972534181,2|0,0:2|0:0,0:0:0:0:
260,222,109259,1,0,0:0:0:0:
83,167,109417,1,2,1:2:0:0:
235,111,109575,1,0,0:0:0:0:
179,323,109733,5,2,0:2:0:0:
230,135,109891,1,0,0:0:0:0:
313,350,110049,2,0,P|376:353|439:311,1,134.999995880127,2|0,1:2|0:0,0:0:0:0:
455,274,110365,6,0,L|446:164,1,89.9999972534181,2|0,0:2|0:0,0:0:0:0:
230,135,110680,1,0,1:0:0:0:
390,17,110838,1,0,0:2:0:0:
332,260,110996,2,0,P|282:278|237:272,1,89.9999972534181,2|0,0:2|0:0,0:0:0:0:
89,202,111312,1,0,1:0:0:0:
318,123,111470,5,0,0:0:0:0:
318,123,111549,1,0,0:0:0:0:
318,123,111628,1,2,0:2:0:0:
259,375,111786,1,0,0:0:0:0:
197,181,111944,1,2,0:2:0:0:
444,250,112102,6,0,L|231:275,1,200,6|2,0:2|0:0,0:0:0:0:
56,296,112575,1,0,1:0:0:0:
259,375,112733,1,2,0:0:0:0:
113,213,112891,2,0,P|99:161|106:103,1,100,0|2,0:0|0:0,0:0:0:0:
272,28,113207,1,0,1:0:0:0:
220,232,113365,6,0,L|7:257,1,200,2|2,0:0|0:0,0:0:0:0:
189,345,113838,2,0,L|295:332,1,100,0|0,1:0|0:0,0:0:0:0:
413,188,114154,1,2,0:0:0:0:
472,368,114312,1,0,0:0:0:0:
399,152,114470,1,0,1:0:0:0:
302,369,114628,6,0,L|103:345,1,200,2|2,0:0|0:0,0:0:0:0:
76,155,115102,1,0,1:0:0:0:
210,15,115259,2,0,L|408:38,1,200,2|2,0:2|0:2,0:0:0:0:
436,229,115733,1,0,1:0:0:0:
190,110,115891,2,0,L|312:124,1,100,6|0,0:0|0:0,0:0:0:0:
208,349,116207,5,2,0:0:0:0:
163,339,116286,1,0,0:0:0:0:
118,329,116365,1,2,1:2:0:0:
73,319,116444,1,0,0:0:0:0:
28,309,116523,1,2,0:2:0:0:
73,299,116601,1,0,0:0:0:0:
118,289,116680,1,0,1:2:0:0:
163,279,116759,1,0,0:0:0:0:
208,269,116838,1,2,1:2:0:0:
253,259,116917,1,0,0:0:0:0:
298,249,116996,1,2,1:2:0:0:
499,209,117154,6,0,P|514:154|436:25,1,200,4|0,1:2|0:0,0:0:0:0:
283,125,117628,2,0,L|169:117,1,100,2|0,1:2|0:0,0:0:0:0:
316,289,117944,2,0,L|202:281,1,100,2|0,0:2|0:0,0:0:0:0:
26,270,118259,1,2,1:2:0:0:
183,117,118417,6,0,L|410:133,1,200,2|2,0:2|0:0,0:0:0:0:
463,305,118891,1,0,1:0:0:0:
336,234,119049,1,2,0:0:0:0:
493,151,119207,2,0,P|505:98|498:51,1,100,0|2,0:0|0:0,0:0:0:0:
336,234,119523,1,2,1:2:0:0:
284,17,119680,6,0,L|56:1,1,200,2|0,0:2|0:0,0:0:0:0:
170,173,120154,1,2,1:2:0:0:
284,17,120312,1,0,0:0:0:0:
153,194,120470,2,0,P|141:247|153:297,1,100,2|0,0:2|0:0,0:0:0:0:
331,351,120786,1,0,1:0:0:0:
398,121,120944,6,0,B|368:96|292:96|315:147|239:147|209:121,1,200,4|0,0:0|0:0,0:0:0:0:
24,17,121417,2,0,L|45:120,1,100,2|0,1:2|0:0,0:0:0:0:
82,302,121733,1,2,0:2:0:0:
269,263,121891,1,0,0:0:0:0:
230,76,122049,1,0,1:0:0:0:
230,76,122128,1,0,0:0:0:0:
230,76,122207,6,0,P|312:56|411:105,1,200,6|2,0:2|0:2,0:0:0:0:
494,276,122680,2,0,L|514:166,1,100,0|2,1:0|0:2,0:0:0:0:
269,263,122996,2,0,L|289:373,1,100,0|2,0:0|0:2,0:0:0:0:
339,177,123312,1,0,1:0:0:0:
182,348,123470,6,0,P|100:368|1:319,1,200,2|2,0:2|0:2,0:0:0:0:
177,245,123944,1,2,1:2:0:0:
31,123,124102,2,0,P|113:103|212:152,1,200,2|0,0:0|0:0,0:0:0:0:
36,226,124576,1,2,1:2:0:0:
236,62,124733,6,0,L|395:43,1,150,2|0,0:2|0:0,0:0:0:0:
423,40,125049,1,2,0:2:0:0:
171,0,125207,1,0,1:0:0:0:
271,200,125365,6,0,L|430:181,1,150,2|0,0:2|0:0,0:0:0:0:
458,178,125681,1,2,0:2:0:0:
206,138,125839,1,0,1:0:0:0:
306,338,125996,6,0,L|465:319,1,150,4|0,0:0|0:0,0:0:0:0:
493,316,126312,1,0,0:0:0:0:
241,276,126470,1,0,1:0:0:0:
458,178,126628,6,0,P|475:114|449:24,1,150,0|0,0:2|0:0,0:0:0:0:
419,0,126944,1,0,1:0:0:0:
367,254,127102,1,2,1:2:0:0:
197,67,127259,6,0,L|-3:100,1,200,4|2,1:2|0:0,0:0:0:0:
146,222,127733,2,0,L|264:202,1,100,2|0,1:2|0:0,0:0:0:0:
89,369,128049,2,0,L|207:349,1,100,2|0,0:2|0:0,0:0:0:0:
375,316,128365,1,0,1:2:0:0:
146,222,128523,6,0,P|109:155|139:28,1,200,2|2,0:0|0:2,0:0:0:0:
256,181,128996,1,0,1:2:0:0:
380,38,129154,2,0,P|406:132|366:222,1,200,2|2,0:2|0:2,0:0:0:0:
146,222,129628,1,0,1:2:0:0:
316,356,129786,6,0,L|435:336,1,100,2|0,0:2|0:0,0:0:0:0:
476,158,130102,1,0,0:0:0:0:
510,373,130259,1,0,1:2:0:0:
480,185,130417,1,2,0:2:0:0:
348,321,130575,2,0,L|249:337,1,100,2|0,0:2|0:2,0:0:0:0:
60,370,130891,1,2,1:2:0:0:
173,217,131049,6,0,P|183:149|154:63,1,150,2|0,0:2|0:0,0:0:0:0:
125,42,131365,2,0,L|5:60,1,100,2|0,0:2|1:0,0:0:0:0:
290,108,131680,2,0,L|410:90,1,100,2|0,0:2|0:2,0:0:0:0:
477,317,131996,5,4,1:2:0:0:
206,257,132154,1,6,1:2:0:0:
512,168,132312,6,0,B|473:84|335:54|346:210|207:181|169:94,1,400,6|0,0:2|0:0,0:0:0:0:
0,4,133102,2,0,L|24:111,1,100,2|0,0:2|0:0,0:0:0:0:
65,286,133417,1,2,1:2:0:0:
263,148,133575,6,0,L|104:183,1,150,2|0,0:2|0:0,0:0:0:0:
72,191,133891,1,2,0:2:0:0:
300,265,134049,1,0,1:0:0:0:
159,71,134207,1,2,0:2:0:0:
159,310,134365,1,0,0:0:0:0:
299,116,134523,1,2,0:2:0:0:
142,331,134680,1,0,1:0:0:0:
366,245,134838,6,0,L|161:211,1,200,2|2,0:2|0:2,0:0:0:0:
352,368,135312,2,0,L|454:351,1,100,0|2,1:2|0:2,0:0:0:0:
342,135,135628,2,0,L|444:118,1,100,0|2,0:0|0:2,0:0:0:0:
202,159,135944,1,0,1:2:0:0:
481,227,136102,6,0,P|511:169|486:32,1,200,2|2,0:2|0:2,0:0:0:0:
252,21,136575,1,2,1:2:0:0:
361,234,136733,1,0,0:0:0:0:
157,107,136891,1,0,1:0:0:0:
370,0,137049,1,0,1:2:0:0:
266,216,137207,1,0,1:2:0:0:
479,109,137365,6,0,L|426:332,1,200,2|0,0:0|0:0,0:0:0:0:
199,361,137838,2,0,P|149:364|97:332,1,100,2|0,1:2|0:0,0:0:0:0:
235,137,138154,2,0,P|285:134|337:166,1,100,2|0,0:2|0:0,0:0:0:0:
199,361,138470,1,2,1:2:0:0:
15,206,138628,6,0,L|41:2,1,200,2|2,0:2|0:2,0:0:0:0:
276,59,139102,1,0,1:0:0:0:
103,160,139259,2,0,L|89:262,1,100,2|0,0:2|0:0,0:0:0:0:
313,351,139575,1,2,0:2:0:0:
276,59,139733,1,0,1:0:0:0:
186,270,139891,1,0,0:0:0:0:
430,186,140049,5,4,3:3:0:0:
459,140,140127,1,0,3:3:0:0:
458,86,140206,1,0,3:3:0:0:
427,42,140285,1,0,3:3:0:0:
376,23,140364,1,4,3:3:0:0:
323,36,140443,1,0,3:3:0:0:
287,76,140522,1,0,3:3:0:0:
280,130,140601,1,0,3:3:0:0:
295,183,140680,1,4,3:3:0:0:
288,237,140759,1,0,3:3:0:0:
252,277,140838,1,0,3:3:0:0:
199,290,140917,1,0,3:3:0:0:
148,271,140996,1,4,3:3:0:0:
117,227,141075,1,0,3:3:0:0:
116,173,141154,1,0,3:3:0:0:
145,127,141232,1,0,3:3:0:0:
198,112,141312,6,0,P|209:73|197:26,1,69.9999978637696,6|0,0:0|0:0,0:0:0:0:
363,11,141628,2,0,P|352:50|364:97,1,69.9999978637696,2|0,0:0|0:0,0:0:0:0:
445,213,141944,2,0,L|466:141,1,69.9999978637696,2|0,0:0|0:0,0:0:0:0:
288,199,142259,2,0,L|309:271,1,69.9999978637696,2|0,2:2|0:0,0:0:0:0:
226,14,142575,5,6,0:2:0:0:
171,210,142733,1,0,0:0:0:0:
87,23,142891,1,2,1:2:0:0:
275,100,143049,1,0,0:0:0:0:
49,172,143207,5,2,0:2:0:0:
245,227,143365,1,0,0:0:0:0:
58,311,143523,1,2,1:2:0:0:
135,123,143681,1,0,0:0:0:0:
215,354,143838,5,2,0:2:0:0:
270,121,143996,1,0,0:0:0:0:
321,361,144154,5,2,1:2:0:0:
376,128,144312,1,0,0:0:0:0:
427,368,144470,5,2,0:2:0:0:
482,135,144628,1,0,0:0:0:0:
292,272,144786,2,0,L|163:264,1,119.999996337891,2|0,1:2|0:0,0:0:0:0:
27,119,145102,5,2,0:2:0:0:
80,314,145259,1,0,0:0:0:0:
230,175,145417,1,2,1:2:0:0:
35,228,145574,1,0,0:0:0:0:
264,278,145733,5,2,0:2:0:0:
211,83,145890,1,0,0:0:0:0:
61,222,146048,1,2,1:2:0:0:
256,169,146205,1,0,0:0:0:0:
27,119,146365,5,2,0:2:0:0:
241,10,146523,1,0,0:0:0:0:
121,221,146680,5,2,1:2:0:0:
335,112,146838,1,0,0:0:0:0:
87,38,146996,6,0,L|68:166,1,119.999996337891,2|0,0:2|0:0,0:0:0:0:
185,348,147312,2,0,L|204:220,1,119.999996337891,0|0,1:0|0:0,0:0:0:0:
241,10,147628,5,6,0:2:0:0:
317,199,147786,1,0,0:0:0:0:
144,90,147944,1,2,1:2:0:0:
348,76,148102,1,0,0:0:0:0:
182,224,148259,5,2,0:2:0:0:
386,210,148417,1,0,0:0:0:0:
213,101,148575,1,2,1:2:0:0:
289,290,148733,1,0,0:0:0:0:
348,76,148891,5,2,0:2:0:0:
412,305,149049,1,0,0:0:0:0:
441,54,149207,5,2,1:2:0:0:
505,283,149365,1,0,0:0:0:0:
348,76,149523,2,0,L|223:58,1,119.999996337891,2|0,0:2|0:0,0:0:0:0:
84,203,149838,2,0,L|209:221,1,119.999996337891,2|0,1:2|0:0,0:0:0:0:
42,91,150154,6,0,L|76:331,1,239.999992675781,2|0,0:2|1:0,0:0:0:0:
141,121,150628,1,2,0:2:0:0:
263,297,150786,2,0,L|229:57,1,239.999992675781,2|0,0:2|1:0,0:0:0:0:
164,267,151260,1,2,0:2:0:0:
343,106,151417,5,2,0:2:0:0:
317,349,151575,1,0,0:0:0:0:
475,119,151733,1,2,1:2:0:0:
449,362,151891,1,0,0:0:0:0:
343,106,152049,5,2,0:2:0:0:
317,349,152207,1,0,0:0:0:0:
211,93,152365,1,2,1:2:0:0:
185,336,152523,1,0,0:0:0:0:
343,106,152680,5,6,0:2:0:0:
141,184,152838,1,0,0:0:0:0:
343,262,152996,1,2,1:2:0:0:
141,340,153154,1,0,0:0:0:0:
219,138,153312,5,2,0:2:0:0:
297,340,153470,1,0,0:0:0:0:
375,138,153628,1,2,1:2:0:0:
453,340,153786,1,0,0:0:0:0:
242,247,153944,5,2,0:2:0:0:
470,178,154102,1,0,0:0:0:0:
219,161,154259,5,2,1:2:0:0:
447,92,154417,1,0,0:0:0:0:
196,75,154575,5,2,0:2:0:0:
424,6,154733,1,0,0:0:0:0:
219,161,154891,2,0,L|94:149,1,119.999996337891,2|0,1:2|0:0,0:0:0:0:
374,173,155207,5,2,0:2:0:0:
191,289,155365,1,0,0:0:0:0:
374,173,155523,1,2,1:2:0:0:
295,372,155680,1,0,0:0:0:0:
211,148,155838,5,2,0:2:0:0:
422,259,155996,1,0,0:0:0:0:
211,148,156154,1,2,1:2:0:0:
295,372,156311,1,0,0:0:0:0:
392,134,156470,2,0,P|401:69|383:13,1,119.999996337891,2|0,0:2|0:0,0:0:0:0:
119,98,156786,2,0,P|110:163|128:219,1,119.999996337891,2|0,1:2|0:0,0:0:0:0:
370,300,157102,2,0,L|504:283,1,119.999996337891,2|0,0:2|0:0,0:0:0:0:
311,82,157417,2,0,L|177:99,1,119.999996337891,2|0,1:2|0:0,0:0:0:0:
60,314,157733,6,0,P|152:326|248:222,1,239.999992675781,4|2,0:0|1:2,0:0:0:0:
85,81,158207,1,0,0:0:0:0:
287,5,158365,2,0,L|421:22,1,119.999996337891,2|0,0:2|0:0,0:0:0:0:
501,214,158680,2,0,L|367:197,1,119.999996337891,0|2,1:0|0:2,0:0:0:0:
205,72,158996,5,2,0:2:0:0:
282,273,159154,1,0,0:0:0:0:
70,228,159312,2,0,P|52:166|65:104,1,119.999996337891,2|0,1:2|0:0,0:0:0:0:
272,165,159628,1,2,0:2:0:0:
39,242,159786,1,0,0:0:0:0:
314,286,159944,1,2,1:2:0:0:
139,68,160102,6,0,L|379:17,1,239.999992675781,2|0,0:2|0:0,0:0:0:0:
493,197,160575,2,0,P|503:266|496:322,1,119.999996337891,2|0,1:2|0:0,0:0:0:0:
187,175,160891,2,0,P|177:244|184:300,1,119.999996337891,0|0,1:0|0:0,0:0:0:0:
438,92,161207,1,0,1:0:0:0:
137,43,161365,1,0,0:0:0:0:
137,43,161444,1,0,0:0:0:0:
137,43,161523,1,0,1:0:0:0:
282,246,161680,1,0,0:0:0:0:
366,0,161838,5,0,1:0:0:0:
366,0,161917,1,0,0:0:0:0:
366,0,161996,1,0,0:0:0:0:
271,274,162154,1,0,1:2:0:0:
485,141,162312,1,0,0:0:0:0:
184,92,162470,1,0,1:0:0:0:
512,146,162628,6,0,L|500:288,1,139.999995727539,4|0,0:0|0:0,0:0:0:0:
383,236,163102,2,0,L|389:163,1,69.9999978637696,2|0,0:0|0:0,0:0:0:0:
263,154,163417,2,0,L|256:226,1,69.9999978637696,0|0,0:0|0:0,0:0:0:0:
244,350,163733,1,2,0:0:0:0:
244,350,163891,6,0,L|102:338,1,139.999995727539,0|0,0:0|0:0,0:0:0:0:
41,227,164365,2,0,P|34:184|46:138,1,69.9999978637696,2|0,0:0|0:0,0:0:0:0:
146,94,164680,2,0,P|153:51|141:5,1,69.9999978637696,0|0,0:0|0:0,0:0:0:0:
38,158,164996,1,2,0:0:0:0:
144,225,165154,2,0,P|234:234|328:154,1,209.999993591309,0|2,0:0|0:0,0:0:0:0:
393,57,165786,1,0,0:0:0:0:
393,57,165865,1,0,0:0:0:0:
393,57,165944,2,0,L|402:129,1,69.9999978637696,0|0,0:0|0:0,0:0:0:0:
430,319,166259,1,0,1:0:0:0:
480,41,166417,6,0,B|450:16|374:16|397:67|321:67|291:41,1,200,4|0,0:0|0:0,0:0:0:0:
257,19,166812,1,0,0:0:0:0:
220,1,166891,2,0,L|166:8,1,50,0|0,1:0|0:0,0:0:0:0:
20,94,167049,2,0,L|74:101,1,50,0|0,0:0|0:0,0:0:0:0:
241,134,167207,2,0,L|187:141,1,50,0|0,1:0|0:0,0:0:0:0:
41,227,167365,2,0,L|95:234,1,50,0|0,1:0|0:0,0:0:0:0:
241,320,167523,1,0,1:0:0:0:
241,320,167602,1,0,0:0:0:0:
241,320,167680,6,0,L|278:324,8,33.3333333333333,4|0|0|2|0|0|2|0|0,0:0|0:0|0:0|0:0|0:0|0:0|0:0|0:0|0:0,0:0:0:0:
222,296,168154,1,2,1:2:0:0:
210,252,168233,1,0,0:0:0:0:
214,207,168312,1,0,0:0:0:0:
234,166,168391,1,0,0:0:0:0:
274,145,168470,5,2,0:0:0:0:
319,145,168549,1,0,0:0:0:0:
358,167,168628,1,0,0:0:0:0:
402,189,168706,1,0,0:0:0:0:
451,187,168785,5,2,1:2:0:0:
494,162,168864,1,0,0:0:0:0:
512,119,168943,1,0,0:0:0:0:
512,70,169022,1,0,0:0:0:0:
499,26,169101,5,2,0:0:0:0:
457,10,169180,1,0,0:0:0:0:
412,15,169259,1,0,0:0:0:0:
382,49,169338,1,0,0:0:0:0:
382,94,169417,5,2,1:2:0:0:
339,78,169496,1,0,0:0:0:0:
294,83,169575,1,0,0:0:0:0:
264,117,169654,1,0,0:0:0:0:
264,161,169733,5,2,0:0:0:0:
221,145,169812,1,0,0:0:0:0:
176,150,169891,1,0,0:0:0:0:
146,184,169970,1,0,0:0:0:0:
146,228,170049,5,2,1:2:0:0:
103,212,170128,1,0,0:0:0:0:
58,217,170207,1,0,0:0:0:0:
28,251,170286,1,0,0:0:0:0:
17,294,170365,6,0,P|12:320|13:349,2,33.3333333333333,2|0|0,0:0|0:0|0:0,0:0:0:0:
87,321,170523,6,0,P|92:346|104:373,2,33.3333333333333
165,318,170680,6,0,P|160:292|161:263,2,33.3333333333333,2|0|0,1:2|0:0|0:0,0:0:0:0:
235,291,170838,6,0,P|240:265|252:238,2,33.3333333333333,0|0|0,0:0|0:0|0:0,0:0:0:0:
311,292,170996,5,2,0:2:0:0:
352,309,171074,1,0,0:0:0:0:
396,311,171153,1,0,0:0:0:0:
439,297,171232,1,0,0:0:0:0:
473,269,171311,1,2,1:2:0:0:
495,230,171390,1,0,0:0:0:0:
502,186,171469,1,0,0:0:0:0:
496,141,171549,1,0,0:0:0:0:
470,103,171628,6,0,P|426:97|405:106,1,50,2|0,0:2|0:0,0:0:0:0:
426,20,171786,2,0,P|383:31|367:48,1,50,0|0,0:0|0:0,0:0:0:0:
333,145,171944,6,0,P|289:151|268:142,1,50,2|0,1:2|0:0,0:0:0:0:
289,228,172102,2,0,P|246:216|230:199,1,50,0|0,0:0|0:0,0:0:0:0:
208,282,172259,6,0,P|181:261|175:245,2,33.3333333333333,2|0|0,0:2|0:0|0:0,0:0:0:0:
112,300,172417,6,0,P|96:270|96:253,2,33.3333333333333
16,279,172575,6,0,P|12:245|19:230,2,33.3333333333333,2|0|0,1:2|2:0|2:0,0:0:0:0:
48,354,172733,5,4,0:0:0:0:
102,147,172891,6,0,L|148:142,4,33.3333333333333,2|0|0|0|0,0:2|0:0|0:0|0:0|0:0,0:0:0:0:
33,50,173207,2,0,L|-13:55,4,33.3333333333333,2|0|0|0|0,1:2|0:0|0:0|0:0|0:0,0:0:0:0:
175,20,173523,6,0,L|180:66,4,33.3333333333333,2|0|0|0|0,0:2|0:2|0:2|0:2|0:2,0:2:0:0:
304,122,173839,2,0,L|299:76,4,33.3333333333333,2|0|0|0|0,1:2|0:0|0:0|0:0|0:0,0:0:0:0:
248,245,174154,6,0,P|223:254|189:251,1,50,2|0,0:2|0:0,0:0:0:0:
13,211,174312,2,0,P|38:202|71:204,1,50
243,152,174470,2,0,P|218:161|184:158,1,50,2|0,1:2|0:0,0:0:0:0:
8,118,174628,2,0,P|33:109|66:111,1,50,0|0,0:0|0:0,0:0:0:0:
238,59,174786,5,2,0:2:0:0:
281,47,174864,1,0,0:0:0:0:
326,48,174943,1,0,0:0:0:0:
368,64,175022,1,0,0:0:0:0:
403,91,175101,1,2,1:2:0:0:
429,128,175180,1,0,0:0:0:0:
439,172,175259,2,0,L|432:227,1,50,0|0,0:0|0:0,0:0:0:0:
414,304,175417,6,0,B|384:367|278:390|286:271|180:293|150:359,1,300,2|0,0:2|0:0,0:0:0:0:
81,376,175970,1,0,0:0:0:0:
36,367,176049,2,0,P|21:333|23:306,1,50,2|0,0:2|0:0,0:0:0:0:
16,237,176207,2,0,P|20:200|35:177,1,50
63,114,176365,2,0,P|84:84|109:72,1,50,2|0,1:2|0:0,0:0:0:0:
165,30,176523,2,0,P|199:15|226:16,1,50,0|0,2:0|2:0,0:0:0:0:
299,29,176680,5,2,0:2:0:0:
241,289,176838,1,0,0:0:0:0:
374,145,176996,1,0,1:0:0:0:
63,114,177154,1,2,0:0:0:0:
241,289,177312,5,0,0:0:0:0:
278,278,177470,5,0,0:0:0:0:
315,267,177628,5,0,1:0:0:0:
63,114,177786,2,0,L|52:173,1,50,4|0,0:0|0:0,0:0:0:0:
136,71,177944,6,0,L|255:71,1,100,2|0,0:2|0:0,0:0:0:0:
303,32,178180,1,0,0:0:0:0:
303,32,178259,2,0,P|328:24|361:26,1,50,2|0,1:2|0:0,0:0:0:0:
426,26,178417,1,0,0:0:0:0:
460,53,178495,1,0,0:0:0:0:
480,94,178574,1,2,0:2:0:0:
479,138,178653,1,0,0:0:0:0:
459,178,178732,1,0,0:0:0:0:
424,206,178811,1,0,0:0:0:0:
380,215,178890,1,2,1:2:0:0:
337,204,178969,1,0,0:0:0:0:
301,176,179049,1,0,0:0:0:0:
252,164,179127,5,0,0:0:0:0:
205,179,179206,1,2,0:2:0:0:
172,216,179285,1,0,0:0:0:0:
162,264,179364,1,0,0:0:0:0:
178,311,179443,1,0,0:0:0:0:
216,343,179522,1,2,1:2:0:0:
264,351,179601,1,0,0:0:0:0:
311,334,179680,1,0,0:0:0:0:
342,295,179759,1,0,0:0:0:0:
352,252,179838,6,0,L|346:184,1,50,2|0,0:2|0:0,0:0:0:0:
492,129,179996,2,0,L|498:197,1,50,0|0,0:0|0:0,0:0:0:0:
257,136,180154,2,0,L|251:68,1,50,2|0,1:2|0:0,0:0:0:0:
397,13,180312,2,0,L|403:81,1,50,0|0,0:0|0:0,0:0:0:0:
257,136,180470,5,2,0:2:0:0:
242,131,180549,1,0,0:0:0:0:
227,126,180628,1,0,0:0:0:0:
212,121,180707,1,0,0:0:0:0:
197,116,180786,1,2,1:2:0:0:
182,112,180865,1,0,0:0:0:0:
167,108,180944,1,0,0:0:0:0:
152,104,181023,1,0,0:0:0:0:
137,100,181102,2,0,L|154:220,2,100,2|0|0,0:2|0:0|1:0,0:0:0:0:
274,18,181575,6,0,L|331:37,1,50,2|0,0:2|0:0,0:0:0:0:
419,70,181733,1,2,0:2:0:0:
475,85,181811,1,0,0:0:0:0:
510,133,181891,1,2,0:2:0:0:
506,192,181970,1,0,0:0:0:0:
466,235,182049,1,2,1:2:0:0:
408,244,182127,1,0,0:0:0:0:
358,214,182206,1,2,0:2:0:0:
337,159,182285,1,0,0:0:0:0:
354,100,182365,1,2,0:2:0:0:
331,110,182444,1,0,0:0:0:0:
308,120,182523,1,2,0:2:0:0:
285,130,182602,1,0,0:0:0:0:
262,140,182680,1,2,1:2:0:0:
239,150,182759,1,0,0:0:0:0:
216,161,182838,6,0,L|235:37,1,100,4|0,0:0|0:0,0:0:0:0:
23,196,183154,1,2,0:2:0:0:
29,240,183233,1,0,0:0:0:0:
35,284,183312,2,0,L|45:341,1,50,4|0,1:2|0:0,0:0:0:0:
129,186,183470,5,2,0:2:0:0:
135,142,183549,1,0,0:0:0:0:
141,98,183628,2,0,L|151:41,1,50,4|0,1:2|0:0,0:0:0:0:
235,196,183786,5,2,0:2:0:0:
241,240,183865,1,0,0:0:0:0:
247,284,183944,2,0,L|257:341,1,50,4|0,1:2|0:0,0:0:0:0:
341,186,184102,5,2,0:2:0:0:
347,142,184181,1,0,0:0:0:0:
353,98,184260,2,0,L|363:41,1,50,4|0,1:2|0:0,0:0:0:0:
202,27,184417,5,2,0:2:0:0:
158,21,184496,1,0,0:0:0:0:
114,15,184575,2,0,L|57:5,1,50,4|0,1:2|0:0,0:0:0:0:
43,166,184733,5,2,0:2:0:0:
37,210,184812,1,0,0:0:0:0:
31,254,184891,2,0,L|21:311,1,50,4|0,1:2|0:0,0:0:0:0:
182,325,185049,5,2,0:2:0:0:
226,331,185128,1,0,0:0:0:0:
270,337,185207,2,0,L|327:347,1,50,4|0,1:2|0:0,0:0:0:0:
436,214,185365,5,2,0:2:0:0:
392,220,185444,1,0,0:0:0:0:
348,226,185523,2,0,L|291:236,1,50,4|0,1:2|0:0,0:0:0:0:
136,151,185680,5,2,0:2:0:0:
180,145,185759,1,0,0:0:0:0:
224,139,185838,2,0,L|281:129,1,50,4|0,1:2|0:0,0:0:0:0:
390,40,185996,5,2,0:2:0:0:
346,34,186075,1,0,0:0:0:0:
302,28,186154,2,0,L|245:18,1,50,0|0,1:0|0:0,0:0:0:0:
399,137,186312,2,0,L|456:147,1,50,0|0,1:0|0:0,0:0:0:0:
225,246,186470,5,4,1:2:0:0:
225,246,186786,5,4,1:0:0:0:
99,6,186944,1,4,1:0:0:0:
99,6,187259,5,4,1:0:0:0:
29,344,187416,1,4,1:0:0:0:
296,143,187575,6,0,L|229:130,1,50,0|0,0:0|0:0,0:0:0:0:
12,89,187733,1,4,1:0:0:0:
397,0,188049,5,0,0:0:0:0:
467,56,188207,1,0,0:0:0:0:
462,80,188286,1,0,1:0:0:0:
458,104,188365,1,0,0:0:0:0:
383,154,188523,1,0,1:0:0:0:
372,176,188601,1,0,1:0:0:0:
367,201,188680,1,4,3:0:0:0:
370,226,188759,1,4,3:0:0:0:
379,249,188838,1,0,0:0:0:0:
395,268,188917,1,0,0:0:0:0:
415,282,188996,1,0,1:0:0:0:
439,291,189075,1,0,1:0:0:0:
464,292,189154,1,0,0:0:0:0:
488,286,189233,1,0,0:0:0:0:
509,274,189312,6,0,L|513:230,1,34.9999989318848,0|0,1:0|0:0,0:0:0:0:
469,117,189470,1,0,1:0:0:0:
469,117,189549,1,0,0:0:0:0:
469,117,189628,2,0,L|465:161,1,34.9999989318848,0|0,1:0|0:0,0:0:0:0:
357,204,189786,2,0,L|361:160,1,34.9999989318848,4|4,3:0|3:0,0:0:0:0:
364,53,189944,5,0,0:0:0:0:
340,41,190022,1,0,1:0:0:0:
314,39,190101,1,0,0:0:0:0:
289,44,190180,1,0,0:0:0:0:
265,55,190259,1,0,1:0:0:0:
240,65,190338,1,0,0:0:0:0:
214,67,190417,1,4,3:0:0:0:
189,61,190496,1,4,3:0:0:0:
167,47,190575,6,0,L|122:40,1,34.9999989318848,4|0,3:0|0:0,0:0:0:0:
30,113,190733,2,0,L|75:120,1,34.9999989318848,4|0,3:0|0:0,0:0:0:0:
148,213,190891,2,0,L|103:206,1,34.9999989318848,0|0,1:0|0:0,0:0:0:0:
11,279,191049,2,0,L|56:286,1,34.9999989318848,0|0,0:0|1:0,0:0:0:0:
163,308,191207,1,0,1:0:0:0:
188,301,191286,1,0,1:0:0:0:
213,294,191365,1,0,1:0:0:0:
238,287,191444,1,0,1:0:0:0:
263,280,191523,5,0,1:0:0:0:
263,280,191838,2,0,L|234:109,1,150,4|4,0:1|0:3,0:0:0:0:
231,94,192391,1,4,0:3:0:0:
231,94,192470,6,0,L|225:62,2,30,4|0|0,0:3|0:0|0:0,0:0:0:0:
352,140,193102,6,0,P|388:145|423:138,1,50,2|0,0:0|0:0,0:0:0:0:
491,78,193417,1,2,0:0:0:0:
509,194,193575,1,0,0:0:0:0:
483,49,193733,2,0,L|489:-6,1,50,2|0,0:0|0:0,0:0:0:0:
402,144,194049,2,0,L|408:199,1,50,2|0,0:0|0:0,0:0:0:0:
335,7,194365,5,2,0:0:0:0:
288,324,194680,2,0,P|259:328|226:322,1,50,2|0,0:0|0:0,0:0:0:0:
384,364,194996,2,0,L|504:350,1,100,2|2,0:0|0:0,0:0:0:0:
504,222,195470,1,0,0:0:0:0:
399,133,195628,6,0,P|394:98|394:69,1,50,2|0,0:0|0:0,0:0:0:0:
253,17,195944,2,0,P|258:52|258:81,1,50,2|0,0:0|0:0,0:0:0:0:
221,215,196259,1,2,0:0:0:0:
153,86,196417,1,0,0:0:0:0:
236,239,196575,1,2,0:0:0:0:
90,317,196733,1,0,0:0:0:0:
7,164,196891,1,2,0:0:0:0:
75,293,197049,1,0,0:0:0:0:
221,215,197207,6,0,L|270:191,1,50,2|0,0:0|0:0,0:0:0:0:
413,118,197523,2,0,L|409:172,1,50,2|0,0:0|0:0,0:0:0:0:
401,332,197838,2,0,L|355:301,1,50,2|0,0:0|0:0,0:0:0:0:
221,215,198154,6,0,P|210:171|216:132,1,80,2|0,0:0|0:0,0:0:0:0:
372,21,198470,1,2,2:2:0:0:
339,204,198628,1,0,2:2:0:0:
250,25,198786,2,0,L|163:46,1,80,2|0,0:0|0:0,0:0:0:0:
108,233,199102,1,2,0:0:0:0:
254,126,199259,1,0,0:0:0:0:
33,49,199417,6,0,P|20:93|28:146,1,80,2|0,0:0|0:0,0:0:0:0:
165,298,199733,1,2,0:0:0:0:
159,72,199891,1,0,0:0:0:0:
31,258,200049,1,2,0:0:0:0:
159,72,200207,1,0,0:0:0:0:
165,298,200365,1,2,0:0:0:0:
159,72,200523,1,0,0:0:0:0:
7,293,200680,5,2,1:2:0:0:
281,237,200838,1,0,1:0:0:0:
55,87,200996,1,0,1:0:0:0:
111,361,201154,1,0,1:0:0:0:
168,46,201312,1,0,1:0:0:0:
229,347,201470,1,0,1:0:0:0:
281,5,201628,1,0,1:0:0:0:
347,333,201786,1,0,1:0:0:0:
281,5,201944,6,0,L|290:51,1,40,0|0,1:0|0:0,0:0:0:0:
347,333,202102,2,0,L|338:287,1,40,0|0,1:0|0:0,0:0:0:0:
152,202,202259,2,0,L|198:193,1,40,0|0,1:0|0:0,0:0:0:0:
480,136,202417,2,0,L|434:145,1,40,0|0,1:0|0:0,0:0:0:0:
314,167,202575,5,4,1:2:0:0:
314,167,203207,5,2,0:0:0:0:
221,192,203365,1,0,0:0:0:0:
128,164,203523,1,2,0:0:0:0:
74,85,203680,1,0,0:0:0:0:
153,257,203838,5,2,0:0:0:0:
128,164,203996,1,0,0:0:0:0:
156,71,204154,1,2,0:0:0:0:
235,17,204311,1,0,0:0:0:0:
63,96,204470,5,2,0:0:0:0:
223,141,204628,1,0,0:0:0:0:
63,96,204786,1,2,0:0:0:0:
223,141,204944,1,0,0:0:0:0:
24,237,205102,5,0,1:0:0:0:
24,237,205180,1,0,0:0:0:0:
24,237,205259,2,0,L|34:186,1,40,0|0,1:0|0:0,0:0:0:0:
143,43,205417,1,0,1:0:0:0:
143,43,205495,1,0,0:0:0:0:
143,43,205574,2,0,L|153:94,1,40,0|0,1:0|0:0,0:0:0:0:
188,274,205733,5,6,0:0:0:0:
251,77,205891,1,0,0:0:0:0:
390,230,206049,1,2,1:2:0:0:
188,274,206207,1,0,0:0:0:0:
364,113,206365,5,2,0:0:0:0:
301,310,206523,1,0,0:0:0:0:
162,157,206680,1,2,1:2:0:0:
364,113,206839,1,0,0:0:0:0:
188,274,206996,5,2,0:0:0:0:
256,58,207154,1,0,0:0:0:0:
99,238,207312,5,2,1:2:0:0:
167,22,207470,1,0,0:0:0:0:
188,274,207628,2,0,L|325:260,1,119.999996337891,2|0,0:0|0:0,0:0:0:0:
375,45,207944,2,0,L|255:57,1,119.999996337891,2|0,1:2|0:0,0:0:0:0:
30,79,208259,5,6,0:0:0:0:
216,164,208417,1,0,0:0:0:0:
21,188,208575,1,2,1:2:0:0:
106,2,208733,1,0,0:0:0:0:
207,273,208891,5,2,0:0:0:0:
21,188,209049,1,0,0:0:0:0:
216,164,209207,1,2,1:2:0:0:
131,350,209365,1,0,0:0:0:0:
110,118,209523,5,2,0:0:0:0:
328,186,209680,1,0,0:0:0:0:
82,213,209838,5,2,1:2:0:0:
300,281,209995,1,0,0:0:0:0:
110,118,210154,2,0,P|96:58|108:0,1,119.999996337891,2|0,0:0|0:0,0:0:0:0:
395,216,210470,2,0,P|409:276|397:334,1,119.999996337891,2|0,1:2|0:0,0:0:0:0:
250,103,210786,6,0,L|490:72,1,239.999992675781,2|0,0:0|1:2,0:0:0:0:
263,15,211259,1,2,0:0:0:0:
441,173,211417,2,0,L|201:204,1,239.999992675781,2|0,0:0|1:2,0:0:0:0:
428,261,211890,1,0,0:0:0:0:
250,103,212049,5,2,0:0:0:0:
216,336,212207,1,0,0:0:0:0:
56,195,212365,1,2,1:2:0:0:
289,229,212523,1,0,0:0:0:0:
139,50,212680,5,2,0:0:0:0:
208,308,212838,1,0,0:0:0:0:
305,21,212996,1,2,1:2:0:0:
374,279,213154,1,0,0:0:0:0:
139,50,213312,5,6,0:0:0:0:
336,108,213470,1,0,0:0:0:0:
139,50,213628,1,2,1:2:0:0:
280,198,213786,1,0,0:0:0:0:
81,246,213944,5,2,0:0:0:0:
139,50,214102,1,0,0:0:0:0:
187,249,214259,1,2,1:2:0:0:
139,50,214418,1,0,0:0:0:0:
67,277,214575,5,2,0:0:0:0:
280,198,214733,1,0,0:0:0:0:
146,331,214891,5,2,1:2:0:0:
359,252,215049,1,0,0:0:0:0:
225,384,215207,5,2,0:0:0:0:
438,305,215365,1,0,0:0:0:0:
146,331,215523,2,0,L|23:346,1,119.999996337891,2|0,1:2|0:0,0:0:0:0:
182,127,215838,5,2,0:0:0:0:
146,332,215996,1,0,0:0:0:0:
249,169,216154,1,2,1:2:0:0:
78,289,216312,1,0,0:0:0:0:
184,111,216470,5,2,0:0:0:0:
143,347,216628,1,0,0:0:0:0:
262,160,216786,1,2,1:2:0:0:
65,298,216944,1,0,0:0:0:0:
186,95,217102,5,2,0:0:0:0:
231,321,217259,1,0,0:0:0:0:
320,64,217417,5,2,1:2:0:0:
365,290,217574,1,0,0:0:0:0:
163,69,217733,6,0,P|102:66|47:98,1,119.999996337891,2|0,0:0|0:0,0:0:0:0:
395,157,218049,2,0,P|456:160|511:128,1,119.999996337891,2|0,1:2|0:0,0:0:0:0:
163,69,218365,6,0,L|206:316,1,239.999992675781,6|2,0:0|1:2,0:0:0:0:
42,181,218838,1,0,0:0:0:0:
309,133,218996,2,0,L|432:111,1,119.999996337891,2|0,0:0|0:0,0:0:0:0:
118,290,219312,1,0,1:2:0:0:
163,69,219470,1,2,0:2:0:0:
288,327,219628,5,2,0:2:0:0:
30,271,219786,1,0,0:0:0:0:
318,335,219944,2,0,L|445:308,1,119.999996337891,2|0,1:2|0:0,0:0:0:0:
503,57,220259,5,2,0:2:0:0:
303,202,220417,1,0,0:0:0:0:
503,57,220575,1,2,1:2:0:0:
170,9,220733,1,2,0:2:0:0:
424,161,220891,6,0,P|437:220|418:279,1,119.999996337891,6|0,0:2|0:0,0:0:0:0:
24,364,221207,2,0,P|11:305|30:246,1,119.999996337891,2|0,1:2|0:0,0:0:0:0:
170,9,221523,1,0,1:0:0:0:
217,333,221680,5,0,0:0:0:0:
286,87,221838,1,2,1:2:0:0:
28,249,221996,1,2,0:2:0:0:
346,207,222154,2,0,L|499:228,1,119.999996337891,4|0,1:2|0:0,0:0:0:0:
170,9,222470,2,0,L|17:30,1,119.999996337891,4|0,1:2|0:0,0:0:0:0:
381,81,222786,5,4,1:2:0:0:
81,136,222944,1,0,0:0:0:0:
278,368,223102,2,0,L|291:310,1,59.9999981689454,4|0,1:2|0:0,0:0:0:0:
200,211,223259,2,0,L|187:269,1,59.9999981689454,0|0,1:0|0:0,0:0:0:0:
323,180,223417,5,6,0:2:0:0:
68,258,223575,1,0,0:0:0:0:
228,45,223733,1,2,1:2:0:0:
223,311,223891,1,0,0:0:0:0:
226,12,224049,5,2,0:2:0:0:
455,146,224207,1,0,0:0:0:0:
188,146,224365,1,2,1:2:0:0:
417,16,224523,1,0,0:0:0:0:
328,283,224680,5,2,0:2:0:0:
226,12,224838,1,0,0:0:0:0:
224,329,224996,5,2,1:2:0:0:
122,58,225154,1,0,0:0:0:0:
120,375,225312,5,2,0:2:0:0:
18,104,225470,1,0,0:0:0:0:
224,329,225628,2,0,P|293:333|364:290,1,139.999995727539,2|0,1:2|0:0,0:0:0:0:
438,46,225944,5,2,0:2:0:0:
208,181,226102,1,0,0:0:0:0:
463,250,226259,1,2,1:2:0:0:
328,20,226417,1,0,0:0:0:0:
222,288,226575,5,2,0:2:0:0:
452,153,226733,1,0,0:0:0:0:
197,84,226890,1,2,1:2:0:0:
332,314,227048,1,0,0:0:0:0:
178,56,227207,5,2,0:2:0:0:
145,347,227365,1,0,0:0:0:0:
52,33,227523,5,2,1:2:0:0:
19,324,227681,1,0,0:0:0:0:
178,56,227838,2,0,L|339:33,1,139.999995727539,2|0,0:2|0:0,0:0:0:0:
475,252,228154,2,0,L|314:275,1,139.999995727539,0|0,1:2|0:0,0:0:0:0:
71,313,228470,5,6,0:2:0:0:
282,151,228628,1,0,0:0:0:0:
19,195,228786,1,2,1:2:0:0:
265,297,228944,1,0,0:0:0:0:
230,33,229102,5,2,0:2:0:0:
19,195,229260,1,0,0:0:0:0:
282,151,229418,1,2,1:2:0:0:
36,49,229576,1,0,0:0:0:0:
71,313,229733,5,2,0:2:0:0:
219,59,229891,1,0,0:0:0:0:
151,383,230049,5,2,1:2:0:0:
299,129,230207,1,0,0:0:0:0:
71,313,230365,2,0,P|46:246|61:173,1,139.999995727539,2|0,0:2|0:0,0:0:0:0:
409,48,230680,2,0,P|434:115|419:188,1,139.999995727539,2|0,1:2|0:0,0:0:0:0:
112,61,230996,6,0,L|399:19,1,279.999991455078,2|2,0:2|1:2,0:0:0:0:
474,274,231470,1,0,0:0:0:0:
213,145,231628,2,0,L|500:103,1,279.999991455078,2|2,0:2|1:2,0:0:0:0:
416,361,232102,1,0,0:0:0:0:
213,145,232259,5,2,0:2:0:0:
475,189,232417,1,0,0:0:0:0:
196,266,232575,1,2,1:2:0:0:
365,61,232733,1,0,0:0:0:0:
292,341,232891,5,2,0:2:0:0:
199,92,233049,1,0,0:0:0:0:
404,295,233207,1,2,1:2:0:0:
142,251,233365,1,0,0:0:0:0:
365,61,233523,5,6,0:2:0:0:
292,341,233680,1,0,0:0:0:0:
150,87,233838,1,2,1:2:0:0:
430,160,233995,1,0,0:0:0:0:
189,321,234154,5,2,0:2:0:0:
262,41,234311,1,0,0:0:0:0:
404,295,234470,1,2,1:2:0:0:
124,222,234626,1,0,0:0:0:0:
430,160,234786,5,2,0:2:0:0:
150,87,234944,1,0,0:0:0:0:
430,14,235102,1,2,1:2:0:0:
226,219,235259,1,0,0:0:0:0:
441,0,235417,5,6,1:2:0:0:
392,292,235575,1,0,0:0:0:0:
199,125,235733,5,6,1:2:0:0:
491,76,235891,2,0,L|468:151,1,69.9999978637696,0|0,0:0|0:0,0:0:0:0:
423,276,236049,5,2,0:2:0:0:
338,23,236207,1,0,0:0:0:0:
266,320,236365,1,6,1:2:0:0:
470,142,236523,1,0,0:0:0:0:
470,142,236602,1,0,0:0:0:0:
470,142,236680,5,2,0:2:0:0:
185,79,236838,1,0,0:0:0:0:
278,351,236996,1,6,1:2:0:0:
367,100,237154,1,0,0:0:0:0:
98,208,237312,5,2,0:2:0:0:
283,17,237470,1,0,0:0:0:0:
240,312,237628,1,2,1:2:0:0:
126,71,237786,1,0,0:0:0:0:
126,71,237865,1,0,0:0:0:0:
126,71,237944,1,2,0:2:0:0:
452,156,238102,5,4,1:2:0:0:
98,208,238259,1,4,1:2:0:0:
452,156,238417,1,0,0:0:0:0:
141,20,238575,6,0,P|102:79|148:282,1,279.999991455078,6|0,1:2|0:0,0:0:0:0:
282,46,239049,1,0,0:2:0:0:
371,364,239207,6,0,P|410:305|364:102,1,279.999991455078,6|0,1:2|0:0,0:0:0:0:
230,338,239680,1,0,0:0:0:0:
141,20,239838,5,6,1:2:0:0:
446,67,239996,1,0,0:0:0:0:
186,167,240154,2,0,L|28:145,1,139.999995727539,2|0,1:2|0:0,0:0:0:0:
283,21,240470,5,2,0:2:0:0:
230,281,240628,1,0,0:0:0:0:
452,135,240786,1,2,1:2:0:0:
97,52,240944,6,0,P|42:133|70:306,1,279.999991455078,4|0,0:0|0:0,0:0:0:0:
362,147,241417,6,0,L|334:0,1,139.999995727539,2|0,1:2|0:0,0:0:0:0:
0,211,241733,2,0,L|28:64,1,139.999995727539,2|0,1:2|0:0,0:0:0:0:
292,273,242049,1,0,1:0:0:0:
139,3,242207,1,0,0:0:0:0:
139,3,242286,1,0,0:0:0:0:
139,3,242365,1,0,1:0:0:0:
88,308,242523,1,0,0:0:0:0:
363,177,242680,5,0,1:0:0:0:
29,125,242838,1,4,0:0:0:0:
341,0,242996,1,4,1:2:0:0:
128,263,243154,1,0,0:0:0:0:
429,140,243312,2,0,L|508:173,1,69.9999978637696,0|0,1:0|0:0,0:0:0:0:
457,52,243470,6,0,L|205:109,1,239.999992675781,6|0,0:2|0:0,0:0:0:0:
11,154,243944,1,2,1:2:0:0:
170,8,244102,1,0,0:0:0:0:
114,215,244259,2,0,P|105:288|121:350,1,119.999996337891,2|0,0:2|0:0,0:0:0:0:
328,370,244575,1,0,1:2:0:0:
281,117,244733,6,0,P|209:140|54:50,1,239.999992675781,2|0,0:2|0:0,0:0:0:0:
278,18,245207,1,2,1:2:0:0:
195,218,245365,1,0,0:0:0:0:
395,137,245523,1,2,0:2:0:0:
194,60,245680,1,0,0:0:0:0:
423,146,245838,1,0,1:2:0:0:
223,230,245996,6,0,L|473:329,1,239.999992675781,2|0,0:2|0:0,0:0:0:0:
229,342,246470,2,0,L|104:292,1,119.999996337891,2|0,1:2|0:0,0:0:0:0:
274,147,246786,2,0,L|399:196,1,119.999996337891,2|0,0:2|0:0,0:0:0:0:
117,297,247102,1,0,1:0:0:0:
385,191,247259,6,0,P|409:126|315:1,1,239.999992675781,6|2,0:2|0:0,0:0:0:0:
275,273,247733,1,0,1:0:0:0:
81,82,247891,2,0,P|57:147|151:272,1,239.999992675781,6|2,0:0|0:0,0:0:0:0:
191,0,248365,1,0,1:0:0:0:
385,191,248523,6,0,L|142:135,1,239.999992675781,6|0,0:0|0:0,0:0:0:0:
308,285,248996,2,0,L|429:313,1,119.999996337891,2|0,1:2|0:0,0:0:0:0:
393,78,249312,2,0,L|509:104,1,119.999996337891,2|0,0:2|0:0,0:0:0:0:
236,41,249628,1,2,1:2:0:0:
431,194,249786,6,0,P|437:261|421:321,1,119.999996337891,2|0,0:2|0:0,0:0:0:0:
316,56,250102,1,2,0:2:0:0:
246,259,250259,1,0,1:0:0:0:
404,111,250417,1,2,0:2:0:0:
158,204,250575,2,0,L|85:192,1,59.9999981689454,2|0,0:2|0:0,0:0:0:0:
19,182,250733,1,2,0:2:0:0:
268,120,250891,2,0,L|256:193,1,59.9999981689454,2|0,1:2|0:0,0:0:0:0:
246,259,251049,6,0,B|281:288|372:288|345:227|436:227|472:259,1,239.999992675781,2|0,0:2|0:0,0:0:0:0:
183,341,251523,2,0,P|149:291|150:234,1,119.999996337891,2|0,1:2|0:0,0:0:0:0:
329,43,251838,2,0,P|363:93|362:150,1,119.999996337891,2|0,0:2|0:0,0:0:0:0:
89,61,252154,1,2,1:2:0:0:
89,61,252233,1,0,0:0:0:0:
89,61,252312,6,0,L|335:42,1,239.999992675781,6|0,0:2|0:0,0:0:0:0:
62,193,252786,2,0,L|185:183,1,119.999996337891,2|0,1:2|0:0,0:0:0:0:
389,270,253102,2,0,L|266:279,1,119.999996337891,2|0,0:2|0:0,0:0:0:0:
89,61,253417,1,2,1:2:0:0:
89,61,253496,1,0,0:0:0:0:
89,61,253575,6,0,P|212:35|306:108,1,239.999992675781,6|2,0:0|0:0,0:0:0:0:
224,301,254049,1,0,1:2:0:0:
412,194,254207,1,2,0:0:0:0:
157,162,254365,2,0,L|12:186,1,119.999996337891,0|2,0:0|0:0,0:0:0:0:
224,301,254680,2,0,L|369:277,1,119.999996337891,0|2,1:2|0:0,0:0:0:0:
458,97,254996,5,0,0:0:0:0:
499,309,255154,1,2,0:0:0:0:
450,61,255312,2,0,P|399:53|332:88,1,119.999996337891,0|2,1:2|0:0,0:0:0:0:
268,286,255628,1,0,0:0:0:0:
457,181,255786,1,2,0:0:0:0:
211,130,255944,1,0,1:2:0:0:
485,188,256102,6,0,L|363:221,1,119.999996337891,2|0,0:0|0:0,0:0:0:0:
159,269,256417,1,2,0:0:0:0:
407,349,256575,1,0,1:2:0:0:
337,144,256733,1,2,0:0:0:0:
296,356,256891,1,0,0:0:0:0:
439,193,257049,1,2,0:0:0:0:
235,264,257207,1,0,1:2:0:0:
448,306,257365,5,2,0:0:0:0:
199,257,257523,2,0,L|65:282,1,119.999996337891,0|2,0:0|0:0,0:0:0:0:
251,100,257838,2,0,L|117:125,1,119.999996337891,0|2,1:2|0:0,0:0:0:0:
400,24,258154,6,0,B|420:6|420:6|418:31|418:31|438:14|438:14|440:41|440:41|460:23|460:23|462:50|462:50|483:33|483:33|484:59|484:59|532:49,1,239.999992675781,2|0,0:0|1:0,0:0:0:0:
338,185,258628,6,0,P|331:223|361:320,1,139.999995727539,6|0,0:0|0:0,0:0:0:0:
424,243,259102,2,0,L|498:225,1,69.9999978637696,2|0,0:0|0:0,0:0:0:0:
359,318,259417,2,0,L|285:336,1,69.9999978637696,2|0,0:0|0:0,0:0:0:0:
195,358,259733,1,0,0:0:0:0:
195,358,259891,6,0,P|143:360|76:306,1,139.999995727539,2|0,0:0|0:0,0:0:0:0:
28,221,260365,2,0,P|28:177|45:143,1,69.9999978637696,2|0,0:0|0:0,0:0:0:0:
114,92,260680,2,0,P|158:92|192:109,1,69.9999978637696,2|0,0:0|0:0,0:0:0:0:
238,182,260996,1,0,0:0:0:0:
238,182,261154,6,0,P|290:189|373:146,1,139.999995727539,2|0,0:0|0:0,0:0:0:0:
434,224,261628,2,0,L|460:307,1,69.9999978637696,2|0,0:0|0:0,0:0:0:0:
367,152,261944,2,0,L|341:69,1,69.9999978637696,2|0,0:0|0:0,0:0:0:0:
428,31,262259,1,0,0:0:0:0:
428,31,262417,6,0,L|272:31,1,139.999995727539,2|0,0:0|0:0,0:0:0:0:
206,86,262891,2,0,L|127:86,1,69.9999978637696,2|0,0:0|0:0,0:0:0:0:
48,132,263207,1,2,0:0:0:0:
68,10,263365,1,0,0:0:0:0:
68,10,263523,1,0,0:0:0:0:
132,182,263680,1,2,0:0:0:0:
