osu file format v14

[General]
AudioFilename: audio.mp3
AudioLeadIn: 0
PreviewTime: -1
Countdown: 1
SampleSet: Normal
StackLeniency: 0.7
Mode: 0
LetterboxInBreaks: 0
WidescreenStoryboard: 0

[Editor]
DistanceSpacing: 1.2
BeatDivisor: 4
GridSize: 4
TimelineZoom: 1

[Metadata]
Title:Alien Alien (English Cover) (rachie)
TitleUnicode:Alien Alien (English Cover) (rachie)
Artist:rachie
ArtistUnicode:rachie
Creator:Kura_Kiyuko
Version:Out of This World
Source:
Tags:
BeatmapID:1540383
BeatmapSetID:729806

[Difficulty]
HPDrainRate:6
CircleSize:4.5
OverallDifficulty:7
ApproachRate:7.5
SliderMultiplier:1.4
SliderTickRate:1

[Events]
//Background and Video events
0,0,"maxresdefault (1).jpg",0,0
Video,0,"Alien Alien ♥ English Cover【rachie】エイリアンエイリアン.avi"
//Break Periods
//Storyboard Layer 0 (Background)
//Storyboard Layer 1 (Fail)
//Storyboard Layer 2 (Pass)
//Storyboard Layer 3 (Foreground)
//Storyboard Sound Samples

[TimingPoints]
6404.26315789474,394.736842105263,4,1,0,100,1,0

[Colours]
Combo1 : 241,46,75
Combo2 : 235,235,235
Combo3 : 0,0,0

[HitObjects]
232,236,1667,5,0,0:0:0:0:
232,236,2060,1,0,0:0:0:0:
232,236,2456,1,0,0:0:0:0:
232,236,2851,1,0,0:0:0:0:
252,168,3246,1,0,0:0:0:0:
252,168,3641,1,0,0:0:0:0:
252,168,4035,1,0,0:0:0:0:
252,168,4430,1,0,0:0:0:0:
252,168,4825,1,0,0:0:0:0:
252,168,5220,1,0,0:0:0:0:
252,168,5614,1,0,0:0:0:0:
252,168,6009,1,0,0:0:0:0:
272,320,6404,5,0,0:0:0:0:
48,224,6799,1,0,0:0:0:0:
220,96,7193,1,0,0:0:0:0:
400,164,7588,1,0,0:0:0:0:
220,304,7983,1,0,0:0:0:0:
206,139,8377,1,0,0:0:0:0:
288,128,8575,1,0,0:0:0:0:
372,184,8772,1,0,0:0:0:0:
376,216,8970,1,0,0:0:0:0:
376,244,9167,1,0,0:0:0:0:
376,276,9364,1,0,0:0:0:0:
306,227,9562,1,0,0:0:0:0:
368,112,9956,5,0,0:0:0:0:
112,188,10351,1,0,0:0:0:0:
416,260,10746,1,0,0:0:0:0:
168,84,11141,1,0,0:0:0:0:
352,60,11535,1,0,0:0:0:0:
244,224,11930,1,0,0:0:0:0:
244,224,12127,1,0,0:0:0:0:
244,224,12325,1,0,0:0:0:0:
244,224,12522,1,0,0:0:0:0:
104,84,12720,1,0,0:0:0:0:
184,56,13114,5,0,0:0:0:0:
332,232,13509,1,0,0:0:0:0:
144,216,13904,1,0,0:0:0:0:
372,96,14299,1,0,0:0:0:0:
176,320,14693,1,0,0:0:0:0:
144,68,15088,1,0,0:0:0:0:
344,128,15285,1,0,0:0:0:0:
236,216,15483,1,0,0:0:0:0:
376,232,15680,1,0,0:0:0:0:
240,228,15877,1,0,0:0:0:0:
144,88,16272,5,0,0:0:0:0:
340,96,16667,1,0,0:0:0:0:
212,200,17062,1,0,0:0:0:0:
172,112,17456,1,0,0:0:0:0:
344,112,17851,1,0,0:0:0:0:
376,316,18443,1,0,0:0:0:0:
248,252,18641,1,0,0:0:0:0:
360,212,18838,1,0,0:0:0:0:
272,184,19035,1,0,0:0:0:0:
72,292,19627,1,0,0:0:0:0:
148,216,19825,1,0,0:0:0:0:
148,80,20417,5,0,0:0:0:0:
324,80,20614,1,0,0:0:0:0:
384,216,20812,1,0,0:0:0:0:
256,176,21009,1,0,0:0:0:0:
240,88,21206,1,0,0:0:0:0:
312,228,21404,1,0,0:0:0:0:
228,308,21601,1,0,0:0:0:0:
184,212,21799,1,0,0:0:0:0:
336,312,21996,1,0,0:0:0:0:
440,260,22193,1,0,0:0:0:0:
216,136,22785,1,0,0:0:0:0:
208,256,22983,1,0,0:0:0:0:
360,120,23575,5,0,0:0:0:0:
272,148,23772,1,0,0:0:0:0:
296,72,23970,1,0,0:0:0:0:
128,184,24167,1,0,0:0:0:0:
192,92,24364,1,0,0:0:0:0:
224,240,24562,1,0,0:0:0:0:
316,196,24759,1,0,0:0:0:0:
308,292,24956,1,0,0:0:0:0:
192,128,25351,1,0,0:0:0:0:
388,204,25943,1,0,0:0:0:0:
304,124,26141,1,0,0:0:0:0:
208,136,26733,5,0,0:0:0:0:
104,112,26930,1,0,0:0:0:0:
184,240,27127,1,0,0:0:0:0:
272,176,27325,1,0,0:0:0:0:
208,312,27522,1,0,0:0:0:0:
352,276,27720,1,0,0:0:0:0:
264,244,27917,1,0,0:0:0:0:
416,176,28114,1,0,0:0:0:0:
328,212,28312,1,0,0:0:0:0:
396,296,28509,1,0,0:0:0:0:
232,268,28904,1,0,0:0:0:0:
312,92,29299,1,0,0:0:0:0:
96,100,29693,1,0,0:0:0:0:
256,136,30285,5,0,0:0:0:0:
352,64,30483,1,0,0:0:0:0:
392,188,30680,1,0,0:0:0:0:
232,248,30877,1,0,0:0:0:0:
152,180,31075,1,0,0:0:0:0:
308,196,31272,1,0,0:0:0:0:
244,328,31470,1,0,0:0:0:0:
240,160,31667,1,0,0:0:0:0:
372,164,32062,1,0,0:0:0:0:
240,232,32456,1,0,0:0:0:0:
448,248,32851,1,0,0:0:0:0:
436,168,33246,1,0,0:0:0:0:
240,240,33641,1,0,0:0:0:0:
424,208,34035,1,0,0:0:0:0:
212,80,34430,1,0,0:0:0:0:
448,128,34825,1,0,0:0:0:0:
224,192,35220,1,0,0:0:0:0:
420,120,35614,1,0,0:0:0:0:
116,144,36009,1,0,0:0:0:0:
428,192,36404,1,0,0:0:0:0:
408,168,37391,5,0,0:0:0:0:
300,96,37588,5,0,0:0:0:0:
304,240,37785,5,0,0:0:0:0:
208,176,37983,5,0,0:0:0:0:
156,268,38575,5,0,0:0:0:0:
164,104,38772,1,0,0:0:0:0:
236,112,39364,1,0,0:0:0:0:
312,272,39562,1,0,0:0:0:0:
352,112,39759,1,0,0:0:0:0:
392,196,39956,1,0,0:0:0:0:
208,192,40154,1,0,0:0:0:0:
296,52,40351,1,0,0:0:0:0:
308,268,40549,1,0,0:0:0:0:
184,136,40746,1,0,0:0:0:0:
364,120,40943,1,0,0:0:0:0:
204,248,41141,1,0,0:0:0:0:
152,92,41733,5,0,0:0:0:0:
356,52,41930,1,0,0:0:0:0:
232,92,42522,1,0,0:0:0:0:
356,208,42720,1,0,0:0:0:0:
228,208,42917,1,0,0:0:0:0:
336,104,43114,1,0,0:0:0:0:
280,264,43312,1,0,0:0:0:0:
168,144,43509,1,0,0:0:0:0:
440,252,43904,1,0,0:0:0:0:
196,104,44299,1,0,0:0:0:0:
376,124,44891,1,0,0:0:0:0:
264,260,45088,1,0,0:0:0:0:
132,112,45680,5,0,0:0:0:0:
280,104,45877,1,0,0:0:0:0:
192,44,46075,1,0,0:0:0:0:
184,184,46272,1,0,0:0:0:0:
280,36,46470,1,0,0:0:0:0:
268,180,46667,1,0,0:0:0:0:
368,40,46864,1,0,0:0:0:0:
392,192,47062,1,0,0:0:0:0:
316,320,47259,1,0,0:0:0:0:
468,264,47456,1,0,0:0:0:0:
180,132,47851,1,0,0:0:0:0:
368,136,48246,1,0,0:0:0:0:
312,260,48641,1,0,0:0:0:0:
204,72,49233,5,0,0:0:0:0:
360,116,49430,1,0,0:0:0:0:
296,24,49627,1,0,0:0:0:0:
268,144,49825,1,0,0:0:0:0:
64,184,50022,1,0,0:0:0:0:
200,248,50220,1,0,0:0:0:0:
152,168,50417,1,0,0:0:0:0:
140,296,50614,1,0,0:0:0:0:
364,184,51009,1,0,0:0:0:0:
292,64,51404,1,0,0:0:0:0:
244,200,51799,1,0,0:0:0:0:
368,176,52193,1,0,0:0:0:0:
244,200,52588,1,0,0:0:0:0:
292,64,52983,1,0,0:0:0:0:
244,200,53377,1,0,0:0:0:0:
244,172,53772,5,0,0:0:0:0:
244,172,53970,1,0,0:0:0:0:
244,172,54167,1,0,0:0:0:0:
244,172,54364,1,0,0:0:0:0:
244,172,54562,1,0,0:0:0:0:
244,172,54759,1,0,0:0:0:0:
244,172,54956,1,0,0:0:0:0:
244,172,55154,1,0,0:0:0:0:
276,80,55351,1,0,0:0:0:0:
276,80,55450,1,0,0:0:0:0:
276,80,55549,1,0,0:0:0:0:
276,80,55647,1,0,0:0:0:0:
276,80,55746,1,0,0:0:0:0:
276,80,55845,1,0,0:0:0:0:
276,80,55943,1,0,0:0:0:0:
276,80,56042,1,0,0:0:0:0:
276,80,56141,1,0,0:0:0:0:
248,236,56535,5,0,0:0:0:0:
312,112,56930,5,0,0:0:0:0:
216,156,57325,1,0,0:0:0:0:
260,192,57522,1,0,0:0:0:0:
136,196,57917,1,0,0:0:0:0:
256,52,58114,1,0,0:0:0:0:
144,92,58312,1,0,0:0:0:0:
304,132,58509,1,0,0:0:0:0:
184,176,58706,1,0,0:0:0:0:
264,200,58904,1,0,0:0:0:0:
248,104,59101,1,0,0:0:0:0:
120,156,59299,1,0,0:0:0:0:
392,148,59891,5,0,0:0:0:0:
252,160,60088,1,0,0:0:0:0:
360,224,60285,1,0,0:0:0:0:
204,232,60483,1,0,0:0:0:0:
320,72,60680,1,0,0:0:0:0:
188,68,60877,1,0,0:0:0:0:
368,144,61272,1,0,0:0:0:0:
316,288,61470,1,0,0:0:0:0:
252,172,61667,1,0,0:0:0:0:
448,232,61864,1,0,0:0:0:0:
360,164,62062,1,0,0:0:0:0:
376,324,62259,1,0,0:0:0:0:
456,156,62456,1,0,0:0:0:0:
244,300,62654,5,0,0:0:0:0:
244,300,62851,5,0,0:0:0:0:
132,128,63049,5,0,0:0:0:0:
232,32,63246,1,0,0:0:0:0:
288,164,63443,1,0,0:0:0:0:
132,48,63641,1,0,0:0:0:0:
204,204,63838,1,0,0:0:0:0:
316,64,64035,1,0,0:0:0:0:
300,272,64233,1,0,0:0:0:0:
436,128,64430,1,0,0:0:0:0:
128,164,64825,1,0,0:0:0:0:
176,92,65022,1,0,0:0:0:0:
224,24,65220,1,0,0:0:0:0:
280,96,65417,1,0,0:0:0:0:
328,172,65614,1,0,0:0:0:0:
152,80,66206,5,0,0:0:0:0:
384,88,66601,1,0,0:0:0:0:
304,136,66799,1,0,0:0:0:0:
312,272,66996,1,0,0:0:0:0:
220,216,67193,1,0,0:0:0:0:
412,208,67391,1,0,0:0:0:0:
212,316,67588,1,0,0:0:0:0:
224,132,67785,1,0,0:0:0:0:
352,280,68180,1,0,0:0:0:0:
340,124,68377,1,0,0:0:0:0:
216,200,68772,1,0,0:0:0:0:
448,216,68970,1,0,0:0:0:0:
152,88,69562,5,0,0:0:0:0:
332,212,69956,1,0,0:0:0:0:
336,76,70154,1,0,0:0:0:0:
224,56,70549,1,0,0:0:0:0:
220,204,70746,1,0,0:0:0:0:
152,312,70943,1,0,0:0:0:0:
148,281,71042,1,0,0:0:0:0:
147,238,71141,1,0,0:0:0:0:
256,328,71338,1,0,0:0:0:0:
356,280,71535,1,0,0:0:0:0:
260,212,71733,1,0,0:0:0:0:
428,160,71930,1,0,0:0:0:0:
228,96,72522,5,0,0:0:0:0:
284,196,72720,1,0,0:0:0:0:
328,96,72917,1,0,0:0:0:0:
228,96,73114,1,0,0:0:0:0:
328,96,73312,1,0,0:0:0:0:
284,196,73509,1,0,0:0:0:0:
328,96,73706,1,0,0:0:0:0:
228,96,73904,1,0,0:0:0:0:
284,196,74101,1,0,0:0:0:0:
328,96,74299,1,0,0:0:0:0:
284,196,74496,1,0,0:0:0:0:
228,96,74693,1,0,0:0:0:0:
128,68,74891,1,0,0:0:0:0:
80,152,75088,1,0,0:0:0:0:
212,48,75285,5,0,0:0:0:0:
284,48,75483,5,0,0:0:0:0:
408,84,75680,5,0,0:0:0:0:
220,136,75877,1,0,0:0:0:0:
336,224,76075,1,0,0:0:0:0:
200,228,76272,1,0,0:0:0:0:
312,108,76470,1,0,0:0:0:0:
480,196,76667,1,0,0:0:0:0:
328,292,76864,1,0,0:0:0:0:
196,316,77062,1,0,0:0:0:0:
252,168,77456,1,0,0:0:0:0:
428,100,77851,1,0,0:0:0:0:
112,236,78246,1,0,0:0:0:0:
332,84,78838,5,0,0:0:0:0:
444,212,79035,1,0,0:0:0:0:
292,280,79233,1,0,0:0:0:0:
212,168,79430,1,0,0:0:0:0:
152,284,79627,1,0,0:0:0:0:
336,176,79825,1,0,0:0:0:0:
168,92,80022,1,0,0:0:0:0:
276,256,80220,1,0,0:0:0:0:
308,68,80417,1,0,0:0:0:0:
352,112,80812,1,0,0:0:0:0:
352,116,81009,1,0,0:0:0:0:
184,152,81404,1,0,0:0:0:0:
184,152,81601,1,0,0:0:0:0:
304,144,81996,1,0,0:0:0:0:
304,144,82193,1,0,0:0:0:0:
400,256,82983,5,0,0:0:0:0:
128,96,83377,1,0,0:0:0:0:
428,152,83772,1,0,0:0:0:0:
160,224,84167,1,0,0:0:0:0:
260,96,84562,1,0,0:0:0:0:
328,204,84759,1,0,0:0:0:0:
152,132,84956,1,0,0:0:0:0:
232,168,85154,1,0,0:0:0:0:
368,208,85351,1,0,0:0:0:0:
216,260,85746,5,0,0:0:0:0:
408,304,86141,1,0,0:0:0:0:
184,120,86535,1,0,0:0:0:0:
388,148,86930,1,0,0:0:0:0:
252,236,87325,1,0,0:0:0:0:
312,272,87720,1,0,0:0:0:0:
312,272,87917,1,0,0:0:0:0:
228,139,88312,1,0,0:0:0:0:
188,216,88509,5,0,0:0:0:0:
336,176,88904,1,0,0:0:0:0:
272,288,89299,1,0,0:0:0:0:
120,116,89693,1,0,0:0:0:0:
376,120,90088,1,0,0:0:0:0:
220,128,90483,1,0,0:0:0:0:
380,172,90877,1,0,0:0:0:0:
224,264,91272,1,0,0:0:0:0:
304,108,91667,1,0,0:0:0:0:
432,188,92062,1,0,0:0:0:0:
164,160,92456,1,0,0:0:0:0:
432,128,92851,1,0,0:0:0:0:
204,208,93246,1,0,0:0:0:0:
408,252,93641,1,0,0:0:0:0:
168,120,94035,1,0,0:0:0:0:
392,144,94430,1,0,0:0:0:0:
196,228,94825,5,0,0:0:0:0:
292,332,95022,1,0,0:0:0:0:
428,244,95220,1,0,0:0:0:0:
176,120,95614,5,0,0:0:0:0:
380,128,95812,1,0,0:0:0:0:
264,240,96009,1,0,0:0:0:0:
292,96,96404,5,0,0:0:0:0:
348,180,96601,1,0,0:0:0:0:
256,184,96799,1,0,0:0:0:0:
208,120,96996,1,0,0:0:0:0:
276,200,97193,1,0,0:0:0:0:
248,185,97292,1,0,0:0:0:0:
276,200,97391,1,0,0:0:0:0:
280,208,97489,1,0,0:0:0:0:
280,208,97588,1,0,0:0:0:0:
72,96,97983,5,0,0:0:0:0:
180,136,98180,1,0,0:0:0:0:
204,44,98377,1,0,0:0:0:0:
156,176,98772,5,0,0:0:0:0:
248,196,98970,1,0,0:0:0:0:
184,280,99167,1,0,0:0:0:0:
248,108,99562,5,0,0:0:0:0:
344,124,99759,1,0,0:0:0:0:
288,180,99956,1,0,0:0:0:0:
344,124,100154,1,0,0:0:0:0:
248,108,100351,1,0,0:0:0:0:
288,180,100549,1,0,0:0:0:0:
248,108,100746,1,0,0:0:0:0:
248,104,101141,5,0,0:0:0:0:
368,120,101338,1,0,0:0:0:0:
420,304,101535,1,0,0:0:0:0:
92,128,101930,5,0,0:0:0:0:
264,172,102127,1,0,0:0:0:0:
372,192,102325,1,0,0:0:0:0:
200,56,102720,1,0,0:0:0:0:
164,92,102917,1,0,0:0:0:0:
200,112,103016,1,0,0:0:0:0:
157,129,103114,1,0,0:0:0:0:
320,264,103312,1,0,0:0:0:0:
239,221,103509,1,0,0:0:0:0:
296,128,103608,1,0,0:0:0:0:
296,128,103706,1,0,0:0:0:0:
296,128,103805,1,0,0:0:0:0:
296,128,103904,1,0,0:0:0:0:
152,116,104299,5,0,0:0:0:0:
224,232,104496,1,0,0:0:0:0:
232,28,104693,1,0,0:0:0:0:
380,200,104891,1,0,0:0:0:0:
376,44,105088,1,0,0:0:0:0:
488,208,105285,1,0,0:0:0:0:
484,36,105483,1,0,0:0:0:0:
280,180,105680,1,0,0:0:0:0:
312,316,105877,1,0,0:0:0:0:
444,316,106075,1,0,0:0:0:0:
272,240,106272,1,0,0:0:0:0:
376,164,106470,1,0,0:0:0:0:
376,164,106667,1,0,0:0:0:0:
104,84,107456,5,0,0:0:0:0:
360,124,108049,1,0,0:0:0:0:
336,264,108246,1,0,0:0:0:0:
184,100,108838,1,0,0:0:0:0:
256,216,109035,1,0,0:0:0:0:
284,64,109233,1,0,0:0:0:0:
368,140,109430,1,0,0:0:0:0:
336,272,109627,1,0,0:0:0:0:
284,332,109825,1,0,0:0:0:0:
212,296,110022,1,0,0:0:0:0:
152,184,110220,1,0,0:0:0:0:
228,104,110417,1,0,0:0:0:0:
360,148,110614,1,0,0:0:0:0:
96,128,111206,1,0,0:0:0:0:
232,120,111404,1,0,0:0:0:0:
352,112,111996,5,0,0:0:0:0:
272,148,112193,1,0,0:0:0:0:
404,188,112391,1,0,0:0:0:0:
256,260,112588,1,0,0:0:0:0:
392,304,112785,1,0,0:0:0:0:
248,328,112983,1,0,0:0:0:0:
396,240,113180,1,0,0:0:0:0:
352,120,113377,1,0,0:0:0:0:
264,172,113575,1,0,0:0:0:0:
296,252,113772,1,0,0:0:0:0:
172,168,114364,1,0,0:0:0:0:
256,168,114562,1,0,0:0:0:0:
312,52,115154,5,0,0:0:0:0:
408,104,115351,1,0,0:0:0:0:
384,224,115549,1,0,0:0:0:0:
220,132,115746,1,0,0:0:0:0:
264,240,115943,1,0,0:0:0:0:
380,296,116141,1,0,0:0:0:0:
320,168,116338,1,0,0:0:0:0:
312,320,116535,1,0,0:0:0:0:
256,252,116733,1,0,0:0:0:0:
192,200,116930,1,0,0:0:0:0:
156,132,117325,1,0,0:0:0:0:
392,152,117720,1,0,0:0:0:0:
232,224,118114,1,0,0:0:0:0:
176,132,118706,5,0,0:0:0:0:
264,40,118904,1,0,0:0:0:0:
260,184,119101,1,0,0:0:0:0:
384,192,119299,1,0,0:0:0:0:
384,44,119496,1,0,0:0:0:0:
324,192,119693,1,0,0:0:0:0:
276,304,119891,1,0,0:0:0:0:
408,276,120088,1,0,0:0:0:0:
192,272,120483,1,0,0:0:0:0:
376,144,120877,1,0,0:0:0:0:
148,132,121272,1,0,0:0:0:0:
208,304,121667,1,0,0:0:0:0:
148,132,122062,1,0,0:0:0:0:
376,144,122456,1,0,0:0:0:0:
148,132,122851,1,0,0:0:0:0:
256,88,123246,5,0,0:0:0:0:
256,88,123443,1,0,0:0:0:0:
256,88,123641,1,0,0:0:0:0:
256,88,123838,1,0,0:0:0:0:
256,88,124035,1,0,0:0:0:0:
256,88,124233,1,0,0:0:0:0:
256,88,124430,1,0,0:0:0:0:
256,88,124627,1,0,0:0:0:0:
256,88,124825,1,0,0:0:0:0:
256,88,124924,1,0,0:0:0:0:
244,168,125022,1,0,0:0:0:0:
244,168,125121,1,0,0:0:0:0:
244,168,125220,1,0,0:0:0:0:
244,168,125318,1,0,0:0:0:0:
224,151,125417,1,0,0:0:0:0:
244,168,125516,1,0,0:0:0:0:
244,168,125614,1,0,0:0:0:0:
200,88,126404,5,0,0:0:0:0:
312,96,126799,1,0,0:0:0:0:
217,110,126996,1,0,0:0:0:0:
43,137,127391,1,0,0:0:0:0:
133,129,127588,1,0,0:0:0:0:
219,164,127785,1,0,0:0:0:0:
300,218,127983,1,0,0:0:0:0:
376,180,128180,1,0,0:0:0:0:
385,86,128377,1,0,0:0:0:0:
294,98,128575,1,0,0:0:0:0:
247,195,128772,1,0,0:0:0:0:
216,124,129364,5,0,0:0:0:0:
340,144,129562,1,0,0:0:0:0:
248,192,129759,1,0,0:0:0:0:
356,212,129956,1,0,0:0:0:0:
296,256,130154,1,0,0:0:0:0:
400,284,130351,1,0,0:0:0:0:
176,144,130746,1,0,0:0:0:0:
224,44,130943,1,0,0:0:0:0:
280,152,131141,1,0,0:0:0:0:
216,256,131338,1,0,0:0:0:0:
372,132,131535,1,0,0:0:0:0:
388,256,131733,1,0,0:0:0:0:
352,272,131930,1,0,0:0:0:0:
224,116,132522,5,0,0:0:0:0:
388,92,132720,1,0,0:0:0:0:
240,200,132917,1,0,0:0:0:0:
448,208,133114,1,0,0:0:0:0:
248,280,133312,1,0,0:0:0:0:
392,260,133509,1,0,0:0:0:0:
324,280,133706,1,0,0:0:0:0:
408,288,133904,1,0,0:0:0:0:
124,104,134299,1,0,0:0:0:0:
356,116,134496,1,0,0:0:0:0:
284,136,134693,1,0,0:0:0:0:
432,188,134891,1,0,0:0:0:0:
288,252,135088,1,0,0:0:0:0:
184,80,135680,5,0,0:0:0:0:
400,84,135877,1,0,0:0:0:0:
164,160,136075,1,0,0:0:0:0:
432,152,136272,1,0,0:0:0:0:
236,212,136470,1,0,0:0:0:0:
296,108,136667,1,0,0:0:0:0:
296,292,136864,1,0,0:0:0:0:
364,280,137062,1,0,0:0:0:0:
384,168,137259,1,0,0:0:0:0:
192,120,137654,1,0,0:0:0:0:
224,120,137851,1,0,0:0:0:0:
304,132,138246,1,0,0:0:0:0:
308,136,138443,1,0,0:0:0:0:
312,140,138542,1,0,0:0:0:0:
312,156,138641,5,0,0:0:0:0:
148,176,139035,5,0,0:0:0:0:
256,92,139430,1,0,0:0:0:0:
360,128,139627,1,0,0:0:0:0:
172,172,140022,1,0,0:0:0:0:
164,112,140220,1,0,0:0:0:0:
300,240,140417,1,0,0:0:0:0:
270,225,140516,1,0,0:0:0:0:
234,206,140614,1,0,0:0:0:0:
472,208,140812,1,0,0:0:0:0:
384,320,141009,1,0,0:0:0:0:
336,204,141206,1,0,0:0:0:0:
400,236,141404,1,0,0:0:0:0:
160,140,141996,5,0,0:0:0:0:
256,32,142193,1,0,0:0:0:0:
240,184,142391,1,0,0:0:0:0:
316,112,142588,1,0,0:0:0:0:
304,252,142785,1,0,0:0:0:0:
376,184,142983,1,0,0:0:0:0:
352,316,143180,1,0,0:0:0:0:
428,244,143377,1,0,0:0:0:0:
412,360,143575,1,0,0:0:0:0:
436,160,143772,1,0,0:0:0:0:
260,224,143970,1,0,0:0:0:0:
340,128,144167,1,0,0:0:0:0:
252,320,144364,1,0,0:0:0:0:
208,148,144562,1,0,0:0:0:0:
220,200,144759,5,0,0:0:0:0:
220,200,144956,5,0,0:0:0:0:
220,72,145154,5,0,0:0:0:0:
292,84,145351,1,0,0:0:0:0:
344,100,145549,1,0,0:0:0:0:
280,132,145746,1,0,0:0:0:0:
332,152,145943,1,0,0:0:0:0:
268,180,146141,1,0,0:0:0:0:
320,192,146338,1,0,0:0:0:0:
352,268,146535,1,0,0:0:0:0:
416,264,146733,1,0,0:0:0:0:
420,268,146930,1,0,0:0:0:0:
256,156,147325,1,0,0:0:0:0:
260,160,147522,1,0,0:0:0:0:
216,160,147720,1,0,0:0:0:0:
176,248,148312,5,0,0:0:0:0:
236,200,148509,1,0,0:0:0:0:
236,260,148706,1,0,0:0:0:0:
420,220,148904,1,0,0:0:0:0:
368,252,149101,1,0,0:0:0:0:
344,96,149299,1,0,0:0:0:0:
420,124,149496,1,0,0:0:0:0:
332,196,149693,1,0,0:0:0:0:
464,176,149891,1,0,0:0:0:0:
120,112,150285,1,0,0:0:0:0:
132,116,150483,1,0,0:0:0:0:
340,136,150877,1,0,0:0:0:0:
344,140,151075,1,0,0:0:0:0:
180,112,151667,5,0,0:0:0:0:
400,120,152062,1,0,0:0:0:0:
392,180,152259,1,0,0:0:0:0:
236,60,152654,1,0,0:0:0:0:
292,216,152851,1,0,0:0:0:0:
248,136,153049,1,0,0:0:0:0:
332,116,153246,1,0,0:0:0:0:
180,292,153641,1,0,0:0:0:0:
220,216,153838,1,0,0:0:0:0:
136,212,154035,1,0,0:0:0:0:
236,108,154627,5,0,0:0:0:0:
360,56,154825,1,0,0:0:0:0:
252,220,155022,1,0,0:0:0:0:
376,140,155220,1,0,0:0:0:0:
404,208,155417,1,0,0:0:0:0:
296,312,155614,1,0,0:0:0:0:
328,184,155812,1,0,0:0:0:0:
392,288,156009,1,0,0:0:0:0:
436,212,156206,1,0,0:0:0:0:
208,244,156404,1,0,0:0:0:0:
212,136,156601,1,0,0:0:0:0:
300,240,156799,1,0,0:0:0:0:
296,116,156996,1,0,0:0:0:0:
372,176,157193,1,0,0:0:0:0:
204,216,157391,5,0,0:0:0:0:
204,216,157588,5,0,0:0:0:0:
120,120,157785,5,0,0:0:0:0:
140,64,157983,1,0,0:0:0:0:
196,104,158180,1,0,0:0:0:0:
348,152,158377,1,0,0:0:0:0:
248,176,158575,1,0,0:0:0:0:
288,244,158772,1,0,0:0:0:0:
356,244,158970,1,0,0:0:0:0:
420,156,159167,1,0,0:0:0:0:
152,152,159562,5,0,0:0:0:0:
400,136,159956,5,0,0:0:0:0:
336,264,160351,5,0,0:0:0:0:
192,168,160943,5,0,0:0:0:0:
240,32,161141,1,0,0:0:0:0:
264,232,161338,1,0,0:0:0:0:
344,136,161535,1,0,0:0:0:0:
344,24,161733,1,0,0:0:0:0:
396,248,161930,1,0,0:0:0:0:
248,136,162127,1,0,0:0:0:0:
316,328,162325,1,0,0:0:0:0:
440,108,162522,1,0,0:0:0:0:
216,116,162917,5,0,0:0:0:0:
208,112,163114,1,0,0:0:0:0:
372,128,163509,5,0,0:0:0:0:
372,128,163706,1,0,0:0:0:0:
344,256,164101,5,0,0:0:0:0:
344,256,164299,1,0,0:0:0:0:
