osu file format v14

[General]
AudioFilename: audio.mp3
AudioLeadIn: 0
PreviewTime: -1
Countdown: 0
SampleSet: Soft
StackLeniency: 0.8
Mode: 0
LetterboxInBreaks: 0
WidescreenStoryboard: 0

[Editor]
Bookmarks: 15006,30006,45006,60006,90006,105006,135006,150006,165006,180006,187506,217506,232506,247506
DistanceSpacing: 1.4
BeatDivisor: 4
GridSize: 4
TimelineZoom: 1

[Metadata]
Title:NRG
TitleUnicode:NRG
Artist:rabiesbun
ArtistUnicode:rabiesbun
Creator:Firmatorenio
Version:Insane
Source:Pony Sauce
Tags:pony mlp fim friendship pinkie ztrot
BeatmapID:972056
BeatmapSetID:453278

[Difficulty]
HPDrainRate:5.8
CircleSize:4.8
OverallDifficulty:7.4
ApproachRate:8.4
SliderMultiplier:1.9
SliderTickRate:2

[Events]
//Background and Video events
0,0,"Pinkie_Pie_looking_for_party_cannons_S5E3.png",0,0
//Break Periods
//Storyboard Layer 0 (Background)
//Storyboard Layer 1 (Fail)
//Storyboard Layer 2 (Pass)
//Storyboard Layer 3 (Foreground)
//Storyboard Sound Samples

[TimingPoints]
3,468.75,4,1,0,64,1,0
15003,-100,4,2,0,64,0,0
60003,-66.6666666666667,4,2,0,64,0,1
67034,-50,4,2,0,64,0,1
67503,-66.6666666666667,4,2,0,64,0,1
82034,-50,4,2,0,64,0,1
82503,-66.6666666666667,4,2,0,64,0,1
86253,-50,4,2,0,64,0,1
86721,-66.6666666666667,4,2,0,64,0,1
88128,-100,4,2,0,64,0,0
105003,-66.6666666666667,4,2,0,64,0,1
112034,-50,4,2,0,64,0,1
112503,-66.6666666666667,4,2,0,64,0,1
119768,-50,4,2,0,64,0,1
120003,-66.6666666666667,4,2,0,64,0,1
127034,-50,4,2,0,64,0,1
127503,-66.6666666666667,4,2,0,64,0,1
135003,-100,4,2,0,64,0,0

[HitObjects]
132,314,3,6,0,P|196:299|242:234,1,142.5,4|0,0:0|0:0,0:0:0:0:
244,202,471,1,8,0:2:0:0:
122,180,706,1,0,0:0:0:0:
257,54,940,2,0,P|313:57|371:137,1,142.5
368,155,1409,1,8,0:2:0:0:
244,202,1643,1,0,0:0:0:0:
423,294,1878,6,0,P|492:259|512:192,1,142.5
507,163,2346,1,8,0:2:0:0:
392,172,2581,1,0,0:0:0:0:
506,38,2815,1,0,0:0:0:0:
506,38,2932,2,0,P|443:45|409:90,1,95
402,98,3284,1,8,0:2:0:0:
507,163,3518,1,0,0:0:0:0:
332,226,3753,6,0,P|266:194|235:118,1,142.5
239,96,4221,1,8,0:2:0:0:
374,87,4456,1,0,0:0:0:0:
332,226,4690,2,0,P|267:268|190:257,1,142.5
174,240,5159,1,8,0:2:0:0:
236,134,5393,1,0,0:0:0:0:
332,226,5628,6,0,P|336:322|293:369,1,142.5
278,375,6096,1,8,0:2:0:0:
204,263,6331,1,0,0:0:0:0:
332,226,6565,1,0,0:0:0:0:
332,226,6682,2,0,P|385:241|414:291,1,95
418,308,7034,1,8,0:2:0:0:
310,356,7268,1,0,0:0:0:0:
454,207,7503,6,0,P|454:154|421:112,1,95
398,101,7854,2,0,P|346:99|302:132,1,95
295,156,8206,1,0,0:0:0:0:
197,306,8440,2,0,P|146:321|96:302,1,95
79,283,8791,2,0,P|61:233|80:182,1,95
101,168,9143,1,0,0:0:0:0:
256,157,9378,5,0,0:0:0:0:
358,253,9612,1,0,0:0:0:0:
358,253,9729,1,0,0:0:0:0:
392,123,9963,1,0,0:0:0:0:
392,123,10081,1,0,0:0:0:0:
271,240,10315,1,0,0:0:0:0:
271,240,10432,1,0,0:0:0:0:
271,240,10549,1,0,0:0:0:0:
271,240,10667,1,0,0:0:0:0:
279,123,10901,1,0,0:0:0:0:
279,123,11018,1,0,0:0:0:0:
409,211,11253,6,0,P|415:270|390:318,1,95
398,304,11604,1,0,0:0:0:0:
393,305,11721,1,8,0:2:0:0:
240,334,11956,1,0,0:0:0:0:
284,185,12190,2,0,P|266:138|217:113,1,95
225,117,12542,1,0,0:0:0:0:
221,119,12659,1,8,0:2:0:0:
139,240,12893,1,0,0:0:0:0:
283,254,13128,5,0,0:0:0:0:
82,118,13479,1,0,0:0:0:0:
61,359,13831,1,0,0:0:0:0:
139,240,14065,1,0,0:0:0:0:
139,240,14182,1,0,0:0:0:0:
333,314,14417,1,0,0:0:0:0:
296,118,14768,1,0,0:0:0:0:
139,240,15003,5,4,0:0:0:0:
330,233,15354,2,0,P|356:175|326:118,1,95
265,168,15706,1,0,0:0:0:0:
162,58,15940,1,0,0:0:0:0:
350,326,16409,1,8,0:0:0:0:
473,27,16878,5,0,0:0:0:0:
500,98,16995,2,0,P|468:104|441:125,1,47.5
367,155,17229,2,0,P|318:102|319:66,1,95
394,81,17581,1,0,0:0:0:0:
265,180,17815,1,0,0:0:0:0:
467,352,18284,1,8,0:0:0:0:
99,89,18753,5,0,0:0:0:0:
175,119,18870,2,0,P|213:101|230:73,1,47.5
127,18,19104,2,0,P|63:20|27:71,1,95
62,155,19456,1,0,0:0:0:0:
210,21,19690,2,0,P|249:28|288:125,1,142.5
171,151,20159,1,8,0:0:0:0:
317,245,20393,1,0,0:0:0:0:
444,127,20628,5,0,0:0:0:0:
482,180,20745,1,0,0:0:0:0:
478,246,20862,1,0,0:0:0:0:
433,295,20979,2,0,P|366:309|330:273,1,95
388,244,21331,1,0,0:0:0:0:
272,384,21565,1,0,0:0:0:0:
103,170,22034,2,0,B|104:148|104:148|136:149|131:118|110:98|161:83,1,95,4|0,0:0|0:0,0:0:0:0:
279,60,22503,5,0,0:0:0:0:
345,312,22854,2,0,P|299:296|275:253,1,95
362,219,23206,1,0,0:0:0:0:
196,127,23440,2,0,P|164:74|210:-1,1,142.5
76,87,23909,1,0,0:0:0:0:
239,66,24143,1,0,0:0:0:0:
128,227,24378,5,0,0:0:0:0:
128,227,24495,1,0,0:0:0:0:
317,238,24729,1,0,0:0:0:0:
317,238,24846,1,0,0:0:0:0:
166,355,25081,2,0,P|167:320|183:295,1,47.5
77,303,25315,2,0,P|23:283|6:200,1,142.5
188,223,25784,2,0,P|229:216|266:162,1,95,8|0,0:0|0:0,0:0:0:0:
68,99,26253,5,0,0:0:0:0:
140,145,26370,2,0,P|170:147|208:133,1,47.5
264,26,26604,2,0,P|326:24|367:53,1,95
383,185,26956,1,0,0:0:0:0:
186,143,27190,1,0,0:0:0:0:
296,383,27659,1,8,0:0:0:0:
7,92,28128,5,0,0:0:0:0:
7,92,28245,1,0,0:0:0:0:
245,145,28479,1,0,0:0:0:0:
58,322,28831,1,0,0:0:0:0:
135,63,29065,1,0,0:0:0:0:
256,192,29182,12,0,29768,0:0:0:0:
256,192,30003,5,0,0:0:0:0:
428,138,30354,1,0,0:0:0:0:
428,138,30471,1,0,0:0:0:0:
404,317,30706,1,0,0:0:0:0:
316,113,30940,2,0,P|265:89|209:108,1,95
70,275,31409,2,0,P|121:299|177:280,1,95,8|0,0:0|0:0,0:0:0:0:
308,172,31878,5,0,0:0:0:0:
308,172,31995,1,0,0:0:0:0:
102,115,32229,1,0,0:0:0:0:
102,115,32346,1,0,0:0:0:0:
165,263,32581,1,0,0:0:0:0:
240,28,32815,1,0,0:0:0:0:
393,236,33167,1,0,0:0:0:0:
393,236,33284,2,0,P|410:196|396:135,1,95,8|0,0:0|0:0,0:0:0:0:
249,212,33753,5,0,0:0:0:0:
325,179,33870,1,0,0:0:0:0:
168,246,34104,2,0,P|214:297|265:295,1,95
249,212,34456,1,0,0:0:0:0:
91,278,34690,1,0,0:0:0:0:
115,109,34924,1,0,0:0:0:0:
115,109,35042,1,0,0:0:0:0:
115,109,35159,1,8,0:0:0:0:
249,212,35393,1,0,0:0:0:0:
54,186,35628,5,0,0:0:0:0:
124,225,35745,1,0,0:0:0:0:
181,167,35862,1,0,0:0:0:0:
249,212,35979,2,0,P|305:224|361:180,1,95
293,143,36331,1,0,0:0:0:0:
445,95,36565,2,0,P|490:137|483:243,1,142.5
239,308,37034,1,8,0:0:0:0:
329,162,37268,1,0,0:0:0:0:
329,162,37385,1,0,0:0:0:0:
329,162,37503,6,0,P|375:183|435:147,1,95
284,75,37854,2,0,P|242:104|243:174,1,95
377,85,38206,1,0,0:0:0:0:
189,59,38440,1,0,0:0:0:0:
304,143,38674,1,0,0:0:0:0:
121,178,38909,1,8,0:0:0:0:
121,178,39026,1,0,0:0:0:0:
63,17,39260,1,0,0:0:0:0:
63,17,39378,5,0,0:0:0:0:
63,17,39495,1,0,0:0:0:0:
231,46,39729,1,0,0:0:0:0:
231,46,39846,1,0,0:0:0:0:
121,178,40081,1,0,0:0:0:0:
355,167,40315,1,0,0:0:0:0:
355,167,40432,1,0,0:0:0:0:
226,280,40667,1,0,0:0:0:0:
226,280,40784,2,0,P|188:255|176:209,1,95,8|0,0:0|0:0,0:0:0:0:
442,174,41253,5,0,0:0:0:0:
364,138,41370,1,0,0:0:0:0:
458,315,41604,1,0,0:0:0:0:
252,208,41956,1,0,0:0:0:0:
439,75,42190,1,0,0:0:0:0:
393,195,42424,1,0,0:0:0:0:
186,97,42659,1,8,0:0:0:0:
252,208,42893,1,0,0:0:0:0:
39,292,43128,5,0,0:0:0:0:
170,311,43362,1,0,0:0:0:0:
186,97,43596,1,0,0:0:0:0:
252,208,43831,1,0,0:0:0:0:
406,45,44065,1,0,0:0:0:0:
389,181,44299,1,0,0:0:0:0:
94,79,44534,1,4,0:0:0:0:
418,305,45003,5,4,0:0:0:0:
351,268,45471,1,0,0:0:0:0:
284,231,45940,1,0,0:0:0:0:
217,194,46409,1,0,0:0:0:0:
369,30,46878,5,4,0:0:0:0:
332,97,47346,1,0,0:0:0:0:
295,164,47815,1,0,0:0:0:0:
258,231,48284,1,0,0:0:0:0:
94,79,48518,1,0,0:0:0:0:
94,79,48635,1,0,0:0:0:0:
94,79,48753,5,4,0:0:0:0:
161,116,49221,1,0,0:0:0:0:
228,153,49690,1,0,0:0:0:0:
295,190,50159,1,0,0:0:0:0:
143,354,50628,5,4,0:0:0:0:
180,287,51096,1,0,0:0:0:0:
217,220,51565,1,0,0:0:0:0:
254,153,52034,1,0,0:0:0:0:
380,314,52268,1,0,0:0:0:0:
380,314,52346,1,0,0:0:0:0:
380,314,52424,1,0,0:0:0:0:
380,314,52503,5,0,0:0:0:0:
436,176,52737,1,0,0:0:0:0:
285,195,52971,1,0,0:0:0:0:
332,50,53206,1,0,0:0:0:0:
183,81,53440,1,0,0:0:0:0:
137,225,53674,1,0,0:0:0:0:
285,195,53909,1,0,0:0:0:0:
237,339,54143,1,0,0:0:0:0:
199,152,54378,5,0,0:0:0:0:
326,292,54612,1,0,0:0:0:0:
139,327,54846,1,0,0:0:0:0:
15,182,55081,1,0,0:0:0:0:
199,152,55315,1,0,0:0:0:0:
80,3,55549,1,0,0:0:0:0:
15,182,55784,1,0,0:0:0:0:
199,152,56018,1,0,0:0:0:0:
139,327,56253,5,8,0:0:0:0:
193,342,56370,1,8,0:0:0:0:
245,319,56487,1,8,0:0:0:0:
263,265,56604,1,8,0:0:0:0:
268,208,56721,1,8,0:0:0:0:
289,155,56838,1,8,0:0:0:0:
335,121,56956,1,8,0:0:0:0:
391,121,57073,1,8,0:0:0:0:
434,157,57190,2,0,L|452:189,3,23.75
403,200,57424,2,0,L|381:235,3,23.75
426,252,57659,2,0,L|439:271,3,23.75
398,296,57893,2,0,L|377:330,3,23.75
348,284,58128,5,0,0:0:0:0:
100,140,58479,2,0,B|100:124|100:124|116:124|116:124|116:108|116:108|131:108|131:108|132:92|132:92|148:92,1,95
148,220,58831,2,0,B|148:232|148:232|160:232|160:232|160:244|160:244|172:244,1,47.5
35,242,59065,1,0,0:0:0:0:
329,1,59534,1,8,0:0:0:0:
330,312,60003,6,0,P|309:228|168:205,1,213.750008153916
224,300,60471,1,0,0:0:0:0:
471,165,60940,1,0,0:0:0:0:
267,29,61292,1,0,0:0:0:0:
224,300,61643,1,8,0:0:0:0:
348,169,61878,6,0,P|391:169|432:210,1,71.2500027179719
252,209,62112,2,0,P|209:209|168:168,1,71.2500027179719
334,250,62346,2,0,P|334:293|293:334,1,71.2500027179719
262,124,62581,2,0,P|262:81|303:40,1,71.2500027179719
252,209,62815,2,0,P|172:238|90:178,1,142.500005435944
198,40,63167,1,0,0:0:0:0:
23,51,63518,1,8,0:0:0:0:
236,240,63753,6,0,P|290:227|209:180,1,213.750008153916
264,324,64221,1,0,0:0:0:0:
435,137,64690,2,0,P|490:188|443:229,1,142.500005435944
299,137,65042,2,0,P|244:86|291:45,1,142.500005435944
435,137,65393,1,8,0:0:0:0:
227,183,65628,6,0,P|181:145|175:96,1,71.2500027179719
360,194,65862,2,0,P|418:197|452:233,1,71.2500027179719
243,261,66096,2,0,P|193:292|145:283,1,71.2500027179719
299,137,66331,2,0,P|320:82|365:61,1,71.2500027179719
323,270,66565,2,0,P|277:344|137:368,1,213.750008153916
164,195,67034,6,0,P|266:88|443:143,1,285,8|0,0:0|0:0,0:0:0:0:
323,270,67503,6,0,P|388:226|390:96,1,213.750008153916
295,152,67971,1,0,0:0:0:0:
159,302,68440,2,0,P|119:275|125:217,1,71.2500027179719
353,302,68792,2,0,P|393:275|387:217,1,71.2500027179719
256,43,69143,1,8,0:0:0:0:
217,175,69378,6,0,P|183:141|182:102,1,71.2500027179719
298,209,69612,2,0,P|339:184|350:147,1,71.2500027179719
203,242,69846,2,0,P|156:229|136:196,1,71.2500027179719
305,276,70081,2,0,P|353:276|381:249,1,71.2500027179719
217,315,70315,2,0,P|150:327|57:250,1,142.500005435944
284,344,70667,2,0,P|340:373|451:336,1,142.500005435944
256,256,71018,1,8,0:0:0:0:
160,80,71253,6,0,P|256:40|352:80,1,213.750008153916
256,184,71721,1,0,0:0:0:0:
95,124,72190,1,0,0:0:0:0:
417,124,72542,1,0,0:0:0:0:
256,40,72776,1,0,0:0:0:0:
96,264,73128,5,0,0:0:0:0:
416,264,73362,1,0,0:0:0:0:
216,224,73596,1,0,0:0:0:0:
296,264,73713,1,0,0:0:0:0:
216,304,73831,1,0,0:0:0:0:
256,64,74065,5,0,0:0:0:0:
128,151,74299,1,0,0:0:0:0:
164,204,74417,1,0,0:0:0:0:
216,168,74534,1,0,0:0:0:0:
256,216,74651,1,0,0:0:0:0:
296,168,74768,1,0,0:0:0:0:
348,204,74885,1,0,0:0:0:0:
384,151,75003,6,0,P|342:79|218:118,1,213.750008153916
281,220,75471,2,0,P|189:228|138:180,1,142.500005435944
392,273,75940,2,0,P|347:331|283:338,1,142.500005435944
384,144,76292,2,0,P|456:153|494:205,1,142.500005435944
281,220,76643,1,8,0:0:0:0:
308,27,76878,6,0,P|334:50|347:104,1,71.2500027179719
206,68,77112,2,0,P|240:74|278:115,1,71.2500027179719
137,152,77346,2,0,P|169:140|223:156,1,71.2500027179719
120,253,77581,2,0,P|142:227|197:214,1,71.2500027179719
158,349,77815,2,0,P|164:314|205:276,1,71.2500027179719
325,362,78167,2,0,P|298:339|286:284,1,71.2500027179719
463,210,78518,1,8,0:0:0:0:
184,149,78753,6,0,P|229:215|392:199,1,213.750008153916
317,114,79221,2,0,P|323:193|379:244,1,142.500005435944
317,114,79690,2,0,P|245:79|173:102,1,142.500005435944
317,114,80042,2,0,P|382:69|398:-4,1,142.500005435944
317,114,80393,1,8,0:0:0:0:
428,224,80628,6,0,P|432:267|403:304,1,71.2500027179719
428,224,80862,2,0,P|470:233|496:272,1,71.2500027179719
428,224,81096,2,0,P|450:186|495:173,1,71.2500027179719
428,224,81331,2,0,P|399:191|401:144,1,71.2500027179719
428,224,81565,2,0,P|388:241|344:224,1,71.2500027179719
148,159,81917,5,0,0:0:0:0:
170,240,82034,2,0,P|65:179|177:82,1,285,8|0,0:0|0:0,0:0:0:0:
305,260,82503,6,0,P|361:294|459:199,1,213.750008153916
375,212,82971,2,0,P|408:277|486:291,1,142.500005435944
286,107,83440,2,0,P|225:154|242:223,1,142.500005435944
288,175,83792,2,0,P|215:147|166:199,1,142.500005435944
353,322,84143,1,8,0:0:0:0:
348,138,84378,6,0,P|361:168|349:209,1,71.2500027179719
213,289,84612,2,0,P|185:273|170:232,1,71.2500027179719
233,87,84846,2,0,P|265:84|300:108,1,71.2500027179719
335,262,85081,2,0,P|311:284|268:285,1,71.2500027179719
149,181,85315,2,0,P|156:149|190:123,1,71.2500027179719
256,192,85549,1,0,0:0:0:0:
352,177,85667,2,0,P|379:154|387:120,1,71.2500027179719
198,271,86018,1,8,0:0:0:0:
96,92,86253,6,0,P|74:142|163:90,1,285
113,114,86721,6,0,P|102:138|146:112,1,142.500005435944
60,262,87190,2,0,P|131:290|210:239,1,142.500005435944
130,136,87542,1,0,0:0:0:0:
130,136,87776,2,0,B|152:119|152:119|190:146|201:124|230:128|230:128|241:133|269:108,1,142.500005435944
238,55,88128,1,4,0:0:0:0:
256,192,88245,12,0,89299,0:0:0:0:
202,210,89534,5,8,0:0:0:0:
221,146,89651,1,8,0:0:0:0:
288,145,89768,1,8,0:0:0:0:
310,208,89885,1,8,0:0:0:0:
256,248,90003,5,4,0:0:0:0:
254,34,90354,1,0,0:0:0:0:
254,34,90471,1,0,0:0:0:0:
377,121,90706,1,0,0:0:0:0:
183,142,90940,2,0,P|144:114|133:65,1,95
378,16,91409,1,8,0:0:0:0:
217,251,91878,5,0,0:0:0:0:
217,251,91995,1,0,0:0:0:0:
364,186,92229,1,0,0:0:0:0:
130,118,92581,1,0,0:0:0:0:
217,251,92815,1,0,0:0:0:0:
453,30,93284,1,8,0:0:0:0:
341,333,93753,5,0,0:0:0:0:
411,294,93870,1,0,0:0:0:0:
263,229,94104,1,0,0:0:0:0:
485,131,94456,1,0,0:0:0:0:
209,62,94690,1,0,0:0:0:0:
341,333,95159,1,8,0:0:0:0:
356,75,95628,5,0,0:0:0:0:
381,115,95745,1,0,0:0:0:0:
333,111,95862,1,0,0:0:0:0:
356,75,95979,1,0,0:0:0:0:
342,226,96213,1,0,0:0:0:0:
342,226,96331,1,0,0:0:0:0:
152,125,96565,1,0,0:0:0:0:
256,192,96682,12,0,97268,0:0:0:0:
256,192,97503,5,0,0:0:0:0:
357,289,97854,2,0,P|427:293|464:260,1,95
395,217,98206,1,0,0:0:0:0:
235,362,98440,1,0,0:0:0:0:
388,77,98909,1,8,0:0:0:0:
74,155,99378,5,0,0:0:0:0:
74,155,99495,1,0,0:0:0:0:
207,65,99729,1,0,0:0:0:0:
207,65,99846,1,0,0:0:0:0:
222,226,100081,1,0,0:0:0:0:
222,226,100198,1,0,0:0:0:0:
222,226,100315,1,0,0:0:0:0:
222,226,100432,1,0,0:0:0:0:
353,131,100667,1,0,0:0:0:0:
353,131,100784,1,8,0:0:0:0:
374,290,101018,1,0,0:0:0:0:
244,125,101253,5,0,0:0:0:0:
173,120,101370,1,0,0:0:0:0:
116,162,101487,1,0,0:0:0:0:
105,232,101604,1,0,0:0:0:0:
291,337,101956,1,0,0:0:0:0:
311,88,102190,1,0,0:0:0:0:
406,193,102424,1,0,0:0:0:0:
184,148,102659,1,0,0:0:0:0:
311,88,102893,1,0,0:0:0:0:
315,259,103128,5,0,0:0:0:0:
184,148,103362,1,0,0:0:0:0:
156,316,103596,1,0,0:0:0:0:
315,259,103831,1,0,0:0:0:0:
332,96,104065,1,0,0:0:0:0:
284,36,104182,1,0,0:0:0:0:
212,62,104299,1,0,0:0:0:0:
216,138,104417,1,0,0:0:0:0:
288,159,104534,2,0,P|250:100|217:147,1,142.5,8|0,0:0|0:0,0:0:0:0:
345,133,105003,6,0,P|308:65|174:99,1,213.750008153916,4|0,0:0|0:0,0:0:0:0:
297,290,105471,2,0,P|359:270|318:235,1,142.500005435944
131,277,105940,2,0,P|150:332|190:288,1,142.500005435944
116,175,106292,2,0,P|97:118|156:129,1,142.500005435944
41,236,106643,1,8,0:0:0:0:
282,190,106878,6,0,P|298:225|286:269,1,71.2500027179719
293,256,107112,2,0,P|305:223|298:188,1,71.2500027179719
299,188,107346,2,0,P|317:217|316:252,1,71.2500027179719
316,253,107581,2,0,P|328:220|321:185,1,71.2500027179719
322,185,107815,2,0,P|340:214|339:249,1,71.2500027179719
264,240,108049,1,0,0:0:0:0:
322,185,108167,2,0,P|347:208|355:242,1,71.2500027179719
154,115,108518,1,8,0:0:0:0:
436,241,108753,6,0,P|381:322|281:269,1,213.750008153916
313,154,109221,2,0,P|317:125|291:142,1,71.2500027179719
126,223,109690,2,0,P|102:207|129:196,1,71.2500027179719
216,69,110042,2,0,P|192:51|194:82,1,71.2500027179719
322,309,110393,1,8,0:0:0:0:
439,81,110628,6,0,P|386:81|358:99,1,71.2500027179719
370,88,110862,2,0,P|317:88|289:106,1,71.2500027179719
301,95,111096,2,0,P|248:95|220:113,1,71.2500027179719
223,75,111331,2,0,P|170:75|142:93,1,71.2500027179719
154,82,111565,2,0,P|101:82|73:100,1,71.2500027179719
256,288,111917,1,0,0:0:0:0:
364,256,112034,2,0,P|256:176|148:256,1,285,8|0,0:0|0:0,0:0:0:0:
353,357,112503,6,0,P|437:326|434:189,1,213.750008153916
256,315,112971,2,0,P|196:314|147:246,1,142.500005435944
256,227,113323,1,0,0:0:0:0:
256,318,113440,2,0,P|316:317|365:249,1,142.500005435944
256,322,113792,2,0,P|196:321|147:253,1,142.500005435944
256,117,114143,1,8,0:0:0:0:
323,229,114378,6,0,P|372:254|380:281,1,71.2500027179719
188,154,114612,2,0,P|139:129|131:102,1,71.2500027179719
257,268,114846,2,0,P|259:324|240:344,1,71.2500027179719
254,115,115080,2,0,P|252:59|271:39,1,71.2500027179719
190,231,115315,2,0,P|143:261|115:254,1,71.2500027179719
256,192,115549,1,0,0:0:0:0:
321,152,115667,2,0,P|368:122|396:129,1,71.2500027179719
125,167,116018,1,8,0:0:0:0:
387,217,116253,6,0,P|379:324|265:380,1,213.750008153916
254,243,116721,1,0,0:0:0:0:
113,359,116956,1,0,0:0:0:0:
113,359,117073,1,0,0:0:0:0:
113,359,117190,1,0,0:0:0:0:
116,125,117424,1,0,0:0:0:0:
76,184,117542,1,0,0:0:0:0:
58,46,117776,1,0,0:0:0:0:
127,30,117893,1,0,0:0:0:0:
190,62,118010,1,0,0:0:0:0:
205,131,118128,5,0,0:0:0:0:
356,79,118362,1,0,0:0:0:0:
356,79,118440,1,0,0:0:0:0:
356,79,118518,1,0,0:0:0:0:
356,79,118596,1,0,0:0:0:0:
385,135,118713,1,0,0:0:0:0:
342,183,118831,1,0,0:0:0:0:
362,243,118948,1,0,0:0:0:0:
309,280,119065,2,0,B|303:298|303:298|274:300|266:336|220:302,1,71.2500027179719
136,337,119299,1,0,0:0:0:0:
74,316,119417,1,0,0:0:0:0:
72,252,119534,1,8,0:0:0:0:
19,215,119651,1,0,0:0:0:0:
33,152,119768,2,0,P|59:99|131:91,1,95,8|0,0:0|0:0,0:0:0:0:
247,179,120003,6,0,P|329:198|430:116,1,213.750008153916,4|0,0:0|0:0,0:0:0:0:
315,77,120471,2,0,P|329:3|385:9,1,142.500005435944
436,230,120940,2,0,P|492:235|510:161,1,142.500005435944
418,303,121292,2,0,P|362:308|362:236,1,142.500005435944
498,319,121643,2,0,P|487:353|439:376,1,71.2500027179719,8|0,0:0|0:0,0:0:0:0:
243,315,121878,6,0,P|253:280|278:256,1,71.2500027179719
173,235,122112,2,0,P|199:209|232:201,1,71.2500027179719
155,128,122346,2,0,P|190:119|223:128,1,71.2500027179719
274,63,122581,2,0,P|299:89|307:122,1,71.2500027179719
392,112,122815,2,0,P|384:166|288:208,1,142.500005435944
308,320,123167,2,0,P|253:312|211:216,1,142.500005435944
403,271,123518,1,8,0:0:0:0:
226,103,123753,6,0,P|259:131|203:108,1,213.750008153916
318,139,124221,2,0,P|290:210|226:236,1,142.500005435944
230,45,124690,2,0,P|309:101|317:141,1,142.500005435944
141,129,125042,2,0,P|190:50|233:45,1,142.500005435944
227,132,125393,1,8,0:0:0:0:
313,255,125628,6,0,P|330:218|326:182,1,71.2500027179719
393,273,125862,2,0,P|410:236|406:200,1,71.2500027179719
199,255,126096,2,0,P|182:218|186:182,1,71.2500027179719
119,273,126330,2,0,P|102:236|106:200,1,71.2500027179719
432,87,126565,2,0,P|364:91|312:143,1,142.500005435944
402,175,126917,1,0,0:0:0:0:
483,52,127034,2,0,P|336:47|255:158,1,285,8|0,0:0|0:0,0:0:0:0:
322,305,127503,5,0,0:0:0:0:
322,305,127620,2,0,P|229:337|169:287,1,142.500005435944
137,151,127971,1,0,0:0:0:0:
388,197,128440,1,0,0:0:0:0:
269,81,128792,1,0,0:0:0:0:
203,219,129143,1,8,0:0:0:0:
408,206,129378,5,0,0:0:0:0:
316,246,129495,1,0,0:0:0:0:
377,114,129729,1,0,0:0:0:0:
284,125,129846,1,0,0:0:0:0:
106,249,130081,1,0,0:0:0:0:
144,56,130315,1,0,0:0:0:0:
106,249,130667,1,0,0:0:0:0:
345,190,131018,1,8,0:0:0:0:
144,357,131253,6,0,P|71:359|9:308,1,142.500005435944
207,218,131721,1,0,0:0:0:0:
481,362,132190,1,0,0:0:0:0:
294,49,132542,1,0,0:0:0:0:
487,153,132776,1,0,0:0:0:0:
182,235,133128,6,0,P|125:198|132:100,1,142.500005435944,4|0,0:0|0:0,0:0:0:0:
330,235,133596,2,0,P|387:198|380:100,1,142.500005435944
256,64,134065,1,0,0:0:0:0:
256,171,134417,1,0,0:0:0:0:
256,171,134534,1,8,0:0:0:0:
256,245,134768,1,0,0:0:0:0:
256,343,135003,5,4,0:0:0:0:
307,352,135120,1,0,0:0:0:0:
353,329,135237,1,0,0:0:0:0:
375,281,135354,1,0,0:0:0:0:
422,303,135471,1,0,0:0:0:0:
473,296,135588,1,0,0:0:0:0:
507,256,135706,2,0,P|511:208|469:164,1,95
435,228,136057,1,0,0:0:0:0:
246,229,136292,1,0,0:0:0:0:
218,184,136409,1,0,0:0:0:0:
263,157,136526,1,0,0:0:0:0:
291,201,136643,1,0,0:0:0:0:
214,58,136878,5,0,0:0:0:0:
263,42,136995,1,0,0:0:0:0:
314,52,137112,1,0,0:0:0:0:
349,89,137229,1,0,0:0:0:0:
393,62,137346,1,0,0:0:0:0:
444,67,137463,1,0,0:0:0:0:
475,109,137581,2,0,B|506:146|496:220|443:242|443:242|409:257|365:251|339:214|339:214|318:178|264:141|204:171,1,427.5
117,292,138753,5,0,0:0:0:0:
162,318,138870,1,0,0:0:0:0:
214,315,138987,1,0,0:0:0:0:
249,277,139104,1,0,0:0:0:0:
198,265,139221,1,0,0:0:0:0:
169,221,139338,1,0,0:0:0:0:
169,168,139456,2,0,P|193:133|266:130,1,95
241,199,139807,1,0,0:0:0:0:
402,147,140042,1,0,0:0:0:0:
424,110,140159,1,0,0:0:0:0:
422,152,140276,1,0,0:0:0:0:
404,189,140393,1,0,0:0:0:0:
216,156,140628,5,0,0:0:0:0:
163,157,140745,1,0,0:0:0:0:
133,200,140862,1,0,0:0:0:0:
150,249,140979,1,0,0:0:0:0:
98,239,141096,1,0,0:0:0:0:
62,277,141213,1,0,0:0:0:0:
67,329,141331,2,0,P|143:365|245:302,1,190
242,151,141917,1,0,0:0:0:0:
150,249,142034,1,0,0:0:0:0:
135,58,142268,1,0,0:0:0:0:
299,295,142503,5,0,0:0:0:0:
347,313,142620,1,0,0:0:0:0:
394,291,142737,1,0,0:0:0:0:
412,242,142854,1,0,0:0:0:0:
462,256,142971,1,0,0:0:0:0:
472,204,143088,1,0,0:0:0:0:
449,156,143206,2,0,P|421:115|344:120,1,95
345,225,143557,1,0,0:0:0:0:
209,127,143792,1,0,0:0:0:0:
264,117,143909,1,0,0:0:0:0:
230,93,144026,1,0,0:0:0:0:
243,147,144143,1,0,0:0:0:0:
161,223,144378,5,0,0:0:0:0:
138,175,144495,1,0,0:0:0:0:
139,122,144612,1,0,0:0:0:0:
169,79,144729,1,0,0:0:0:0:
189,126,144846,1,0,0:0:0:0:
230,93,144963,1,0,0:0:0:0:
282,84,145081,1,0,0:0:0:0:
256,192,145198,12,0,146018,0:0:0:0:
256,192,146253,5,0,0:0:0:0:
303,169,146370,1,0,0:0:0:0:
319,119,146487,1,0,0:0:0:0:
367,100,146604,1,0,0:0:0:0:
358,151,146721,1,0,0:0:0:0:
407,134,146838,1,0,0:0:0:0:
416,82,146956,2,0,P|443:54|521:71,1,95
476,118,147307,1,0,0:0:0:0:
378,271,147542,1,0,0:0:0:0:
424,246,147659,1,0,0:0:0:0:
378,271,147776,1,0,0:0:0:0:
331,294,147893,1,0,0:0:0:0:
208,179,148128,5,0,0:0:0:0:
251,150,148245,1,0,0:0:0:0:
205,125,148362,1,0,0:0:0:0:
250,99,148479,1,0,0:0:0:0:
251,150,148596,1,0,0:0:0:0:
208,179,148713,1,0,0:0:0:0:
162,152,148831,2,0,P|172:33|296:11,1,237.5
281,122,149534,2,0,B|298:127|298:127|323:92|321:200|370:87|388:198,1,142.5
311,251,150003,5,0,0:0:0:0:
311,251,150354,1,0,0:0:0:0:
311,251,150706,1,0,0:0:0:0:
311,251,150940,1,0,0:0:0:0:
311,251,151292,1,0,0:0:0:0:
311,251,151643,1,0,0:0:0:0:
248,227,151878,5,0,0:0:0:0:
248,227,151995,1,0,0:0:0:0:
248,227,152229,1,0,0:0:0:0:
248,227,152581,1,0,0:0:0:0:
248,227,152815,1,0,0:0:0:0:
248,227,152932,1,0,0:0:0:0:
248,227,153167,1,0,0:0:0:0:
248,227,153518,1,0,0:0:0:0:
336,173,153753,5,0,0:0:0:0:
336,173,153870,1,0,0:0:0:0:
336,173,154104,1,0,0:0:0:0:
336,173,154456,1,0,0:0:0:0:
336,173,154690,1,0,0:0:0:0:
336,173,154924,1,0,0:0:0:0:
336,173,155042,1,0,0:0:0:0:
336,173,155159,1,0,0:0:0:0:
336,173,155393,1,0,0:0:0:0:
324,292,155628,5,0,0:0:0:0:
324,292,155745,1,0,0:0:0:0:
324,292,155979,1,0,0:0:0:0:
324,292,156331,1,0,0:0:0:0:
324,292,156565,1,0,0:0:0:0:
324,292,156682,1,0,0:0:0:0:
324,292,156917,1,0,0:0:0:0:
324,292,157034,1,0,0:0:0:0:
324,292,157268,1,0,0:0:0:0:
305,182,157503,5,0,0:0:0:0:
305,182,157854,1,0,0:0:0:0:
305,182,158206,1,0,0:0:0:0:
305,182,158440,1,0,0:0:0:0:
305,182,158792,1,0,0:0:0:0:
305,182,158909,1,0,0:0:0:0:
305,182,159143,1,0,0:0:0:0:
223,247,159378,5,0,0:0:0:0:
223,247,159495,1,0,0:0:0:0:
223,247,159729,1,0,0:0:0:0:
223,247,160081,1,0,0:0:0:0:
223,247,160315,1,0,0:0:0:0:
223,247,160432,1,0,0:0:0:0:
223,247,160667,1,0,0:0:0:0:
223,247,160784,1,0,0:0:0:0:
223,247,161018,1,0,0:0:0:0:
179,151,161253,5,0,0:0:0:0:
179,151,161370,1,0,0:0:0:0:
179,151,161604,1,0,0:0:0:0:
179,151,161956,1,0,0:0:0:0:
179,151,162190,1,0,0:0:0:0:
179,151,162542,1,0,0:0:0:0:
179,151,162659,1,0,0:0:0:0:
179,151,162893,1,0,0:0:0:0:
310,159,163128,5,0,0:0:0:0:
310,159,163245,1,0,0:0:0:0:
310,159,163479,1,0,0:0:0:0:
310,159,163831,1,0,0:0:0:0:
310,159,164065,1,0,0:0:0:0:
310,159,164182,1,0,0:0:0:0:
310,159,164417,1,0,0:0:0:0:
310,159,164534,1,0,0:0:0:0:
310,159,164651,1,0,0:0:0:0:
310,159,164768,1,0,0:0:0:0:
371,68,165003,5,0,0:0:0:0:
453,151,165237,1,0,0:0:0:0:
453,151,165354,2,0,P|458:210|438:238,1,95
412,250,165706,1,0,0:0:0:0:
367,178,165940,1,0,0:0:0:0:
272,249,166292,1,0,0:0:0:0:
272,249,166409,2,0,P|239:203|268:138,1,95
154,135,166878,5,0,0:0:0:0:
154,135,166995,2,0,P|141:166|112:180,1,47.5
92,125,167229,2,0,P|121:80|187:83,1,95
214,107,167581,2,0,P|224:83|219:50,1,47.5
70,183,167815,1,0,0:0:0:0:
70,183,167932,1,0,0:0:0:0:
280,128,168167,1,0,0:0:0:0:
208,177,168284,2,0,P|261:160|279:89,1,95
239,259,168753,5,0,0:0:0:0:
239,259,168870,1,0,0:0:0:0:
348,180,169104,2,0,P|402:187|430:223,1,95
366,246,169456,1,0,0:0:0:0:
376,75,169690,2,0,P|340:105|285:96,1,95
376,75,170042,1,0,0:0:0:0:
294,101,170159,2,0,P|241:105|206:146,1,95
232,266,170628,5,0,0:0:0:0:
185,260,170745,2,0,P|208:266|232:266,1,47.5
149,227,170979,2,0,P|185:257|232:265,1,95
133,184,171331,2,0,P|136:208|149:227,1,47.5
136,139,171565,1,0,0:0:0:0:
256,192,171682,12,0,172268,0:0:0:0:
297,135,172503,6,0,P|334:163|336:224,1,95
234,150,172854,2,0,P|239:103|291:71,1,95
278,198,173206,2,0,P|235:215|197:203,1,47.5
297,135,173440,1,0,0:0:0:0:
118,235,173792,1,0,0:0:0:0:
118,235,173909,2,0,P|92:190|110:136,1,95
266,285,174378,5,0,0:0:0:0:
266,285,174495,1,0,0:0:0:0:
277,129,174729,1,0,0:0:0:0:
277,129,174846,1,0,0:0:0:0:
233,215,175081,1,0,0:0:0:0:
137,213,175315,1,0,0:0:0:0:
137,213,175432,1,0,0:0:0:0:
233,215,175667,1,0,0:0:0:0:
233,215,175784,2,0,P|204:187|217:112,1,95
426,135,176253,5,0,0:0:0:0:
426,135,176370,1,0,0:0:0:0:
309,16,176604,1,0,0:0:0:0:
263,50,176721,1,0,0:0:0:0:
245,103,176838,1,0,0:0:0:0:
263,157,176956,1,0,0:0:0:0:
426,135,177190,2,0,L|405:238,1,95
355,148,177659,2,0,L|334:251,1,95
284,160,178128,6,0,L|263:263,1,95
214,172,178596,2,0,L|193:275,1,95
145,184,179065,2,0,L|124:287,1,95
75,196,179534,2,0,L|54:299,1,95
310,174,180003,6,0,L|364:95,1,95
274,246,180471,2,0,L|353:300,1,95
202,210,180940,2,0,L|148:289,1,95
238,138,181409,2,0,L|159:84,1,95
400,199,181878,6,0,L|306:217,1,95
248,336,182346,2,0,L|230:242,1,95
112,184,182815,2,0,L|206:166,1,95
263,47,183284,2,0,L|281:141,1,95
334,212,183753,6,0,P|291:209|274:189,1,47.5
177,171,183987,2,0,P|220:174|237:194,1,47.5
235,270,184221,2,0,P|238:227|258:210,1,47.5
276,113,184455,2,0,P|273:156|253:173,1,47.5
167,238,184690,5,0,0:0:0:0:
345,146,184924,1,0,0:0:0:0:
210,103,185159,1,0,0:0:0:0:
302,281,185393,1,0,0:0:0:0:
249,156,185628,5,0,0:0:0:0:
291,185,185745,1,0,0:0:0:0:
262,227,185862,1,0,0:0:0:0:
220,198,185979,1,0,0:0:0:0:
286,146,186096,5,0,0:0:0:0:
301,222,186213,1,0,0:0:0:0:
225,237,186330,1,0,0:0:0:0:
210,161,186447,1,0,0:0:0:0:
330,177,186565,6,0,L|332:211,3,23.75
270,266,186799,2,0,L|236:268,3,23.75
181,206,187034,2,0,L|179:172,3,23.75
241,117,187268,2,0,L|275:115,3,23.75
256,192,187503,6,0,P|195:179|174:86,1,142.5
203,55,187971,1,0,0:0:0:0:
