osu file format v14

[General]
AudioFilename: audio.mp3
AudioLeadIn: 0
PreviewTime: 127449
Countdown: 0
SampleSet: Normal
StackLeniency: 0.7
Mode: 1
LetterboxInBreaks: 0
WidescreenStoryboard: 1

[Editor]
DistanceSpacing: 1
BeatDivisor: 4
GridSize: 32
TimelineZoom: 2.899999

[Metadata]
Title:onostrapha
TitleUnicode:onostrapha
Artist:rN
ArtistUnicode:rN
Creator:Cynplytholowazy
Version:ikin's inner oni
Source:osu! World Cup 2022
Tags:Electronic Instrumental Speedcore Breakcore Experimental Featured Artist FA osu!original Custom Song OWC2022 OWC Finals osu!taiko World Cup 2023 TWC2023 TWC ikin5050
BeatmapID:4353103
BeatmapSetID:1976633

[Difficulty]
HPDrainRate:5.5
CircleSize:5
OverallDifficulty:7
ApproachRate:5
SliderMultiplier:1.4
SliderTickRate:1

[Events]
//Background and Video events
0,0,"ef5dccd57066baf326d44ffe41ab53988003c76e.jpg",0,105
//Break Periods
//Storyboard Layer 0 (Background)
//Storyboard Layer 1 (Fail)
//Storyboard Layer 2 (Pass)
//Storyboard Layer 3 (Foreground)
//Storyboard Layer 4 (Overlay)
//Storyboard Sound Samples

[TimingPoints]
990,251.046025104603,4,1,0,40,1,0
990,-208.138301850468,4,1,0,40,0,0
5003,-174.110112659225,4,1,0,40,0,0
5254,-168.736083479736,4,1,0,40,0,0
5380,-166.176216205648,4,1,0,40,0,0
5631,-161.328036612059,4,1,0,40,0,0
6007,-174.110112659225,4,1,0,40,0,0
6258,-168.736083479736,4,1,0,40,0,0
6384,-166.176216205648,4,1,0,40,0,0
6635,-161.328036612059,4,1,0,40,0,0
7012,-150.480075241239,4,1,0,40,0,0
7263,-154.620530551866,4,1,0,40,0,0
7388,-156.779903980681,4,1,0,40,0,0
7639,-161.328036612059,4,1,0,40,0,0
8016,-155.691794467489,4,1,0,40,0,0
8267,-161.328036612059,4,1,0,40,0,0
8518,-167.445143997018,4,1,0,40,0,0
8769,-174.110112659225,4,1,0,40,0,0
8894,-170.060151489524,4,1,0,40,0,0
9020,-166.186201931961,4,1,0,40,0,0
9271,-159.030058092335,4,1,0,40,0,0
9397,-155.691794467489,4,1,0,40,0,0
9773,-174.110112659225,4,1,0,40,0,0
9899,-170.028604586733,4,1,0,40,0,0
10024,-166.186201931961,4,1,0,40,0,0
10275,-159.030058092335,4,1,0,40,0,0
10401,-155.691794467489,4,1,0,40,0,0
10777,-174.110112659225,4,1,0,40,0,0
10903,-170.028604586733,4,1,0,40,0,0
11028,-166.186201931961,4,1,0,40,0,0
11279,-159.030058092335,4,1,0,40,0,0
11405,-155.691794467489,4,1,0,40,0,0
11781,-145.645136242086,4,1,0,40,0,0
11907,-147.422168724776,4,1,0,40,0,0
12033,-149.248740936164,4,1,0,40,0,0
12284,-153.043810532492,4,1,0,40,0,0
12535,-157.063137753982,4,1,0,40,0,0
12786,-161.328036612059,4,1,0,40,0,0
13037,-150.480075241239,4,1,0,40,0,0
13288,-146.820882594176,4,1,0,40,0,0
13413,-145.072066384522,4,1,0,40,0,0
13664,-141.698015461642,4,1,0,40,0,0
13918,-150.480075241239,4,1,0,43,0,0
14292,-146.820882594176,4,1,0,43,0,0
14417,-145.072066384522,4,1,0,43,0,0
14669,-141.684925424527,4,1,0,43,0,0
14794,-140.069812362098,4,1,0,43,0,0
14985,-136.948406016275,4,1,0,45,0,0
15296,-140.069812362098,4,1,0,45,0,0
15422,-141.698015461642,4,1,0,45,0,0
15673,-145.072066384522,4,1,0,45,0,0
15798,-146.820882594176,4,1,0,45,0,0
15927,-136.948406016275,4,1,0,48,0,0
16300,-139.715092882456,4,1,0,48,0,0
16551,-142.610800184403,4,1,0,48,0,0
16802,-145.645136242086,4,1,0,48,0,0
16928,-143.671438004147,4,1,0,48,0,0
16994,-141.771885903804,4,1,0,50,0,0
17304,-138.122942667896,4,1,0,50,0,0
17430,-136.36951734071,4,1,0,50,0,0
17807,-143.913884811172,4,1,0,50,0,0
17932,-142.241461640979,4,1,0,50,0,0
17998,-140.599276329236,4,1,0,53,0,0
18309,-137.451632018984,4,1,0,53,0,0
18434,-135.942354565538,4,1,0,53,0,0
18685,-133.02141644212,4,1,0,53,0,0
18811,-135.139273349404,4,1,0,53,0,0
18936,-137.316799545189,4,1,0,53,0,0
19002,-139.593296780257,4,1,0,55,0,0
19313,-144.391821270583,4,1,0,55,0,0
19438,-146.923196875297,4,1,0,55,0,0
19815,-141.146240401615,4,1,0,55,0,0
19940,-136.964574420649,4,1,0,55,0,0
20006,-133.02141644212,4,1,0,58,0,0
20822,-111.273963498876,4,1,0,60,0,0
21154,-113.448737504964,4,1,0,60,0,0
21238,-115.721542527793,4,1,0,60,0,0
21321,-118.070473330788,4,1,0,60,0,0
21405,-120.559806144313,4,1,0,60,0,0
21489,-123.17042518813,4,1,0,60,0,0
21572,-125.87833483932,4,1,0,60,0,0
21698,-122.606639490454,4,1,0,60,0,0
21823,-119.544062473755,4,1,0,60,0,0
21949,-116.62587042283,4,1,0,60,0,0
22074,-113.884562941468,4,1,0,60,0,0
22160,-115.353635603349,4,1,0,60,0,0
22244,-116.8416588098,4,1,0,60,0,0
22325,-118.330820084871,4,1,0,60,0,0
22411,-119.857247972503,4,1,0,60,0,0
22495,-121.403366267879,4,1,0,60,0,0
22576,-122.950667064111,4,1,0,60,0,0
22702,-125.33735637837,4,1,0,60,0,0
22828,-127.770375541982,4,1,0,60,0,0
22953,-130.230751073304,4,1,0,60,0,0
23019,-108.794262484553,4,1,0,63,0,0
23162,-111.253701476084,4,1,0,63,0,0
23246,-113.8738882235,4,1,0,63,0,0
23330,-116.637134405685,4,1,0,63,0,0
23413,-119.520254250957,4,1,0,63,0,0
23497,-122.606639490454,4,1,0,63,0,0
23581,-125.87833483932,4,1,0,63,0,0
23706,-122.631853575384,4,1,0,63,0,0
23832,-119.544062473755,4,1,0,63,0,0
23957,-116.64840083661,4,1,0,63,0,0
24083,-113.884562941468,4,1,0,63,0,0
24168,-115.337699327314,4,1,0,63,0,0
24252,-116.8272224096,4,1,0,63,0,0
24334,-118.33598186495,4,1,0,63,0,0
24419,-119.845917158736,4,1,0,63,0,0
24503,-121.393661399924,4,1,0,63,0,0
24585,-122.961393908488,4,1,0,63,0,0
24710,-125.331889200433,4,1,0,63,0,0
24836,-127.767599961044,4,1,0,63,0,0
24961,-130.230751073304,4,1,0,63,0,0
25027,-111.273963498876,4,1,0,65,0,0
25171,-113.448737504964,4,1,0,65,0,0
25254,-115.69388193612,4,1,0,65,0,0
25338,-118.070473330788,4,1,0,65,0,0
25422,-120.559806144313,4,1,0,65,0,0
25505,-123.138597176742,4,1,0,65,0,0
25589,-125.87833483932,4,1,0,65,0,0
25715,-122.606639490454,4,1,0,65,0,0
25840,-119.544062473755,4,1,0,65,0,0
25966,-116.62587042283,4,1,0,65,0,0
26091,-113.884562941468,4,1,0,65,0,0
26177,-115.354862579546,4,1,0,65,0,0
26260,-116.826302288385,4,1,0,65,0,0
26342,-118.33458107118,4,1,0,65,0,0
26428,-119.862332394337,4,1,0,65,0,0
26512,-121.40980765689,4,1,0,65,0,0
26593,-122.958482832205,4,1,0,65,0,0
26719,-125.347323751051,4,1,0,65,0,0
26844,-127.763062695117,4,1,0,65,0,0
26970,-130.245247128865,4,1,0,65,0,0
27036,-108.794262484553,4,1,0,68,0,0
27179,-111.284097624266,4,1,0,68,0,0
27263,-113.905919133424,4,1,0,68,0,0
27346,-116.637134405685,4,1,0,68,0,0
27430,-119.555970587217,4,1,0,68,0,0
27514,-122.644464993531,4,1,0,68,0,0
27597,-125.87833483932,4,1,0,68,0,0
27723,-122.606639490454,4,1,0,68,0,0
27848,-119.544062473755,4,1,0,68,0,0
27974,-116.62587042283,4,1,0,68,0,0
28099,-113.884562941468,4,1,0,68,0,0
28185,-115.372693569757,4,1,0,68,0,0
28269,-116.880269614612,4,1,0,68,0,0
28351,-118.407545169469,4,1,0,68,0,0
28436,-119.936239823625,4,1,0,68,0,0
28520,-121.503447769228,4,1,0,68,0,0
28602,-123.091134435427,4,1,0,68,0,0
28853,-127.9599822369,4,1,0,68,0,0
29044,-133.02141644212,4,1,0,70,0,0
29232,-150.480075241239,4,1,0,30,0,0
29985,-150.480075241239,4,1,0,70,0,0
30208,-147.602546298117,4,1,0,70,0,0
30309,-144.752091659742,4,1,0,70,0,0
30409,-141.984095081718,4,1,0,70,0,0
30510,-139.242142232315,4,1,0,70,0,0
30610,-136.579508699381,4,1,0,70,0,0
30710,-133.967790910897,4,1,0,70,0,0
30811,-131.380646443731,4,1,0,70,0,0
30911,-128.868342990255,4,1,0,70,0,0
31012,-126.37967748123,4,1,0,70,0,0
31112,-123.963004182844,4,1,0,70,0,0
31214,-121.592543297303,4,1,0,70,0,0
31241,-133.02141644212,4,1,0,30,0,0
31994,-133.02141644212,4,1,0,70,0,0
32188,-130.880439751023,4,1,0,70,0,0
32260,-128.815467143212,4,1,0,70,0,0
32331,-126.849589761214,4,1,0,70,0,0
32403,-124.923653779855,4,1,0,70,0,0
32475,-123.062285394639,4,1,0,70,0,0
32547,-121.262178924649,4,1,0,70,0,0
32618,-119.544062473755,4,1,0,70,0,0
32690,-117.856696574298,4,1,0,70,0,0
32762,-116.221990503679,4,1,0,70,0,0
32833,-114.659106581982,4,1,0,70,0,0
32905,-113.121693160883,4,1,0,70,0,0
32977,-111.629897978788,4,1,0,70,0,0
33049,-110.181649592446,4,1,0,70,0,0
33120,-108.794262484553,4,1,0,70,0,0
33309,-110.648735184561,4,1,0,70,0,0
33497,-112.565485567472,4,1,0,70,0,0
33685,-114.558598083803,4,1,0,70,0,0
33874,-116.644172132995,4,1,0,70,0,0
33999,-118.071196668305,4,1,0,70,0,0
34125,-119.550013233192,4,1,0,70,0,0
34250,-121.058922741788,4,1,0,70,0,0
34376,-122.623970567202,4,1,0,70,0,0
34470,-123.82156581072,4,1,0,70,0,0
34564,-125.045802811786,4,1,0,70,0,0
34658,-126.297615046478,4,1,0,70,0,0
34752,-127.577980941848,4,1,0,70,0,0
34815,-128.452589113495,4,1,0,70,0,0
34878,-129.3408045881,4,1,0,70,0,0
34940,-130.228529002429,4,1,0,70,0,0
35003,-131.144737304834,4,1,0,70,0,0
35129,-133.02141644212,4,1,0,70,0,0
35380,-119.544062473755,4,1,0,70,0,0
35463,-120.878298743729,4,1,0,70,0,0
35547,-122.263212197618,4,1,0,70,0,0
35631,-123.684345416727,4,1,0,70,0,0
35715,-125.14319364515,4,1,0,70,0,0
35798,-126.623264575064,4,1,0,70,0,0
35882,-128.161876956816,4,1,0,70,0,0
35966,-129.743203927914,4,1,0,70,0,0
36049,-131.349493014437,4,1,0,70,0,0
36133,-133.02141644212,4,1,0,70,0,0
36199,-100,4,1,0,40,0,0
37140,-150.480075241239,4,1,0,40,0,0
38019,-113.884562941468,4,1,0,60,0,0
38267,-111.906231853215,4,1,0,60,0,0
38330,-110.945730894545,4,1,0,60,0,0
38392,-110.018396431331,4,1,0,60,0,0
38518,-108.186469074959,4,1,0,60,0,0
38643,-106.435526745907,4,1,0,60,0,0
38685,-105.861411793164,4,1,0,60,0,0
38894,-103.104924711934,4,1,0,60,0,0
39020,-101.51958071547,4,1,0,60,0,0
39145,-89.421454095671,4,1,0,60,0,0
39522,-113.884562941468,4,1,0,60,0,0
39899,-116.738217398652,4,1,0,60,0,0
40150,-118.729311588373,4,1,0,60,0,0
40526,-121.859563784824,4,1,0,60,0,0
40903,-125.190943651471,4,1,0,60,0,0
41154,-127.525284255733,4,1,0,60,0,0
41530,-131.211865215545,4,1,0,60,0,0
41907,-135.15805481238,4,1,0,60,0,0
42158,-137.937367864548,4,1,0,60,0,0
42535,-142.362983611509,4,1,0,60,0,0
42786,-145.491670752697,4,1,0,60,0,0
42911,-147.108343992023,4,1,0,60,0,0
43162,-119.544062473755,4,1,0,60,0,0
43539,-121.836181245028,4,1,0,60,0,0
43915,-124.223125066104,4,1,0,60,0,0
44044,-139.014292443787,4,1,0,63,0,0
44166,-125.876106702081,4,1,0,63,0,0
44543,-128.454192182213,4,1,0,63,0,0
44920,-131.154205309731,4,1,0,63,0,0
45048,-129.334587645725,4,1,0,65,0,0
45171,-133.023939305041,4,1,0,65,0,0
45547,-135.940036589969,4,1,0,65,0,0
45924,-139.01237704265,4,1,0,65,0,0
46052,-100,4,1,0,68,0,0
46175,-141.146240401615,4,1,0,68,0,0
46551,-134.960601844745,4,1,0,68,0,0
46802,-131.158484602052,4,1,0,68,0,0
46928,-129.339028566039,4,1,0,68,0,0
47056,-108.794262484553,4,1,0,70,0,0
47556,-133.02141644212,4,1,0,70,0,0
47932,-129.961879659833,4,1,0,70,0,0
48058,-128.971646296548,4,1,0,70,0,0
48123,-100,4,1,0,71,0,0
48183,-128.005889536221,4,1,0,71,0,0
48309,-127.048720044932,4,1,0,71,0,0
48371,-126.583614612701,4,1,0,71,0,0
48434,-126.114913547873,4,1,0,71,0,0
48560,-125.18912189403,4,1,0,71,0,0
48811,-123.38966585662,4,1,0,71,0,0
48936,-122.515025009492,4,1,0,71,0,0
49062,-121.647379636108,4,1,0,71,0,0
49128,-100,4,1,0,73,0,0
49187,-120.80016260656,4,1,0,73,0,0
49313,-119.959486836027,4,1,0,73,0,0
49376,-119.544062473755,4,1,0,73,0,0
49438,-119.145042347383,4,1,0,73,0,0
49564,-118.338229474176,4,1,0,73,0,0
49691,-117.543218589044,4,1,0,73,0,0
49815,-116.747252764135,4,1,0,73,0,0
49940,-115.962930257628,4,1,0,73,0,0
50066,-115.19701757394,4,1,0,73,0,0
50132,-100,4,1,0,74,0,0
50192,-114.441202918353,4,1,0,74,0,0
50317,-113.702322928291,4,1,0,74,0,0
50443,-112.968307108716,4,1,0,74,0,0
50505,-112.611022015239,4,1,0,74,0,0
50568,-112.250568161825,4,1,0,74,0,0
50694,-111.537388617112,4,1,0,74,0,0
50819,-110.839864501334,4,1,0,74,0,0
50945,-110.146615457297,4,1,0,74,0,0
51007,-109.809059569332,4,1,0,74,0,0
51070,-109.468434182206,4,1,0,74,0,0
51136,-100,4,1,0,75,0,0
51196,-108.794262484553,4,1,0,75,0,0
51321,-109.313035000414,4,1,0,75,0,0
51384,-109.576612619321,4,1,0,75,0,0
51447,-109.841624533751,4,1,0,75,0,0
51572,-110.371735989411,4,1,0,75,0,0
51823,-111.453790268481,4,1,0,75,0,0
51949,-112.006030528616,4,1,0,75,0,0
52074,-112.560009105897,4,1,0,75,0,0
52140,-100,4,1,0,76,0,0
52200,-113.124697711151,4,1,0,76,0,0
52325,-113.691242498327,4,1,0,76,0,0
52388,-113.979208824239,4,1,0,76,0,0
52451,-114.268821477492,4,1,0,76,0,0
52576,-114.848381535904,4,1,0,76,0,0
52702,-115.439314492962,4,1,0,76,0,0
52828,-116.037132968101,4,1,0,76,0,0
52953,-116.637134405685,4,1,0,76,0,0
53079,-117.249046711392,4,1,0,76,0,0
53141,-117.552807160184,4,1,0,76,0,0
53176,-100,4,1,0,78,0,0
53204,-117.863286683913,4,1,0,78,0,0
53330,-118.489816537018,4,1,0,78,0,0
53392,-118.80086949487,4,1,0,78,0,0
53455,-119.118827672495,4,1,0,78,0,0
53581,-119.760525556115,4,1,0,78,0,0
53832,-121.06231280364,4,1,0,78,0,0
53957,-121.722575578815,4,1,0,78,0,0
54083,-122.396376935973,4,1,0,78,0,0
54148,-100,4,1,0,79,0,0
54208,-123.073180562727,4,1,0,79,0,0
54334,-123.763980228079,4,1,0,79,0,0
54459,-124.457978389599,4,1,0,79,0,0
54522,-124.811084589914,4,1,0,79,0,0
54585,-125.166452899043,4,1,0,79,0,0
54651,-100,4,1,0,85,0,0
54710,-108.794262484553,4,1,0,85,0,0
54775,-107.649499088184,4,1,0,85,0,0
54838,-106.516781209691,4,1,0,85,0,0
54899,-105.395982102796,4,1,0,85,0,0
54961,-104.304488151063,4,1,0,85,0,0
55026,-103.206967405157,4,1,0,85,0,0
55089,-102.12099507686,4,1,0,85,0,0
55150,-101.046449650519,4,1,0,85,0,0
55212,-100,4,1,0,85,0,0
55338,-101.528849068904,4,1,0,85,0,0
55401,-102.313198302247,4,1,0,85,0,0
55463,-103.098536171222,4,1,0,85,0,0
55589,-104.737138752532,4,1,0,85,0,0
55715,-106.435526745907,4,1,0,85,0,0
55777,-105.590464297782,4,1,0,85,0,0
55840,-104.747081212784,4,1,0,85,0,0
55903,-103.918705123187,4,1,0,85,0,0
55966,-103.104924711934,4,1,0,85,0,0
56028,-102.317926658258,4,1,0,85,0,0
56091,-101.531947139384,4,1,0,85,0,0
56154,-100.759423237724,4,1,0,85,0,0
56217,-100,4,1,0,85,0,0
56342,-101.51958071547,4,1,0,85,0,0
56405,-102.305343813464,4,1,0,85,0,0
56468,-103.104924711934,4,1,0,85,0,0
56593,-104.733816281664,4,1,0,85,0,0
56719,-106.435526745907,4,1,0,85,0,0
56844,-104.747081212784,4,1,0,85,0,0
56970,-103.104924711934,4,1,0,85,0,0
57033,-102.305343813464,4,1,0,85,0,0
57095,-101.531947139384,4,1,0,85,0,0
57158,-100.759423237724,4,1,0,85,0,0
57221,-100,4,1,0,85,0,0
57346,-101.51958071547,4,1,0,85,0,0
57409,-102.305343813464,4,1,0,85,0,0
57472,-103.104924711934,4,1,0,85,0,0
57597,-104.733816281664,4,1,0,85,0,0
57723,-100,4,1,0,85,0,0
57786,-100.759423237724,4,1,0,85,0,0
57848,-101.51958071547,4,1,0,85,0,0
57911,-102.305343813464,4,1,0,85,0,0
57974,-103.104924711934,4,1,0,85,0,0
58037,-103.918705123187,4,1,0,85,0,0
58099,-104.733816281664,4,1,0,85,0,0
58162,-105.576957866697,4,1,0,85,0,0
58225,-106.435526745907,4,1,0,85,0,0
58351,-108.200738323432,4,1,0,85,0,0
58476,-110.018396431331,4,1,0,85,0,0
58539,-110.960832143638,4,1,0,85,0,0
58602,-111.921628879964,4,1,0,85,0,0
58727,-108.794262484553,4,1,0,85,0,0
58790,-107.595656630705,4,1,0,85,0,0
58853,-106.426359073836,4,1,0,85,0,0
58915,-105.303167636642,4,1,0,85,0,0
58978,-104.188819124946,4,1,0,85,0,0
59041,-103.10065710191,4,1,0,85,0,0
59104,-102.037736664782,4,1,0,85,0,0
59166,-101.015458311625,4,1,0,85,0,0
59229,-100,4,1,0,85,0,0
59313,-101.359125029353,4,1,0,85,0,0
59397,-102.280463133895,4,1,0,85,0,0
59480,-103.426240611791,4,1,0,85,0,0
59564,-104.598891474505,4,1,0,85,0,0
59648,-105.784837899716,4,1,0,85,0,0
59731,-106.969872470881,4,1,0,85,0,0
59817,-108.182701173688,4,1,0,85,0,0
59857,-106.426359073836,4,1,0,85,0,0
59920,-105.28526996849,4,1,0,85,0,0
59982,-104.188819124946,4,1,0,85,0,0
60045,-103.10065710191,4,1,0,85,0,0
60108,-102.037736664782,4,1,0,85,0,0
60171,-100.999158594659,4,1,0,85,0,0
60233,-100,4,1,0,85,0,0
60317,-101.420396834621,4,1,0,85,0,0
60401,-102.860968940919,4,1,0,85,0,0
60484,-104.304488151063,4,1,0,85,0,0
60568,-106.534667433147,4,1,0,85,0,0
60652,-107.2213292803,4,1,0,85,0,0
60735,-108.794262484553,4,1,0,85,0,0
60801,-107.600354336077,4,1,0,85,0,0
60861,-106.430951800769,4,1,0,85,0,0
60924,-105.291994134479,4,1,0,85,0,0
60987,-104.180098479686,4,1,0,85,0,0
61049,-103.111314143418,4,1,0,85,0,0
61112,-102.050237278203,4,1,0,85,0,0
61175,-101.013416472153,4,1,0,85,0,0
61238,-100,4,1,0,85,0,0
61321,-101.342700289107,4,1,0,85,0,0
61405,-102.743590987408,4,1,0,85,0,0
61489,-104.188819124946,4,1,0,85,0,0
61572,-105.66256430912,4,1,0,85,0,0
61656,-107.202689791492,4,1,0,85,0,0
61740,-108.794262484553,4,1,0,85,0,0
61865,-106.444696195021,4,1,0,85,0,0
61991,-104.188819124946,4,1,0,85,0,0
62074,-102.760531049009,4,1,0,85,0,0
62158,-101.359125029353,4,1,0,85,0,0
62242,-100,4,1,0,85,0,0
62306,-101.046449650519,4,1,0,85,0,0
62369,-102.12099507686,4,1,0,85,0,0
62495,-104.304488151063,4,1,0,85,0,0
62558,-105.41368012245,4,1,0,85,0,0
62618,-106.516781209691,4,1,0,85,0,0
62681,-107.595656630705,4,1,0,85,0,0
62744,-108.794262484553,4,1,0,85,0,0
62869,-106.444696195021,4,1,0,85,0,0
62995,-104.188819124946,4,1,0,85,0,0
63079,-102.743590987408,4,1,0,85,0,0
63162,-101.359125029353,4,1,0,85,0,0
63246,-100,4,1,0,85,0,0
63309,-101.016824115125,4,1,0,85,0,0
63371,-102.040508730698,4,1,0,85,0,0
63434,-103.104924711934,4,1,0,85,0,0
63497,-104.194653132919,4,1,0,85,0,0
63622,-100,4,1,0,85,0,0
63685,-101.014096172329,4,1,0,85,0,0
63748,-102.051628285498,4,1,0,85,0,0
63811,-103.113449801917,4,1,0,85,0,0
63874,-104.200456920474,4,1,0,85,0,0
63999,-106.435526745907,4,1,0,85,0,0
64062,-104.733816281664,4,1,0,85,0,0
64125,-103.092123074066,4,1,0,85,0,0
64187,-101.531947139384,4,1,0,85,0,0
64250,-100,4,1,0,85,0,0
64313,-101.014096172329,4,1,0,85,0,0
64376,-102.051628285498,4,1,0,85,0,0
64438,-103.096401207648,4,1,0,85,0,0
64501,-104.183001323795,4,1,0,85,0,0
64627,-100,4,1,0,85,0,0
64689,-101.000502230465,4,1,0,85,0,0
64752,-102.040508730698,4,1,0,85,0,0
64815,-103.104924711934,4,1,0,85,0,0
64878,-104.194653132919,4,1,0,85,0,0
65003,-106.435526745907,4,1,0,85,0,0
65066,-105.576957866697,4,1,0,85,0,0
65129,-104.733816281664,4,1,0,85,0,0
65192,-103.905675041085,4,1,0,85,0,0
65254,-103.104924711934,4,1,0,85,0,0
65380,-108.794262484553,4,1,0,85,0,0
65505,-107.605052502962,4,1,0,85,0,0
65568,-107.01669507463,4,1,0,85,0,0
65631,-106.435526745907,4,1,0,85,0,0
65694,-105.861411793164,4,1,0,85,0,0
65756,-105.303167636642,4,1,0,85,0,0
65819,-104.742659149081,4,1,0,85,0,0
65882,-104.188819124946,4,1,0,85,0,0
65945,-103.6415249632,4,1,0,85,0,0
66007,-103.109192719435,4,1,0,85,0,0
66070,-102.574535283521,4,1,0,85,0,0
66133,-102.046075550824,4,1,0,85,0,0
66196,-101.523702480208,4,1,0,85,0,0
66258,-101.015458311625,4,1,0,85,0,0
66384,-108.794262484553,4,1,0,85,0,0
66510,-107.427612854878,4,1,0,85,0,0
66572,-106.769198090064,4,1,0,85,0,0
66635,-106.109392402443,4,1,0,85,0,0
66698,-105.458690608573,4,1,0,85,0,0
66761,-104.816898795031,4,1,0,85,0,0
66823,-104.193810176216,4,1,0,85,0,0
66886,-103.569144503944,4,1,0,85,0,0
66949,-102.952842442115,4,1,0,85,0,0
67012,-102.344731085784,4,1,0,85,0,0
67074,-101.754105753086,4,1,0,85,0,0
67137,-101.161752691598,4,1,0,85,0,0
67200,-100.577102337674,4,1,0,85,0,0
67263,-100,4,1,0,85,0,0
67388,-101.51958071547,4,1,0,85,0,0
67451,-102.305343813464,4,1,0,85,0,0
67514,-103.104924711934,4,1,0,85,0,0
67597,-104.180081109522,4,1,0,85,0,0
67681,-105.294217946946,4,1,0,85,0,0
67765,-106.435526745907,4,1,0,85,0,0
67828,-105.576957866697,4,1,0,85,0,0
67953,-103.918705123187,4,1,0,85,0,0
68016,-103.104924711934,4,1,0,85,0,0
68099,-102.05441597036,4,1,0,85,0,0
68183,-101.015458311625,4,1,0,85,0,0
68267,-100,4,1,0,85,0,0
68392,-101.51958071547,4,1,0,85,0,0
68455,-102.305343813464,4,1,0,85,0,0
68518,-103.104924711934,4,1,0,85,0,0
68581,-103.918705123187,4,1,0,85,0,0
68643,-104.733816281664,4,1,0,85,0,0
68706,-105.576957866697,4,1,0,85,0,0
68769,-106.435526745907,4,1,0,85,0,0
68853,-105.294217946946,4,1,0,85,0,0
68936,-104.193188751072,4,1,0,85,0,0
69020,-103.104924711934,4,1,0,85,0,0
69083,-102.305343813464,4,1,0,85,0,0
69145,-101.531947139384,4,1,0,85,0,0
69208,-100.759423237724,4,1,0,85,0,0
69271,-100,4,1,0,85,0,0
69397,-101.531947139384,4,1,0,85,0,0
69459,-102.305343813464,4,1,0,85,0,0
69522,-103.104924711934,4,1,0,85,0,0
69606,-104.193188751072,4,1,0,85,0,0
69689,-105.294217946946,4,1,0,85,0,0
69773,-106.435526745907,4,1,0,85,0,0
69899,-104.733816281664,4,1,0,85,0,0
70024,-103.104924711934,4,1,0,85,0,0
70087,-102.305343813464,4,1,0,85,0,0
70150,-101.51958071547,4,1,0,85,0,0
70212,-100.759423237724,4,1,0,85,0,0
70275,-100,4,1,0,85,0,0
70401,-101.529902323435,4,1,0,85,0,0
70463,-102.305343813464,4,1,0,85,0,0
70526,-103.135144867123,4,1,0,85,0,0
70591,-103.953781240777,4,1,0,85,0,0
70652,-104.778915549866,4,1,0,85,0,0
70777,-106.435526745907,4,1,0,85,0,0
70905,-104.75035590976,4,1,0,85,0,0
71028,-103.104924711934,4,1,0,85,0,0
71091,-102.305343813464,4,1,0,85,0,0
71154,-101.51958071547,4,1,0,85,0,0
71217,-100.747267499177,4,1,0,85,0,0
71279,-89.421454095671,4,1,0,85,0,0
71345,-72.298118079847,4,1,0,60,0,0
72287,-106.435526745907,4,1,0,60,0,0
73291,-113.884562941468,4,1,0,60,0,0
74295,-122.619245074708,4,1,0,60,0,0
75236,-100,4,1,0,85,0,0
75422,-100.50484368957,4,1,0,85,0,0
75484,-100.755370958224,4,1,0,85,0,0
75547,-101.011382827526,4,1,0,85,0,0
75673,-101.527824621495,4,1,0,85,0,0
75798,-102.046075550824,4,1,0,85,0,0
75861,-102.309537708194,4,1,0,85,0,0
75924,-102.574535283521,4,1,0,85,0,0
76049,-103.104924711934,4,1,0,85,0,0
76175,-103.64584311268,4,1,0,85,0,0
76300,-104.188819124946,4,1,0,85,0,0
76426,-104.744887816684,4,1,0,85,0,0
76489,-105.026275274208,4,1,0,85,0,0
76551,-105.30393427216,4,1,0,85,0,0
76614,-105.586823556302,4,1,0,85,0,0
76679,-105.870472796354,4,1,0,85,0,0
76802,-106.435526745907,4,1,0,85,0,0
76928,-107.01669507463,4,1,0,85,0,0
76991,-107.309966530584,4,1,0,85,0,0
77053,-107.600354336077,4,1,0,85,0,0
77179,-108.195981436783,4,1,0,85,0,0
77304,-108.794262484553,4,1,0,85,0,0
77430,-108.191523318635,4,1,0,85,0,0
77493,-107.892960884712,4,1,0,85,0,0
77556,-107.596245864603,4,1,0,85,0,0
77681,-107.012925301293,4,1,0,85,0,0
77807,-106.432090371941,4,1,0,85,0,0
77869,-106.148877384841,4,1,0,85,0,0
77932,-105.862827496654,4,1,0,85,0,0
78058,-105.295897275442,4,1,0,85,0,0
78183,-104.740172060385,4,1,0,85,0,0
78309,-104.186635553908,4,1,0,85,0,0
78434,-103.643953738135,4,1,0,85,0,0
78560,-103.1033251082,4,1,0,85,0,0
78622,-102.839622780764,4,1,0,85,0,0
78685,-102.573216605675,4,1,0,85,0,0
78811,-102.045033625096,4,1,0,85,0,0
78936,-101.527051050101,4,1,0,85,0,0
79062,-101.010873671588,4,1,0,85,0,0
79125,-100.754991769149,4,1,0,85,0,0
79187,-100.504590971445,4,1,0,85,0,0
79313,-100,4,1,0,85,0,0
79438,-100.534260095851,4,1,0,85,0,0
79501,-100.805970034095,4,1,0,85,0,0
79564,-101.079337837613,4,1,0,85,0,0
79689,-101.626704563334,4,1,0,85,0,0
79815,-102.185246066056,4,1,0,85,0,0
79878,-102.467116443977,4,1,0,85,0,0
79940,-102.746226494985,4,1,0,85,0,0
80066,-103.318756272479,4,1,0,85,0,0
80192,-103.898514559281,4,1,0,85,0,0
80317,-104.480955163493,4,1,0,85,0,0
80443,-105.074593157888,4,1,0,85,0,0
80505,-105.374824849077,4,1,0,85,0,0
80568,-105.680777724484,4,1,0,85,0,0
80631,-105.987618925563,4,1,0,85,0,0
80696,-106.29535103154,4,1,0,85,0,0
80819,-106.908578257644,4,1,0,85,0,0
80884,-107.218984343448,4,1,0,85,0,0
80945,-107.530291684695,4,1,0,85,0,0
81007,-107.837540091339,4,1,0,85,0,0
81070,-108.150643392009,4,1,0,85,0,0
81196,-108.794262484553,4,1,0,85,0,0
81321,-100,4,1,0,85,0,0
81447,-100.504590971445,4,1,0,85,0,0
81510,-100.759041997197,4,1,0,85,0,0
81572,-101.010873671588,4,1,0,85,0,0
81698,-101.527051050101,4,1,0,85,0,0
81823,-102.045033625096,4,1,0,85,0,0
81886,-102.308358201441,4,1,0,85,0,0
81949,-102.573216605675,4,1,0,85,0,0
82074,-103.1033251082,4,1,0,85,0,0
82200,-103.643953738135,4,1,0,85,0,0
82325,-104.188819124946,4,1,0,85,0,0
82390,-104.467597133569,4,1,0,85,0,0
82516,-105.027392925524,4,1,0,85,0,0
82578,-105.303948175107,4,1,0,85,0,0
82641,-105.585709934371,4,1,0,85,0,0
82702,-105.868225603536,4,1,0,85,0,0
82828,-106.435526745907,4,1,0,85,0,0
82953,-107.012925301293,4,1,0,85,0,0
83079,-107.600941289389,4,1,0,85,0,0
83141,-107.892960884712,4,1,0,85,0,0
83204,-108.191523318635,4,1,0,85,0,0
83267,-108.491951121117,4,1,0,85,0,0
83301,-100,4,1,0,90,0,0
83330,-108.794262484553,4,1,0,90,0,0
83455,-107.899606765028,4,1,0,90,0,0
83581,-107.014374734546,4,1,0,90,0,0
83706,-106.152152588211,4,1,0,90,0,0
83832,-105.298692577857,4,1,0,90,0,0
83957,-104.467111123634,4,1,0,90,0,0
84083,-103.643683987341,4,1,0,90,0,0
84145,-103.243838744422,4,1,0,90,0,0
84208,-102.84108224142,4,1,0,90,0,0
84271,-102.441843699846,4,1,0,90,0,0
84334,-102.046075550824,4,1,0,90,0,0
84417,-101.529885833361,4,1,0,90,0,0
84501,-101.013420523329,4,1,0,90,0,0
84585,-100.498783790538,4,1,0,90,0,0
84712,-99.75514226735,4,1,0,90,0,0
84836,-99.011120290114,4,1,0,90,0,0
84920,-98.52295079989,4,1,0,90,0,0
85003,-98.045879826214,4,1,0,90,0,0
85087,-97.568320828391,4,1,0,90,0,0
85171,-97.095963842336,4,1,0,90,0,0
85254,-96.634253919538,4,1,0,90,0,0
85338,-96.171980730808,4,1,0,90,0,0
85463,-97.09409965501,4,1,0,90,0,0
85526,-97.566436174027,4,1,0,90,0,0
85589,-98.043974353121,4,1,0,90,0,0
85715,-99.015016429151,4,1,0,90,0,0
85840,-100,4,1,0,90,0,0
85903,-100.516304784542,4,1,0,90,0,0
85966,-101.03527527539,4,1,0,90,0,0
86028,-101.548624078161,4,1,0,90,0,0
86091,-102.072924482913,4,1,0,90,0,0
86156,-102.599931875741,4,1,0,90,0,0
86217,-103.129660232953,4,1,0,90,0,0
86281,-103.653650368739,4,1,0,90,0,0
86342,-104.188819124946,4,1,0,90,0,0
86468,-105.303167636642,4,1,0,90,0,0
86530,-105.861411793164,4,1,0,90,0,0
86593,-106.435526745907,4,1,0,90,0,0
86656,-107.01669507463,4,1,0,90,0,0
86719,-107.605052502962,4,1,0,90,0,0
86844,-108.794262484553,4,1,0,90,0,0
86970,-110.023335501098,4,1,0,90,0,0
87033,-110.649676471038,4,1,0,90,0,0
87095,-111.273963498876,4,1,0,90,0,0
87158,-111.916496008123,4,1,0,90,0,0
87221,-112.567437154706,4,1,0,90,0,0
87284,-113.226959367932,4,1,0,90,0,0
87346,-113.884562941468,4,1,0,90,0,0
87472,-112.886139586832,4,1,0,90,0,0
87597,-111.914891615279,4,1,0,90,0,0
87723,-110.954697877976,4,1,0,90,0,0
87848,-110.020247602115,4,1,0,90,0,0
87974,-109.09605391487,4,1,0,90,0,0
88037,-108.640470980469,4,1,0,90,0,0
88099,-108.19627739659,4,1,0,90,0,0
88162,-107.749083543051,4,1,0,90,0,0
88225,-107.30602705656,4,1,0,90,0,0
88288,-106.867048697602,4,1,0,90,0,0
88351,-106.432090371941,4,1,0,90,0,0
88476,-105.58075594745,4,1,0,90,0,0
88539,-105.157459470854,4,1,0,90,0,0
88602,-104.737962404559,4,1,0,90,0,0
88727,-103.916668322404,4,1,0,90,0,0
88853,-103.104924711934,4,1,0,90,0,0
88980,-102.322886647464,4,1,0,90,0,0
89104,-101.540595188296,4,1,0,90,0,0
89187,-101.028546576041,4,1,0,90,0,0
89271,-100.512957660215,4,1,0,90,0,0
89355,-100,4,1,0,90,0,0
89480,-101.007307713366,4,1,0,90,0,0
89543,-101.523702480208,4,1,0,90,0,0
89606,-102.046075550824,4,1,0,90,0,0
89669,-102.574535283521,4,1,0,90,0,0
89731,-103.10065710191,4,1,0,90,0,0
89857,-104.188819124946,4,1,0,90,0,0
89920,-104.742659149081,4,1,0,90,0,0
89982,-105.294217946946,4,1,0,90,0,0
90108,-106.435526745907,4,1,0,90,0,0
90171,-107.01669507463,4,1,0,90,0,0
90233,-107.595656630705,4,1,0,90,0,0
90296,-108.191225020649,4,1,0,90,0,0
90359,-108.794262484553,4,1,0,90,0,0
90484,-110.013457860407,4,1,0,90,0,0
90547,-110.639671866419,4,1,0,90,0,0
90610,-111.273963498876,4,1,0,90,0,0
90735,-112.557038195161,4,1,0,90,0,0
90861,-104.188819124946,4,1,0,90,0,0
90924,-103.10065710191,4,1,0,90,0,0
90987,-102.037736664782,4,1,0,90,0,0
91049,-101.015458311625,4,1,0,90,0,0
91112,-100,4,1,0,90,0,0
91175,-99.007224496005,4,1,0,90,0,0
91238,-98.036353293889,4,1,0,90,0,0
91300,-97.101556887539,4,1,0,90,0,0
91366,-96.171980730808,4,1,0,90,0,1
91489,-98.051596745469,4,1,0,90,0,1
91614,-100,4,1,0,90,0,1
91740,-102.05441597036,4,1,0,90,0,1
91865,-104.188819124946,4,1,0,90,0,1
91928,-103.10065710191,4,1,0,90,0,1
91991,-102.037736664782,4,1,0,90,0,1
92116,-100,4,1,0,90,0,1
92179,-99.007224496005,4,1,0,90,0,1
92242,-98.036353293889,4,1,0,90,0,1
92304,-97.101556887539,4,1,0,90,0,1
92367,-96.171980730808,4,1,0,90,0,1
92493,-98.051596745469,4,1,0,90,0,1
92618,-100,4,1,0,90,0,1
92681,-101.015458311625,4,1,0,90,0,1
92744,-102.05441597036,4,1,0,90,0,1
92869,-104.188819124946,4,1,0,90,0,1
92932,-103.10065710191,4,1,0,90,0,1
92995,-102.037736664782,4,1,0,90,0,1
93120,-100,4,1,0,90,0,1
93183,-99.007224496005,4,1,0,90,0,1
93246,-98.036353293889,4,1,0,90,0,1
93309,-97.086643710938,4,1,0,90,0,1
93371,-96.171980730808,4,1,0,90,0,1
93497,-98.047777805703,4,1,0,90,0,1
93622,-99.992048425089,4,1,0,90,0,1
93748,-102.041914205295,4,1,0,90,0,1
93874,-92.658625135587,4,1,0,90,0,1
93936,-93.499407665436,4,1,0,90,0,1
93999,-94.371539376803,4,1,0,90,0,1
94125,-96.171980730808,4,1,0,90,0,1
94187,-97.086643710938,4,1,0,90,0,1
94250,-98.036353293889,4,1,0,90,0,1
94313,-99.007224496005,4,1,0,90,0,1
94376,-100,4,1,0,90,0,1
94501,-102.037736664782,4,1,0,90,0,1
94627,-104.188819124946,4,1,0,90,0,1
94689,-105.28526996849,4,1,0,90,0,1
94752,-106.426359073836,4,1,0,90,0,1
94878,-108.794262484553,4,1,0,90,0,1
95003,-105.312119038087,4,1,0,90,0,1
95066,-103.650161666984,4,1,0,90,0,1
95129,-102.046075550824,4,1,0,90,0,1
95192,-100.496785493459,4,1,0,90,0,1
95254,-99.022809742201,4,1,0,90,0,1
95380,-96.171980730808,4,1,0,90,0,1
95505,-97.562667111018,4,1,0,90,0,1
95631,-99.011120290114,4,1,0,90,0,1
95694,-99.753672493147,4,1,0,90,0,1
95756,-100.496785493459,4,1,0,90,0,1
95882,-102.046075550824,4,1,0,90,0,1
96007,-100.508873332831,4,1,0,90,0,1
96070,-99.753672493147,4,1,0,90,0,1
96133,-99.011120290114,4,1,0,90,0,1
96196,-98.280890219543,4,1,0,90,0,1
96258,-97.573975282986,4,1,0,90,0,1
96321,-96.867271374117,4,1,0,90,0,1
96384,-96.171980730808,4,1,0,90,0,1
96510,-97.573975282986,4,1,0,90,0,1
96635,-99.011120290114,4,1,0,90,0,1
96698,-99.753672493147,4,1,0,90,0,1
96761,-100.508873332831,4,1,0,90,0,1
96886,-102.046075550824,4,1,0,90,0,1
96949,-101.264764478657,4,1,0,90,0,1
97012,-100.496785493459,4,1,0,90,0,1
97074,-99.753672493147,4,1,0,90,0,1
97137,-99.011120290114,4,1,0,90,0,1
97263,-97.562667111018,4,1,0,90,0,1
97388,-96.171980730808,4,1,0,90,0,1
97514,-97.573975282986,4,1,0,90,0,1
97576,-98.280890219543,4,1,0,90,0,1
97639,-99.011120290114,4,1,0,90,0,1
97765,-100.506874584337,4,1,0,90,0,1
97890,-102.10708095092,4,1,0,90,0,1
98016,-103.745874069074,4,1,0,90,0,1
98081,-104.575107734098,4,1,0,90,0,1
98141,-105.397649720029,4,1,0,90,0,1
98204,-106.240085914687,4,1,0,90,0,1
98267,-107.089255644145,4,1,0,90,0,1
98330,-107.945212729083,4,1,0,90,0,1
98392,-108.794262484553,4,1,0,90,0,1
98518,-105.28526996849,4,1,0,90,0,1
98643,-102.046075550824,4,1,0,90,0,1
98706,-100.496785493459,4,1,0,90,0,1
98769,-98.999433942383,4,1,0,90,0,1
98894,-96.171980730808,4,1,0,90,0,1
99020,-97.571142342796,4,1,0,90,0,1
99083,-98.288066514885,4,1,0,90,0,1
99145,-99.005288344934,4,1,0,90,0,1
99208,-99.746253194272,4,1,0,90,0,1
99271,-100.499813154108,4,1,0,90,0,1
99397,-96.171980730808,4,1,0,90,0,1
99522,-98.038886742804,4,1,0,90,0,1
99585,-99.011120290114,4,1,0,90,0,1
99648,-100.005319467256,4,1,0,90,0,1
99773,-96.171980730808,4,1,0,90,0,1
99836,-97.100310629027,4,1,0,90,0,1
99899,-98.049049060162,4,1,0,90,0,1
99961,-99.003339379078,4,1,0,90,0,1
100024,-99.994695276806,4,1,0,90,0,1
100150,-102.046075550824,4,1,0,90,0,1
100275,-99.022809742201,4,1,0,90,0,1
100401,-96.171980730808,4,1,0,90,0,1
100463,-97.087873059826,4,1,0,90,0,1
100526,-98.038886742804,4,1,0,90,0,1
100589,-99.011120290114,4,1,0,90,0,1
100652,-100.005319467256,4,1,0,90,0,1
100777,-96.171980730808,4,1,0,90,0,1
100903,-98.049049060162,4,1,0,90,0,1
100966,-99.018902577206,4,1,0,90,0,1
101028,-99.994695276806,4,1,0,90,0,1
101154,-102.046075550824,4,1,0,90,0,1
101279,-99.022809742201,4,1,0,90,0,1
101405,-96.171980730808,4,1,0,90,0,1
101530,-98.038886742804,4,1,0,90,0,1
101593,-99.011120290114,4,1,0,90,0,1
101656,-100.005319467256,4,1,0,90,0,1
101781,-96.171980730808,4,1,0,90,0,1
101907,-98.049049060162,4,1,0,90,0,1
101970,-99.018902577206,4,1,0,90,0,1
102033,-100.010611346187,4,1,0,90,0,1
102158,-102.046075550824,4,1,0,90,0,1
102284,-98.999433942383,4,1,0,90,0,1
102346,-97.573975282986,4,1,0,90,0,1
102409,-96.171980730808,4,1,0,90,0,1
102535,-97.573975282986,4,1,0,90,0,1
102597,-98.280890219543,4,1,0,90,0,1
102660,-99.011120290114,4,1,0,90,0,1
102723,-99.753672493147,4,1,0,90,0,1
102786,-100.508873332831,4,1,0,90,0,1
102911,-102.046075550824,4,1,0,90,0,1
103037,-103.650161666984,4,1,0,90,0,1
103099,-104.46051800686,4,1,0,90,0,1
103162,-105.298692577857,4,1,0,90,0,1
103225,-106.152152588211,4,1,0,90,0,1
103288,-107.021336094415,4,1,0,90,0,1
103413,-108.794262484553,4,1,0,90,0,1
103539,-107.203382456197,4,1,0,90,0,1
103602,-106.427381221826,4,1,0,90,0,1
103664,-105.675927730152,4,1,0,90,0,1
103790,-104.18493707737,4,1,0,90,0,1
103915,-102.751745418518,4,1,0,90,0,1
103978,-102.046075550824,4,1,0,90,0,1
104041,-101.351217150176,4,1,0,90,0,1
104166,-100.003539963981,4,1,0,90,0,1
104229,-99.339457211394,4,1,0,90,0,1
104292,-98.685215067234,4,1,0,90,0,1
104355,-98.040588549872,4,1,0,90,0,1
104417,-97.415370301556,4,1,0,90,0,1
104543,-96.171980730808,4,1,0,90,0,1
104669,-102.339937112818,4,1,0,90,0,1
104794,-100.577102337674,4,1,0,90,0,1
104857,-99.714232144786,4,1,0,90,0,1
104920,-98.867841396616,4,1,0,90,0,1
104982,-98.050504033984,4,1,0,90,0,1
105045,-97.235395010154,4,1,0,90,0,1
105108,-96.435375498352,4,1,0,90,0,1
105171,-95.650015390859,4,1,0,90,0,1
105233,-94.891031769306,4,1,0,90,0,1
105296,-94.133548464133,4,1,0,90,0,1
105359,-93.389535919951,4,1,0,90,0,1
105422,-92.658625135587,4,1,0,90,0,1
105547,-98.530657237437,4,1,0,90,0,1
105673,-97.097828110196,4,1,0,90,0,1
105798,-95.721874562209,4,1,0,90,0,1
105861,-95.044864842394,4,1,0,90,0,1
105924,-94.378534330201,4,1,0,90,0,1
106049,-93.087052106292,4,1,0,90,0,1
106112,-92.451078603881,4,1,0,90,0,1
106175,-91.824798557819,4,1,0,90,0,1
106238,-91.207984069155,4,1,0,90,0,1
106300,-90.609987317988,4,1,0,90,0,1
106363,-90.011307089757,4,1,0,90,0,1
106426,-89.421454095671,4,1,0,90,0,1
106551,-94.825116069329,4,1,0,90,0,1
106614,-94.162231783431,4,1,0,90,0,1
106677,-93.509683596001,4,1,0,90,0,1
106802,-92.244575142066,4,1,0,90,0,1
106928,-91.007667159076,4,1,0,90,0,1
106993,-90.044032301136,4,1,0,90,0,1
107055,-89.105655589854,4,1,0,90,0,1
107118,-88.162160185055,4,1,0,90,0,1
107181,-87.228654983157,4,1,0,90,0,1
107244,-86.305034202876,4,1,0,90,0,1
107306,-85.40562274725,4,1,0,90,0,1
107367,-84.501305147289,4,1,0,90,0,1
107433,-78.65620435518,4,1,0,90,0,0
107496,-57.434917749852,4,1,0,70,0,0
108437,-92.658625135587,4,1,0,70,0,0
109441,-100,4,1,0,70,0,0
109567,-108.794262484553,4,1,0,50,0,0
111324,-100,4,1,0,85,0,0
111450,-83.651164207302,4,1,0,85,0,1
112454,-92.658625135587,4,1,0,85,0,0
112576,-93.506258003482,4,1,0,85,0,0
112639,-93.940118249309,4,1,0,85,0,0
112702,-94.378534330201,4,1,0,85,0,0
112828,-95.269335090658,4,1,0,85,0,0
112890,-95.714653607776,4,1,0,85,0,0
112953,-96.171980730808,4,1,0,85,0,0
113079,-97.101556887539,4,1,0,85,0,0
113141,-97.566436174027,4,1,0,85,0,0
113204,-98.043974353121,4,1,0,85,0,0
113330,-99.015016429151,4,1,0,85,0,0
113392,-99.500826418387,4,1,0,85,0,0
113455,-100,4,1,0,85,0,0
113581,-101.015458311625,4,1,0,85,0,0
113643,-101.523702480208,4,1,0,85,0,0
113706,-102.046075550824,4,1,0,85,0,0
113832,-103.109192719435,4,1,0,85,0,0
113957,-104.188819124946,4,1,0,85,0,0
114083,-105.303167636642,4,1,0,85,0,0
114208,-106.435526745907,4,1,0,85,0,0
114334,-107.605052502962,4,1,0,85,0,0
114459,-108.794262484553,4,1,0,85,0,0
114587,-107.059663078907,4,1,0,85,0,0
114712,-105.366159315953,4,1,0,85,0,0
114838,-103.686217073129,4,1,0,85,0,0
114961,-102.046075550824,4,1,0,85,0,0
115045,-101.007307713366,4,1,0,85,0,0
115129,-99.992032586718,4,1,0,85,0,0
115212,-99.011120290114,4,1,0,85,0,0
115338,-97.562667111018,4,1,0,85,0,0
115466,-83.651164207302,4,1,0,85,0,1
116471,-104.188819124946,4,1,0,85,0,0
116593,-102.57875404895,4,1,0,85,0,0
116656,-101.78828098923,4,1,0,85,0,0
116719,-101.011382827526,4,1,0,85,0,0
116844,-99.508706033631,4,1,0,85,0,0
116970,-98.043974353121,4,1,0,85,0,0
117033,-97.329623229811,4,1,0,85,0,0
117095,-96.637942760224,4,1,0,85,0,0
117221,-95.265762752936,4,1,0,85,0,0
117284,-94.595958063654,4,1,0,85,0,0
117346,-93.947041455417,4,1,0,85,0,0
117472,-92.658625135587,4,1,0,85,0,0
117535,-93.182209012892,4,1,0,85,0,0
117597,-93.704026781726,4,1,0,85,0,0
117660,-94.241043963305,4,1,0,85,0,0
117723,-94.785035810214,4,1,0,85,0,0
117848,-95.885594664875,4,1,0,85,0,0
117974,-97.024487917998,4,1,0,85,0,0
118099,-98.184867450067,4,1,0,85,0,0
118162,-98.781629007476,4,1,0,85,0,0
118225,-99.386613979324,4,1,0,85,0,0
118351,-100.621969951863,4,1,0,85,0,0
118413,-101.242630871037,4,1,0,85,0,0
118476,-101.882195453829,4,1,0,85,0,0
118602,-103.18901906106,4,1,0,85,0,0
118727,-104.523341459055,4,1,0,85,0,0
118853,-105.90827743818,4,1,0,85,0,0
118915,-106.605043830344,4,1,0,85,0,0
118978,-107.323702206311,4,1,0,85,0,0
119104,-108.794262484553,4,1,0,85,0,0
119229,-105.682622419872,4,1,0,85,0,0
119292,-104.188819124946,4,1,0,85,0,0
119355,-102.741699136598,4,1,0,85,0,0
119483,-86.428107444721,4,1,0,85,0,1
120487,-92.658625135587,4,1,0,85,0,0
120610,-93.512679728942,4,1,0,85,0,0
120673,-93.946390094424,4,1,0,85,0,0
120735,-94.377660332483,4,1,0,85,0,0
120861,-95.267994317326,4,1,0,85,0,0
120924,-95.720292964127,4,1,0,85,0,0
120987,-96.177452003562,4,1,0,85,0,0
121112,-97.099225667938,4,1,0,85,0,0
121175,-97.571382041878,4,1,0,85,0,0
121238,-98.048735820713,4,1,0,85,0,0
121363,-99.01160704622,4,1,0,85,0,0
121426,-99.505011186064,4,1,0,85,0,0
121489,-100.003982259036,4,1,0,85,0,0
121614,-101.010873671588,4,1,0,85,0,0
121677,-101.527051050101,4,1,0,85,0,0
121740,-102.049201471633,4,1,0,85,0,0
121865,-103.104924711934,4,1,0,85,0,0
121928,-103.65121779025,4,1,0,85,0,0
121991,-104.200405358119,4,1,0,85,0,0
122055,-104.743716494244,4,1,0,85,0,0
122116,-105.298692577857,4,1,0,85,0,0
122242,-106.436672259371,4,1,0,85,0,0
122367,-107.596245864603,4,1,0,85,0,0
122430,-108.191523318635,4,1,0,85,0,0
122493,-108.794262484553,4,1,0,85,0,0
122618,-106.444696195021,4,1,0,85,0,0
122744,-104.188819124946,4,1,0,85,0,0
122869,-102.05441597036,4,1,0,85,0,0
122932,-101.015458311625,4,1,0,85,0,0
122995,-100,4,1,0,85,0,0
123120,-98.051596745469,4,1,0,85,0,0
123183,-97.101556887539,4,1,0,85,0,0
123246,-96.171980730808,4,1,0,85,0,0
123309,-95.262190716593,4,1,0,85,0,0
123371,-94.385530450278,4,1,0,85,0,0
123434,-93.5131094709,4,1,0,85,0,0
123500,-78.65620435518,4,1,0,85,0,1
124630,-72.298118079847,4,1,0,85,0,1
125508,-92.658625135587,4,1,0,85,0,1
126513,-100,4,1,0,85,0,0
127514,-92.658625135587,4,1,0,85,0,0
127890,-94.376202549452,4,1,0,85,0,0
128267,-96.171980730808,4,1,0,85,0,0
128392,-96.784522771061,4,1,0,85,0,0
128518,-97.410920815903,4,1,0,85,0,0
128894,-99.335678165601,4,1,0,85,0,0
129271,-101.353649450476,4,1,0,85,0,0
129397,-102.048855520259,4,1,0,85,0,0
129522,-102.749236976431,4,1,0,85,0,0
129899,-104.928748227435,4,1,0,85,0,0
130275,-107.208902144307,4,1,0,85,0,0
130401,-107.998195192026,4,1,0,85,0,0
130526,-108.794262484553,4,1,0,85,0,0
130777,-106.435526745907,4,1,0,85,0,0
131028,-104.188819124946,4,1,0,85,0,0
131279,-96.171980730808,4,1,0,85,0,0
131405,-94.371539376803,4,1,0,85,0,0
131530,-92.658625135587,4,1,0,85,0,0
131907,-95.266654920488,4,1,0,85,0,0
132284,-98.04587793018,4,1,0,85,0,0
132409,-99.008201319443,4,1,0,85,0,0
132535,-100,4,1,0,85,0,0
132911,-97.101556887539,4,1,0,85,0,0
133037,-96.171980730808,4,1,0,85,0,0
133288,-94.378534330201,4,1,0,85,0,0
133413,-93.5131094709,4,1,0,85,0,0
133539,-92.658625135587,4,1,0,85,0,0
133790,-94.378534330201,4,1,0,85,0,0
134041,-96.171980730808,4,1,0,85,0,0
134166,-97.09409965501,4,1,0,85,0,0
134292,-98.043974353121,4,1,0,85,0,0
134417,-99.007224496005,4,1,0,85,0,0
134543,-92.658625135587,4,1,0,85,0,0
134669,-93.947041455417,4,1,0,85,0,0
134794,-95.265762752936,4,1,0,85,0,0
134857,-95.946333776881,4,1,0,85,0,0
134920,-96.637942760224,4,1,0,85,0,0
135045,-98.043974353121,4,1,0,85,0,0
135171,-96.626877188542,4,1,0,85,0,0
135296,-95.265762752936,4,1,0,85,0,0
135422,-93.936657076706,4,1,0,85,0,0
135547,-92.658625135587,4,1,0,85,0,0
135610,-92.976832269071,4,1,0,85,0,0
135673,-93.297508765618,4,1,0,85,0,0
135735,-93.615535111192,4,1,0,85,0,0
135798,-93.941200247647,4,1,0,85,0,0
136049,-95.264423870755,4,1,0,85,0,0
136175,-95.944631804757,4,1,0,85,0,0
136300,-96.630335906134,4,1,0,85,0,0
136426,-97.332786113825,4,1,0,85,0,0
136551,-98.041117722282,4,1,0,85,0,0
136677,-98.76927052593,4,1,0,85,0,0
136802,-99.52242416277,4,1,0,85,0,0
136867,-99.904187534818,4,1,0,85,0,0
136928,-100.287415333335,4,1,0,85,0,0
137053,-101.052145407632,4,1,0,85,0,0
137116,-101.439776718948,4,1,0,85,0,0
137179,-101.828894965874,4,1,0,85,0,0
137304,-102.605379414636,4,1,0,85,0,0
137430,-103.394068094248,4,1,0,85,0,0
137493,-103.790682911637,4,1,0,85,0,0
137556,-104.188819124946,4,1,0,85,0,0
137681,-103.64584311268,4,1,0,85,0,0
137744,-103.374587865571,4,1,0,85,0,0
137807,-103.104924711934,4,1,0,85,0,0
137932,-102.574535283521,4,1,0,85,0,0
138058,-102.046075550824,4,1,0,85,0,0
138120,-101.78828098923,4,1,0,85,0,0
138183,-101.527824621495,4,1,0,85,0,0
138309,-101.011382827526,4,1,0,85,0,0
138434,-100.50484368957,4,1,0,85,0,0
138560,-100,4,1,0,85,0,0
138685,-99.504766050516,4,1,0,85,0,0
138811,-99.011120290114,4,1,0,85,0,0
138874,-98.766356933096,4,1,0,85,0,0
138936,-98.526803849134,4,1,0,85,0,0
139062,-98.043974353121,4,1,0,85,0,0
139187,-97.570205564668,4,1,0,85,0,0
139313,-97.097828110196,4,1,0,85,0,0
139376,-96.86356280846,4,1,0,85,0,0
139438,-96.634253919538,4,1,0,85,0,0
139564,-92.658625135587,4,1,0,85,0,0
139689,-93.292717277289,4,1,0,85,0,0
139752,-93.616017204159,4,1,0,85,0,0
139815,-93.941848943216,4,1,0,85,0,0
139940,-94.595958063654,4,1,0,85,0,0
140066,-95.265762752936,4,1,0,85,0,0
140192,-95.946333776881,4,1,0,85,0,0
140254,-96.28525266992,4,1,0,85,0,0
140317,-96.632409618,4,1,0,85,0,0
140443,-97.335246605645,4,1,0,85,0,0
140568,-98.043974353121,4,1,0,85,0,0
140694,-97.329623229811,4,1,0,85,0,0
140756,-96.982395588264,4,1,0,85,0,0
140819,-96.632409618,4,1,0,85,0,0
140945,-95.940889331097,4,1,0,85,0,0
141070,-95.265762752936,4,1,0,85,0,0
141135,-94.934588637413,4,1,0,85,0,0
141196,-94.604565788533,4,1,0,85,0,0
141258,-94.280901511372,4,1,0,85,0,0
141321,-93.953151087018,4,1,0,85,0,0
141447,-93.301064371921,4,1,0,85,0,0
141510,-92.976720173357,4,1,0,85,0,0
141572,-92.658625135587,4,1,0,85,0,0
141698,-93.29782940542,4,1,0,85,0,0
141823,-93.941848943216,4,1,0,85,0,0
141949,-94.601232281731,4,1,0,85,0,0
142074,-95.265762752936,4,1,0,85,0,0
142137,-95.604685711789,4,1,0,85,0,0
142200,-95.946333776881,4,1,0,85,0,0
142325,-96.632409618,4,1,0,85,0,0
142451,-97.335246605645,4,1,0,85,0,0
142576,-92.658625135587,4,1,0,85,0,0
142702,-94.382025289992,4,1,0,85,0,0
142765,-95.271110718557,4,1,0,85,0,0
142828,-96.179265038342,4,1,0,85,0,0
142890,-97.092246665907,4,1,0,85,0,0
142953,-98.040171232494,4,1,0,85,0,0
143016,-99.009176222505,4,1,0,85,0,0
143050,-100,4,1,0,90,0,0
143079,-100,4,1,0,90,0,0
143141,-99.022809742201,4,1,0,90,0,0
143204,-98.051596745469,4,1,0,90,0,0
143267,-97.101556887539,4,1,0,90,0,0
143330,-96.171980730808,4,1,0,90,0,0
143392,-95.276480670401,4,1,0,90,0,0
143455,-94.385530450278,4,1,0,90,0,0
143518,-93.5131094709,4,1,0,90,0,0
143584,-92.658625135587,4,1,0,90,0,1
143706,-93.506258003482,4,1,0,90,0,1
143769,-93.940118249309,4,1,0,90,0,1
143832,-94.378534330201,4,1,0,90,0,1
143957,-95.262190716593,4,1,0,90,0,1
144083,-96.171980730808,4,1,0,90,0,1
144145,-96.626877188542,4,1,0,90,0,1
144208,-97.09409965501,4,1,0,90,0,1
144271,-97.566436174027,4,1,0,90,0,1
144334,-98.043974353121,4,1,0,90,0,1
144459,-99.007224496005,4,1,0,90,0,1
144585,-92.658625135587,4,1,0,90,0,1
144648,-93.083661250232,4,1,0,90,0,1
144710,-93.506258003482,4,1,0,90,0,1
144773,-93.940118249309,4,1,0,90,0,1
144836,-94.378534330201,4,1,0,90,0,1
144899,-94.821581099788,4,1,0,90,0,1
144961,-95.262190716593,4,1,0,90,0,1
145087,-96.171980730808,4,1,0,90,0,1
145150,-96.634253919538,4,1,0,90,0,1
145212,-97.09409965501,4,1,0,90,0,1
145275,-97.566436174027,4,1,0,90,0,1
145338,-98.043974353121,4,1,0,90,0,1
145463,-99.007224496005,4,1,0,90,0,1
145526,-99.500826418387,4,1,0,90,0,1
145589,-100,4,1,0,90,0,1
145673,-99.335678165601,4,1,0,90,0,1
145756,-98.688938661664,4,1,0,90,0,1
145840,-98.043974353121,4,1,0,90,0,1
145924,-97.408417073348,4,1,0,90,0,1
146007,-96.789458521979,4,1,0,90,0,1
146091,-96.171980730808,4,1,0,90,0,1
146175,-95.563296161899,4,1,0,90,0,1
146258,-94.970305576829,4,1,0,90,0,1
146342,-94.378534330201,4,1,0,90,0,1
146426,-93.794995612478,4,1,0,90,0,1
146510,-93.219512634762,4,1,0,90,0,1
146593,-92.658625135587,4,1,0,90,0,1
146719,-93.5131094709,4,1,0,90,0,1
146781,-93.940118249309,4,1,0,90,0,1
146844,-94.378534330201,4,1,0,90,0,1
146907,-94.821581099788,4,1,0,90,0,1
146970,-95.269335090658,4,1,0,90,0,1
147033,-95.721874562209,4,1,0,90,0,1
147095,-96.171980730808,4,1,0,90,0,1
147221,-97.101556887539,4,1,0,90,0,1
147284,-97.573975282986,4,1,0,90,0,1
147346,-98.043974353121,4,1,0,90,0,1
147409,-98.526803849134,4,1,0,90,0,1
147472,-99.015016429151,4,1,0,90,0,1
147535,-99.508706033631,4,1,0,90,0,1
147597,-100,4,1,0,90,0,1
147723,-99.501320323173,4,1,0,90,0,1
147786,-99.254071781432,4,1,0,90,0,1
147848,-99.012093323367,4,1,0,90,0,1
147974,-98.524396132855,4,1,0,90,0,1
148099,-98.04587793018,4,1,0,90,0,1
148162,-97.806680225192,4,1,0,90,0,1
148225,-97.568791535946,4,1,0,90,0,1
148351,-97.096896893695,4,1,0,90,0,1
148476,-96.633791460369,4,1,0,90,0,1
148602,-89.421454095671,4,1,0,90,0,1
148664,-89.807461997094,4,1,0,90,0,1
148727,-90.203557330445,4,1,0,90,0,1
148790,-90.603605153163,4,1,0,90,0,1
148853,-91.007667159076,4,1,0,90,0,1
148915,-91.409295780592,4,1,0,90,0,1
148978,-91.821510278156,4,1,0,90,0,1
149104,-92.658625135587,4,1,0,90,0,1
149166,-93.076880371785,4,1,0,90,0,1
149229,-93.506258003482,4,1,0,90,0,1
149292,-93.940118249309,4,1,0,90,0,1
149355,-94.378534330201,4,1,0,90,0,1
149480,-95.262190716593,4,1,0,90,0,1
149606,-96.171980730808,4,1,0,90,0,1
149689,-95.570491448245,4,1,0,90,0,1
149773,-94.970305576829,4,1,0,90,0,1
149857,-94.378534330201,4,1,0,90,0,1
149940,-93.801894776379,4,1,0,90,0,1
150024,-93.226316916669,4,1,0,90,0,1
150108,-92.658625135587,4,1,0,90,0,1
150192,-92.098652627452,4,1,0,90,0,1
150275,-91.552769881775,4,1,0,90,0,1
150359,-91.007667159076,4,1,0,90,0,1
150443,-90.469812931883,4,1,0,90,0,1
150526,-89.945335682622,4,1,0,90,0,1
150610,-89.421454095671,4,1,0,90,0,1
150736,-90.209876263369,4,1,0,90,0,1
150798,-90.603605153163,4,1,0,90,0,1
150861,-91.007667159076,4,1,0,90,0,1
150924,-91.415806356232,4,1,0,90,0,1
150987,-91.828087102451,4,1,0,90,0,1
151050,-92.244575142066,4,1,0,90,0,1
151112,-92.658625135587,4,1,0,90,0,1
151238,-93.5131094709,4,1,0,90,0,1
151301,-93.947041455417,4,1,0,90,0,1
151363,-94.378534330201,4,1,0,90,0,1
151426,-93.940118249309,4,1,0,90,0,1
151489,-93.506258003482,4,1,0,90,0,1
151551,-93.083661250232,4,1,0,90,0,1
151614,-92.658625135587,4,1,0,90,0,1
151740,-93.5131094709,4,1,0,90,0,1
151802,-93.940118249309,4,1,0,90,0,1
151865,-94.378534330201,4,1,0,90,0,1
151991,-95.269335090658,4,1,0,90,0,1
152116,-96.171980730808,4,1,0,90,0,1
152179,-96.634253919538,4,1,0,90,0,1
152242,-97.101556887539,4,1,0,90,0,1
152367,-98.043974353121,4,1,0,90,0,1
152493,-99.015016429151,4,1,0,90,0,1
152618,-92.658625135587,4,1,0,90,0,1
152681,-93.083661250232,4,1,0,90,0,1
152743,-93.506258003482,4,1,0,90,0,1
152869,-94.378534330201,4,1,0,90,0,1
152932,-94.821581099788,4,1,0,90,0,1
152994,-95.262190716593,4,1,0,90,0,1
153120,-96.171980730808,4,1,0,90,0,1
153183,-96.634253919538,4,1,0,90,0,1
153245,-97.09409965501,4,1,0,90,0,1
153308,-97.566436174027,4,1,0,90,0,1
153371,-98.043974353121,4,1,0,90,0,1
153434,-98.526803849134,4,1,0,90,0,1
153496,-99.007224496005,4,1,0,90,0,1
153622,-100,4,1,0,90,0,1
153706,-99.335678165601,4,1,0,90,0,1
153789,-98.688938661664,4,1,0,90,0,1
153873,-98.043974353121,4,1,0,90,0,1
153957,-97.408417073348,4,1,0,90,0,1
154040,-96.789458521979,4,1,0,90,0,1
154124,-96.171980730808,4,1,0,90,0,1
154208,-95.563296161899,4,1,0,90,0,1
154291,-94.970305576829,4,1,0,90,0,1
154375,-94.378534330201,4,1,0,90,0,1
154459,-93.794995612478,4,1,0,90,0,1
154543,-93.219512634762,4,1,0,90,0,1
154626,-92.658625135587,4,1,0,90,0,1
154752,-93.250660380694,4,1,0,90,0,1
154814,-93.693131358452,4,1,0,90,0,1
154877,-94.14760707292,4,1,0,90,0,1
154940,-94.607073214222,4,1,0,90,0,1
155003,-95.071615546937,4,1,0,90,0,1
155066,-95.54132184834,4,1,0,90,0,1
155128,-96.008701411475,4,1,0,90,0,1
155254,-96.974580566909,4,1,0,90,0,1
155317,-97.465774271983,4,1,0,90,0,1
155379,-97.954670945932,4,1,0,90,0,1
155505,-98.96544832043,4,1,0,90,0,1
155631,-100,4,1,0,90,0,1
155694,-99.500826418387,4,1,0,90,0,1
155756,-99.015016429151,4,1,0,90,0,1
155819,-98.526803849134,4,1,0,90,0,1
155882,-98.043974353121,4,1,0,90,0,1
155945,-97.566436174027,4,1,0,90,0,1
156007,-97.101556887539,4,1,0,90,0,1
156070,-96.634253919538,4,1,0,90,0,1
156133,-96.171980730808,4,1,0,90,0,1
156196,-95.714653607776,4,1,0,90,0,1
156258,-95.269335090658,4,1,0,90,0,1
156321,-94.821581099788,4,1,0,90,0,1
156384,-94.378534330201,4,1,0,90,0,1
156447,-93.940118249309,4,1,0,90,0,1
156510,-93.506258003482,4,1,0,90,0,1
156572,-93.083661250232,4,1,0,90,0,1
156635,-89.421454095671,4,1,0,90,0,1
156698,-89.813718667297,4,1,0,90,0,1
156761,-90.209876263369,4,1,0,90,0,1
156823,-90.603605153163,4,1,0,90,0,1
156886,-91.007667159076,4,1,0,90,0,1
156949,-91.415806356232,4,1,0,90,0,1
157012,-91.828087102451,4,1,0,90,0,1
157074,-92.23793101453,4,1,0,90,0,1
157137,-92.658625135587,4,1,0,90,0,1
157200,-93.083661250232,4,1,0,90,0,1
157263,-93.5131094709,4,1,0,90,0,1
157325,-93.940118249309,4,1,0,90,0,1
157388,-94.378534330201,4,1,0,90,0,1
157451,-94.821581099788,4,1,0,90,0,1
157514,-95.269335090658,4,1,0,90,0,1
157576,-95.714653607776,4,1,0,90,0,1
157639,-96.171980730808,4,1,0,90,0,1
157702,-95.714653607776,4,1,0,90,0,1
157765,-95.262190716593,4,1,0,90,0,1
157828,-94.814512050137,4,1,0,90,0,1
157890,-94.378534330201,4,1,0,90,0,1
157953,-93.940118249309,4,1,0,90,0,1
158016,-93.506258003482,4,1,0,90,0,1
158079,-93.076880371785,4,1,0,90,0,1
158141,-92.658625135587,4,1,0,90,0,1
158204,-92.23793101453,4,1,0,90,0,1
158267,-91.821510278156,4,1,0,90,0,1
158330,-91.409295780592,4,1,0,90,0,1
158392,-91.007667159076,4,1,0,90,0,1
158455,-90.603605153163,4,1,0,90,0,1
158518,-90.203557330445,4,1,0,90,0,1
158581,-89.807461997094,4,1,0,90,0,1
158643,-86.428107444721,4,1,0,90,0,1
158706,-86.791005998248,4,1,0,90,0,1
158769,-87.157351094087,4,1,0,90,0,1
158832,-87.527193919896,4,1,0,90,0,1
158894,-87.894631830149,4,1,0,90,0,1
158957,-88.271570238382,4,1,0,90,0,1
159020,-88.652165398787,4,1,0,90,0,1
159083,-89.036472793526,4,1,0,90,0,1
159145,-89.418359378905,4,1,0,90,0,1
159208,-89.810201115098,4,1,0,90,0,1
159271,-90.205927599503,4,1,0,90,0,1
159334,-90.605599074128,4,1,0,90,0,1
159397,-91.009277055873,4,1,0,90,0,1
159459,-91.410520077852,4,1,0,90,0,1
159522,-91.822334777123,4,1,0,90,0,1
159585,-92.238347480443,4,1,0,90,0,1
159648,-81.067227081676,4,1,0,90,0,1
160655,-100,4,1,0,90,0,0
163667,-81.067227081676,4,1,0,90,0,1
164672,-100,4,1,0,90,0,0
167684,-81.067227081676,4,1,0,90,0,1
168688,-96.171980730808,4,1,0,90,0,0
168748,-96.634253919538,4,1,0,90,0,0
168811,-97.101556887539,4,1,0,90,0,0
168936,-98.043974353121,4,1,0,90,0,0
168999,-98.526803849134,4,1,0,90,0,0
169062,-99.015016429151,4,1,0,90,0,0
169125,-99.508706033631,4,1,0,90,0,0
169187,-100,4,1,0,90,0,0
169313,-101.015458311625,4,1,0,90,0,0
169438,-102.046075550824,4,1,0,90,0,0
169501,-102.574535283521,4,1,0,90,0,0
169564,-103.109192719435,4,1,0,90,0,0
169627,-103.650161666984,4,1,0,90,0,0
169689,-104.188819124946,4,1,0,90,0,0
169815,-103.101727151865,4,1,0,90,0,0
169940,-102.04815843729,4,1,0,90,0,0
170003,-101.526278261672,4,1,0,90,0,0
170066,-101.010365028039,4,1,0,90,0,0
170129,-100.500313281009,4,1,0,90,0,0
170192,-99.996020078703,4,1,0,90,0,0
170317,-99.012093323367,4,1,0,90,0,0
170443,-98.042070859216,4,1,0,90,0,0
170568,-97.100621880269,4,1,0,90,0,0
170694,-104.188819124946,4,1,0,90,0,0
170756,-103.650161666984,4,1,0,90,0,0
170819,-103.109192719435,4,1,0,90,0,0
170945,-102.046075550824,4,1,0,90,0,0
171007,-101.531947139384,4,1,0,90,0,0
171070,-101.015458311625,4,1,0,90,0,0
171133,-100.50484368957,4,1,0,90,0,0
171196,-100,4,1,0,90,0,0
171258,-99.508706033631,4,1,0,90,0,0
171321,-99.015016429151,4,1,0,90,0,0
171384,-98.526803849134,4,1,0,90,0,0
171447,-98.043974353121,4,1,0,90,0,0
171510,-97.566436174027,4,1,0,90,0,0
171572,-97.101556887539,4,1,0,90,0,0
171635,-96.634253919538,4,1,0,90,0,0
171701,-72.298118079847,4,1,0,90,0,1
172705,-92.658625135587,4,1,0,90,0,0
172765,-93.083661250232,4,1,0,90,0,0
172828,-93.5131094709,4,1,0,90,0,0
172953,-94.378534330201,4,1,0,90,0,0
173079,-95.269335090658,4,1,0,90,0,0
173141,-95.714653607776,4,1,0,90,0,0
173204,-96.171980730808,4,1,0,90,0,0
173267,-96.634253919538,4,1,0,90,0,0
173330,-97.101556887539,4,1,0,90,0,0
173455,-98.043974353121,4,1,0,90,0,0
173518,-98.526803849134,4,1,0,90,0,0
173581,-99.015016429151,4,1,0,90,0,0
173709,-78.65620435518,4,1,0,90,0,1
174210,-100,4,1,0,90,0,1
174273,-99.511352313435,4,1,0,90,0,1
174336,-99.025092392486,4,1,0,90,0,1
174461,-98.067313989325,4,1,0,90,0,1
174587,-97.111248284758,4,1,0,90,0,1
174713,-89.421454095671,4,1,0,90,0,0
174773,-90.010715817891,4,1,0,90,0,0
174836,-90.608787012751,4,1,0,90,0,0
174899,-91.215874265711,4,1,0,90,0,0
174961,-91.822334777123,4,1,0,90,0,0
175024,-92.447948948343,4,1,0,90,0,0
175087,-93.083236147586,4,1,0,90,0,0
175150,-93.728431041302,4,1,0,90,0,0
175212,-94.37329322569,4,1,0,90,0,0
175275,-95.038871920871,4,1,0,90,0,0
175338,-95.715106228614,4,1,0,90,0,0
175401,-96.402263895244,4,1,0,90,0,0
175463,-97.089447885023,4,1,0,90,0,0
175526,-97.79910814396,4,1,0,90,0,0
175589,-98.520547128958,4,1,0,90,0,0
175652,-99.254071781432,4,1,0,90,0,0
175718,-72.298118079847,4,1,0,90,0,1
179734,-57.434917749852,4,1,0,90,0,0
179797,-41.524364653851,4,1,0,50,0,0
180738,-100,4,1,0,50,0,0
181743,-108.794262484553,4,1,0,50,0,0
182747,-119.544062473755,4,1,0,50,0,0
183751,-108.794262484553,4,1,0,50,0,0
184755,-100,4,1,0,50,0,0
185759,-108.794262484553,4,1,0,50,0,0
186764,-119.544062473755,4,1,0,50,0,0

[HitObjects]
256,192,5006,5,2,2:0:0:0:
256,192,5257,1,2,2:0:0:0:
256,192,5383,1,0,2:0:0:0:
256,192,5634,1,2,2:0:0:0:
256,192,6010,1,0,2:0:0:0:
256,192,6261,1,2,2:0:0:0:
256,192,6387,1,0,2:0:0:0:
256,192,6638,1,2,2:0:0:0:
256,192,7015,1,2,2:0:0:0:
256,192,7266,1,2,2:0:0:0:
256,192,7391,1,2,2:0:0:0:
256,192,7642,1,0,2:0:0:0:
256,192,8019,1,2,2:0:0:0:
256,192,8270,1,2,2:0:0:0:
256,192,8521,1,0,2:0:0:0:
256,192,8772,1,0,2:0:0:0:
256,192,8897,1,0,2:0:0:0:
256,192,9023,1,2,2:0:0:0:
256,192,9274,1,2,2:0:0:0:
256,192,9400,1,2,2:0:0:0:
256,192,9776,1,0,2:0:0:0:
256,192,9902,1,0,2:0:0:0:
256,192,10027,1,2,2:0:0:0:
256,192,10278,1,2,2:0:0:0:
256,192,10404,1,2,2:0:0:0:
256,192,10780,1,0,2:0:0:0:
256,192,10906,1,0,2:0:0:0:
256,192,11031,1,2,2:0:0:0:
256,192,11282,1,0,2:0:0:0:
256,192,11408,1,2,2:0:0:0:
256,192,11784,1,2,2:0:0:0:
256,192,11910,1,2,2:0:0:0:
256,192,12036,1,2,2:0:0:0:
256,192,12287,1,2,2:0:0:0:
256,192,12538,1,0,2:0:0:0:
256,192,12789,1,0,2:0:0:0:
256,192,13040,1,0,2:0:0:0:
256,192,13291,1,2,2:0:0:0:
256,192,13416,1,0,2:0:0:0:
256,192,13667,1,0,2:0:0:0:
256,192,14044,1,0,2:0:0:0:
256,192,14295,1,2,2:0:0:0:
256,192,14420,1,0,2:0:0:0:
256,192,14672,1,0,2:0:0:0:
256,192,14797,1,2,2:0:0:0:
256,192,15048,1,2,2:0:0:0:
256,192,15299,1,2,2:0:0:0:
256,192,15425,1,0,2:0:0:0:
256,192,15676,1,0,2:0:0:0:
256,192,15801,1,0,2:0:0:0:
256,192,16052,1,2,2:0:0:0:
256,192,16303,1,2,2:0:0:0:
256,192,16554,1,0,2:0:0:0:
256,192,16805,1,0,2:0:0:0:
256,192,16931,1,0,2:0:0:0:
256,192,17056,1,2,2:0:0:0:
256,192,17307,1,2,2:0:0:0:
256,192,17433,1,0,2:0:0:0:
256,192,17810,1,2,2:0:0:0:
256,192,17935,1,0,2:0:0:0:
256,192,18061,1,2,2:0:0:0:
256,192,18312,1,2,2:0:0:0:
256,192,18437,1,0,2:0:0:0:
256,192,18688,1,2,2:0:0:0:
256,192,18814,1,2,2:0:0:0:
256,192,18939,1,2,2:0:0:0:
256,192,19065,1,0,2:0:0:0:
256,192,19316,1,0,2:0:0:0:
256,192,19441,1,2,2:0:0:0:
256,192,19818,1,0,2:0:0:0:
256,192,19943,1,0,2:0:0:0:
256,192,20069,1,2,2:0:0:0:
256,192,21073,1,2,2:0:0:0:
256,192,21157,1,2,2:0:0:0:
256,192,21241,1,2,2:0:0:0:
256,192,21324,1,0,2:0:0:0:
256,192,21408,1,0,2:0:0:0:
256,192,21492,1,0,2:0:0:0:
256,192,21575,1,2,2:0:0:0:
256,192,21701,1,2,2:0:0:0:
256,192,21826,1,0,2:0:0:0:
256,192,21952,1,0,2:0:0:0:
256,192,22077,1,2,2:0:0:0:
256,194,22161,1,0,0:0:0:0:
256,194,22245,1,0,0:0:0:0:
256,192,22328,1,2,2:0:0:0:
256,194,22412,1,0,0:0:0:0:
256,194,22496,1,0,0:0:0:0:
256,192,22579,1,0,2:0:0:0:
256,192,22705,1,0,2:0:0:0:
256,192,22831,1,2,2:0:0:0:
256,192,22956,1,0,2:0:0:0:
256,192,23082,1,2,2:0:0:0:
256,192,23165,1,2,2:0:0:0:
256,192,23249,1,2,2:0:0:0:
256,192,23333,1,0,2:0:0:0:
256,192,23416,1,0,2:0:0:0:
256,192,23500,1,0,2:0:0:0:
256,192,23584,1,2,2:0:0:0:
256,192,23709,1,0,2:0:0:0:
256,192,23835,1,2,2:0:0:0:
256,192,23960,1,0,2:0:0:0:
256,192,24086,1,2,2:0:0:0:
220,310,24169,1,0,0:0:0:0:
220,310,24253,1,0,0:0:0:0:
256,192,24337,1,0,2:0:0:0:
220,310,24420,1,0,0:0:0:0:
220,310,24504,1,0,0:0:0:0:
256,192,24588,1,2,2:0:0:0:
256,192,24713,1,2,2:0:0:0:
256,192,24839,1,0,2:0:0:0:
256,192,24964,1,0,2:0:0:0:
256,192,25090,1,2,2:0:0:0:
256,192,25174,1,0,2:0:0:0:
256,192,25257,1,0,2:0:0:0:
256,192,25341,1,2,2:0:0:0:
256,192,25425,1,0,2:0:0:0:
256,192,25508,1,0,2:0:0:0:
256,192,25592,1,2,2:0:0:0:
256,192,25718,1,2,2:0:0:0:
256,192,25843,1,0,2:0:0:0:
256,192,25969,1,0,2:0:0:0:
256,192,26094,1,2,2:0:0:0:
220,310,26178,1,0,0:0:0:0:
220,310,26261,1,0,0:0:0:0:
256,192,26345,1,0,2:0:0:0:
220,310,26429,1,0,0:0:0:0:
220,310,26513,1,0,0:0:0:0:
256,192,26596,1,2,2:0:0:0:
256,192,26722,1,0,2:0:0:0:
256,192,26847,1,0,2:0:0:0:
256,192,26973,1,0,2:0:0:0:
256,192,27098,1,2,2:0:0:0:
256,192,27182,1,0,2:0:0:0:
256,192,27266,1,0,2:0:0:0:
256,192,27349,1,2,2:0:0:0:
256,192,27433,1,0,2:0:0:0:
256,192,27517,1,0,2:0:0:0:
256,192,27600,1,2,2:0:0:0:
256,192,27726,1,0,2:0:0:0:
256,192,27851,1,2,2:0:0:0:
256,192,27977,1,0,2:0:0:0:
256,192,28102,1,2,2:0:0:0:
220,310,28186,1,0,0:0:0:0:
220,310,28270,1,0,0:0:0:0:
256,192,28354,1,2,2:0:0:0:
220,310,28437,1,0,0:0:0:0:
220,310,28521,1,0,0:0:0:0:
220,310,28605,1,0,0:0:0:0:
256,192,28856,1,0,2:0:0:0:
256,192,29107,1,2,2:0:0:0:
256,192,30111,1,2,2:0:0:0:
256,192,30211,1,2,2:0:0:0:
256,192,30312,1,0,2:0:0:0:
256,192,30412,1,0,2:0:0:0:
256,192,30513,1,2,2:0:0:0:
256,192,30613,1,0,2:0:0:0:
256,192,30713,1,2,2:0:0:0:
256,192,30814,1,0,2:0:0:0:
256,192,30914,1,2,2:0:0:0:
256,192,31015,1,2,2:0:0:0:
256,192,31115,1,0,2:0:0:0:
258,197,31215,1,0,0:1:0:0:
256,192,32119,1,2,2:0:0:0:
258,197,32191,1,0,2:0:0:0:
258,196,32263,1,0,2:0:0:0:
258,196,32334,1,0,2:0:0:0:
258,196,32406,1,0,2:0:0:0:
256,192,32478,1,0,0:0:0:0:
256,192,32550,1,0,0:0:0:0:
258,196,32621,1,8,2:0:0:0:
256,192,32693,1,0,0:0:0:0:
258,196,32765,1,0,2:0:0:0:
258,196,32836,1,0,2:0:0:0:
258,196,32908,1,0,2:0:0:0:
258,196,32980,1,0,2:0:0:0:
258,196,33052,1,0,2:0:0:0:
256,192,33123,1,2,2:0:0:0:
256,192,33312,1,0,2:0:0:0:
256,192,33500,1,2,2:0:0:0:
256,192,33688,1,0,2:0:0:0:
256,192,33877,1,2,2:0:0:0:
256,192,34002,1,0,2:0:0:0:
256,192,34128,1,2,2:0:0:0:
256,192,34253,1,0,2:0:0:0:
256,192,34379,1,2,2:0:0:0:
256,192,34473,1,0,2:0:0:0:
256,192,34567,1,2,2:0:0:0:
256,192,34661,1,0,2:0:0:0:
256,192,34755,1,2,2:0:0:0:
256,192,34818,1,8,2:0:0:0:
256,192,34881,1,0,2:0:0:0:
256,192,34943,1,0,2:0:0:0:
256,192,35006,1,2,2:0:0:0:
256,192,35132,1,0,2:0:0:0:
256,192,35466,1,0,2:0:0:0:
256,192,35634,1,8,2:0:0:0:
256,192,35718,1,2,2:0:0:0:
256,192,35801,1,0,2:0:0:0:
256,192,35885,1,2,2:0:0:0:
256,192,35969,1,0,2:0:0:0:
256,192,36052,1,2,2:0:0:0:
256,192,36136,1,0,2:0:0:0:
256,192,36261,12,0,37140,2:0:0:0:
256,192,38144,5,2,2:0:0:0:
256,192,38270,1,0,2:0:0:0:
256,192,38333,1,0,2:0:0:0:
256,192,38395,1,2,2:0:0:0:
256,192,38521,1,0,2:0:0:0:
256,192,38646,1,2,2:0:0:0:
256,192,38688,1,2,2:0:0:0:
256,192,38897,1,2,2:0:0:0:
256,192,39023,1,2,2:0:0:0:
256,192,39148,1,4,2:0:0:0:
256,192,39525,1,0,2:0:0:0:
256,192,39902,1,0,2:0:0:0:
256,192,40153,1,2,2:0:0:0:
256,192,40529,1,2,2:0:0:0:
256,192,40906,1,2,2:0:0:0:
256,192,41157,1,0,2:0:0:0:
256,192,41533,1,0,2:0:0:0:
256,192,41910,1,0,2:0:0:0:
256,192,42161,1,2,2:0:0:0:
256,192,42538,1,2,2:0:0:0:
256,192,42789,1,2,2:0:0:0:
256,192,42914,1,2,2:0:0:0:
256,192,43165,1,0,2:0:0:0:
256,192,43542,1,0,2:0:0:0:
256,192,43918,1,0,2:0:0:0:
256,192,44169,1,2,2:0:0:0:
256,192,44546,1,2,2:0:0:0:
256,192,44923,1,2,2:0:0:0:
256,192,45174,1,0,2:0:0:0:
256,192,45550,1,0,2:0:0:0:
256,192,45927,1,0,2:0:0:0:
256,192,46178,1,2,2:0:0:0:
256,192,46554,1,2,2:0:0:0:
256,192,46805,1,2,2:0:0:0:
256,192,46931,1,2,2:0:0:0:
256,192,47182,1,4,2:0:0:0:
256,192,47559,1,0,2:0:0:0:
256,192,47935,1,0,2:0:0:0:
256,192,48061,1,0,2:0:0:0:
256,192,48186,1,2,2:0:0:0:
256,192,48437,1,2,2:0:0:0:
256,192,48563,1,0,2:0:0:0:
256,192,48814,1,2,2:0:0:0:
256,192,48939,1,0,2:0:0:0:
256,192,49065,1,2,2:0:0:0:
250,188,49190,1,0,0:0:0:0:
256,192,49316,1,0,2:0:0:0:
256,192,49379,1,0,2:0:0:0:
256,192,49441,1,2,2:0:0:0:
256,192,49567,1,0,2:0:0:0:
256,192,49692,1,0,0:0:0:0:
256,192,49818,1,2,2:0:0:0:
256,192,49943,1,0,2:0:0:0:
251,194,50069,1,8,0:0:0:0:
256,192,50320,1,0,2:0:0:0:
256,192,50446,1,0,2:0:0:0:
256,192,50508,1,0,2:0:0:0:
256,192,50571,1,2,2:0:0:0:
256,192,50697,1,0,2:0:0:0:
256,192,50822,1,0,2:0:0:0:
256,192,50948,1,2,2:0:0:0:
256,192,51010,1,2,2:0:0:0:
256,192,51073,1,0,2:0:0:0:
256,192,51199,1,0,2:0:0:0:
256,192,51324,1,0,2:0:0:0:
256,192,51387,1,0,2:0:0:0:
256,192,51450,1,2,2:0:0:0:
256,192,51575,1,0,2:0:0:0:
256,192,51826,1,2,2:0:0:0:
256,192,51952,1,0,2:0:0:0:
256,192,52077,1,2,2:0:0:0:
256,192,52203,1,0,2:0:0:0:
256,192,52328,1,0,2:0:0:0:
256,192,52391,1,0,2:0:0:0:
256,192,52454,1,2,2:0:0:0:
256,192,52579,1,0,2:0:0:0:
256,192,52705,1,0,2:0:0:0:
256,192,52831,1,2,2:0:0:0:
256,192,52956,1,0,2:0:0:0:
256,192,53082,1,2,2:0:0:0:
256,192,53144,1,2,2:0:0:0:
256,192,53207,1,0,2:0:0:0:
256,192,53333,1,0,2:0:0:0:
256,192,53395,1,0,2:0:0:0:
256,192,53458,1,2,2:0:0:0:
256,192,53584,1,0,2:0:0:0:
256,192,53835,1,2,2:0:0:0:
256,192,53960,1,0,2:0:0:0:
256,192,54086,1,0,2:0:0:0:
256,192,54211,1,2,2:0:0:0:
256,192,54337,1,2,2:0:0:0:
256,192,54462,1,0,2:0:0:0:
256,192,54525,1,0,2:0:0:0:
256,192,54588,1,2,2:0:0:0:
256,192,54713,1,2,2:0:0:0:
248,174,54776,1,8,0:0:0:0:
256,192,54839,1,2,2:0:0:0:
250,186,54902,1,0,0:0:0:0:
256,192,54964,1,2,2:0:0:0:
250,186,55027,1,8,0:0:0:0:
256,192,55090,1,0,2:0:0:0:
250,186,55153,1,0,0:0:0:0:
256,192,55215,1,2,2:0:0:0:
256,192,55341,1,0,2:0:0:0:
256,192,55404,1,0,2:0:0:0:
256,192,55466,1,2,2:0:0:0:
256,192,55592,1,0,2:0:0:0:
256,192,55843,1,0,2:0:0:0:
256,192,55969,1,2,2:0:0:0:
256,192,56031,1,0,2:0:0:0:
256,192,56094,1,2,2:0:0:0:
256,192,56157,1,2,2:0:0:0:
256,192,56220,1,2,2:0:0:0:
256,192,56345,1,0,2:0:0:0:
256,192,56408,1,0,2:0:0:0:
256,192,56471,1,2,2:0:0:0:
256,192,56596,1,0,2:0:0:0:
256,192,56722,1,0,2:0:0:0:
256,192,56847,1,2,2:0:0:0:
256,192,56973,1,0,2:0:0:0:
256,192,57036,1,0,2:0:0:0:
256,192,57098,1,2,2:0:0:0:
256,192,57161,1,2,2:0:0:0:
256,192,57224,1,2,2:0:0:0:
256,192,57475,1,2,2:0:0:0:
256,192,57600,1,0,2:0:0:0:
256,192,57726,1,2,2:0:0:0:
256,192,57789,1,2,2:0:0:0:
256,192,57851,1,0,2:0:0:0:
256,192,57977,1,2,2:0:0:0:
256,192,58040,1,0,2:0:0:0:
256,192,58102,1,0,2:0:0:0:
256,192,58165,1,0,2:0:0:0:
256,192,58228,1,2,2:0:0:0:
256,192,58354,1,2,2:0:0:0:
256,192,58479,1,0,2:0:0:0:
256,192,58542,1,2,2:0:0:0:
256,192,58605,1,2,2:0:0:0:
256,192,58856,1,2,2:0:0:0:
256,192,58981,1,2,2:0:0:0:
256,192,59044,1,2,2:0:0:0:
256,192,59107,1,0,2:0:0:0:
256,192,59169,1,0,2:0:0:0:
256,192,59232,1,2,2:0:0:0:
256,192,59400,1,0,2:0:0:0:
256,192,59483,1,2,2:0:0:0:
256,192,59567,1,0,2:0:0:0:
256,192,59651,1,0,2:0:0:0:
256,192,59734,1,2,2:0:0:0:
256,192,59818,1,0,2:0:0:0:
256,192,59985,1,2,2:0:0:0:
256,192,60069,1,2,2:0:0:0:
256,192,60153,1,0,2:0:0:0:
256,192,60236,1,2,2:0:0:0:
256,192,60320,1,2,2:0:0:0:
256,192,60404,1,0,2:0:0:0:
256,192,60487,1,2,2:0:0:0:
256,192,60613,1,0,2:0:0:0:
256,192,60738,1,2,2:0:0:0:
256,192,60801,1,0,2:0:0:0:
256,192,60864,1,0,2:0:0:0:
256,192,60990,1,2,2:0:0:0:
256,192,61052,1,0,2:0:0:0:
256,192,61115,1,2,2:0:0:0:
256,192,61178,1,0,2:0:0:0:
256,192,61241,1,2,2:0:0:0:
256,192,61408,1,0,2:0:0:0:
256,192,61492,1,2,2:0:0:0:
256,192,61575,1,0,2:0:0:0:
256,192,61659,1,0,2:0:0:0:
256,192,61743,1,2,2:0:0:0:
256,192,61868,1,2,2:0:0:0:
256,192,61994,1,0,2:0:0:0:
256,192,62077,1,0,2:0:0:0:
256,192,62161,1,0,2:0:0:0:
256,192,62245,1,2,2:0:0:0:
256,192,62307,1,2,2:0:0:0:
256,192,62370,1,2,2:0:0:0:
256,192,62496,1,2,2:0:0:0:
256,192,62559,1,0,2:0:0:0:
256,192,62621,1,2,2:0:0:0:
256,192,62747,1,0,2:0:0:0:
256,192,62872,1,0,2:0:0:0:
256,192,62998,1,2,2:0:0:0:
256,192,63082,1,2,2:0:0:0:
256,192,63165,1,0,2:0:0:0:
256,192,63249,1,2,2:0:0:0:
256,192,63374,1,2,2:0:0:0:
256,192,63437,1,2,2:0:0:0:
256,192,63500,1,0,2:0:0:0:
256,192,63625,1,2,2:0:0:0:
256,192,63877,1,0,2:0:0:0:
256,192,64002,1,2,2:0:0:0:
256,192,64065,1,0,2:0:0:0:
256,192,64128,1,2,2:0:0:0:
256,192,64253,1,2,2:0:0:0:
256,192,64316,1,2,2:0:0:0:
256,192,64379,1,2,2:0:0:0:
256,192,64441,1,2,2:0:0:0:
256,192,64504,1,0,2:0:0:0:
256,192,64630,1,2,2:0:0:0:
256,192,64692,1,2,2:0:0:0:
256,192,64755,1,0,2:0:0:0:
256,192,64818,1,0,2:0:0:0:
256,192,64881,1,0,2:0:0:0:
256,192,65006,1,2,2:0:0:0:
256,192,65132,1,2,2:0:0:0:
256,192,65257,1,0,2:0:0:0:
256,192,65508,1,2,2:0:0:0:
256,192,65634,1,0,2:0:0:0:
256,192,65697,1,0,2:0:0:0:
256,192,65759,1,2,2:0:0:0:
256,192,65885,1,0,2:0:0:0:
256,192,65948,1,0,2:0:0:0:
256,192,66010,1,2,2:0:0:0:
256,192,66073,1,0,2:0:0:0:
256,192,66136,1,2,2:0:0:0:
256,192,66199,1,2,2:0:0:0:
256,192,66261,1,0,2:0:0:0:
256,192,66387,1,0,2:0:0:0:
256,192,66513,1,2,2:0:0:0:
256,192,66575,1,2,2:0:0:0:
256,192,66638,1,0,2:0:0:0:
256,192,66764,1,2,2:0:0:0:
256,192,66889,1,2,2:0:0:0:
256,192,67015,1,0,2:0:0:0:
256,192,67077,1,2,2:0:0:0:
256,192,67140,1,0,2:0:0:0:
256,192,67203,1,0,2:0:0:0:
256,192,67266,1,2,2:0:0:0:
256,192,67391,1,2,2:0:0:0:
256,192,67517,1,0,2:0:0:0:
256,192,67600,1,8,2:0:0:0:
256,192,67684,1,2,2:0:0:0:
256,192,67768,1,0,2:0:0:0:
256,192,68019,1,0,2:0:0:0:
256,192,68102,1,0,2:0:0:0:
256,192,68186,1,0,2:0:0:0:
256,192,68270,1,2,2:0:0:0:
256,192,68395,1,2,2:0:0:0:
256,192,68458,1,2,2:0:0:0:
256,192,68521,1,0,2:0:0:0:
256,192,68646,1,2,2:0:0:0:
256,192,68772,1,2,2:0:0:0:
256,192,68856,1,2,2:0:0:0:
256,192,68939,1,0,2:0:0:0:
256,192,69023,1,2,2:0:0:0:
256,192,69086,1,8,2:0:0:0:
256,192,69148,1,0,2:0:0:0:
256,192,69211,1,0,2:0:0:0:
256,192,69274,1,2,2:0:0:0:
256,192,69400,1,0,2:0:0:0:
256,192,69525,1,2,2:0:0:0:
256,192,69609,1,0,2:0:0:0:
256,192,69692,1,0,2:0:0:0:
256,192,69776,1,2,2:0:0:0:
256,192,69902,1,2,2:0:0:0:
256,192,70027,1,0,2:0:0:0:
256,192,70090,1,0,2:0:0:0:
256,192,70153,1,2,2:0:0:0:
256,192,70278,1,2,2:0:0:0:
256,192,70404,1,0,2:0:0:0:
256,192,70529,1,2,2:0:0:0:
256,192,70592,1,2,2:0:0:0:
256,192,70655,1,2,2:0:0:0:
256,192,70780,1,0,2:0:0:0:
256,192,70906,1,0,2:0:0:0:
256,192,71031,1,2,2:0:0:0:
256,192,71094,1,0,2:0:0:0:
256,192,71157,1,2,2:0:0:0:
256,192,71220,1,2,2:0:0:0:
256,192,71282,1,4,2:0:0:0:
256,192,71408,12,0,74169,2:0:0:0:
256,192,74295,5,0,0:0:0:0:
256,192,75299,1,4,2:0:0:0:
256,192,75425,1,0,2:0:0:0:
256,192,75487,1,0,2:0:0:0:
256,192,75550,1,2,2:0:0:0:
256,192,75676,1,8,2:0:0:0:
256,192,75801,1,0,2:0:0:0:
256,192,75864,1,8,2:0:0:0:
256,192,75927,1,0,2:0:0:0:
256,192,76052,1,0,2:0:0:0:
256,192,76178,1,2,2:0:0:0:
256,192,76303,1,0,2:0:0:0:
256,192,76429,1,2,2:0:0:0:
256,192,76492,1,2,2:0:0:0:
256,192,76554,1,0,2:0:0:0:
256,192,76617,1,2,2:0:0:0:
256,192,76680,1,2,2:0:0:0:
256,192,76805,1,0,2:0:0:0:
256,192,76931,1,2,2:0:0:0:
256,192,76994,1,2,2:0:0:0:
256,192,77056,1,0,2:0:0:0:
256,192,77182,1,8,2:0:0:0:
256,192,77307,1,8,2:0:0:0:
256,192,77433,1,8,2:0:0:0:
256,192,77496,1,8,2:0:0:0:
256,192,77559,1,2,2:0:0:0:
256,192,77684,1,0,2:0:0:0:
256,192,77810,1,0,2:0:0:0:
256,192,77872,1,0,2:0:0:0:
256,192,77935,1,2,2:0:0:0:
256,192,78061,1,0,2:0:0:0:
256,192,78186,1,0,2:0:0:0:
256,192,78312,1,0,2:0:0:0:
256,192,78437,1,0,2:0:0:0:
256,192,78563,1,2,2:0:0:0:
256,192,78625,1,2,2:0:0:0:
256,192,78688,1,2,2:0:0:0:
256,192,78814,1,0,2:0:0:0:
256,192,78939,1,0,2:0:0:0:
256,192,79065,1,2,2:0:0:0:
256,192,79128,1,2,2:0:0:0:
256,192,79190,1,0,2:0:0:0:
256,192,79316,1,0,2:0:0:0:
256,192,79441,1,8,2:0:0:0:
256,192,79504,1,0,2:0:0:0:
256,192,79567,1,2,2:0:0:0:
256,192,79692,1,0,2:0:0:0:
256,192,79818,1,8,2:0:0:0:
256,192,79881,1,8,2:0:0:0:
256,192,79943,1,2,2:0:0:0:
256,192,80069,1,0,2:0:0:0:
256,192,80195,1,2,2:0:0:0:
256,192,80320,1,0,2:0:0:0:
256,192,80446,1,2,2:0:0:0:
256,192,80508,1,2,2:0:0:0:
256,192,80571,1,0,2:0:0:0:
256,192,80634,1,2,2:0:0:0:
256,192,80697,1,2,2:0:0:0:
256,192,80822,1,0,2:0:0:0:
253,186,80885,1,8,0:0:0:0:
256,192,80948,1,2,2:0:0:0:
256,192,81010,1,0,2:0:0:0:
256,192,81073,1,8,2:0:0:0:
256,192,81199,1,0,2:0:0:0:
256,192,81324,1,0,2:0:0:0:
256,192,81450,1,8,2:0:0:0:
256,192,81513,1,8,2:0:0:0:
256,192,81575,1,2,2:0:0:0:
256,192,81701,1,0,2:0:0:0:
256,192,81826,1,8,2:0:0:0:
256,192,81889,1,8,2:0:0:0:
256,192,81952,1,2,2:0:0:0:
256,192,82077,1,0,2:0:0:0:
256,192,82203,1,0,2:0:0:0:
256,192,82328,1,2,2:0:0:0:
256,192,82391,1,2,2:0:0:0:
256,192,82517,1,0,2:0:0:0:
256,192,82579,1,2,2:0:0:0:
256,192,82642,1,2,2:0:0:0:
256,192,82705,1,2,2:0:0:0:
256,192,82831,1,0,2:0:0:0:
256,192,83082,1,0,2:0:0:0:
256,192,83144,1,0,2:0:0:0:
256,192,83207,1,2,2:0:0:0:
256,192,83270,1,8,2:0:0:0:
256,192,83333,1,0,2:0:0:0:
256,192,83458,1,0,2:0:0:0:
256,192,83584,1,0,2:0:0:0:
256,192,83709,1,0,2:0:0:0:
256,192,83835,1,0,2:0:0:0:
256,192,83960,1,2,2:0:0:0:
256,192,84086,1,2,2:0:0:0:
256,192,84148,1,2,2:0:0:0:
256,192,84211,1,2,2:0:0:0:
256,192,84274,1,2,2:0:0:0:
256,192,84337,1,0,2:0:0:0:
256,192,84588,1,2,2:0:0:0:
256,192,84713,1,0,2:0:0:0:
256,192,84839,1,2,2:0:0:0:
256,192,84923,1,0,2:0:0:0:
256,192,85006,1,0,2:0:0:0:
256,192,85090,1,8,2:0:0:0:
256,192,85174,1,0,2:0:0:0:
256,192,85257,1,0,2:0:0:0:
256,192,85341,1,2,2:0:0:0:
256,192,85466,1,0,2:0:0:0:
256,192,85529,1,0,2:0:0:0:
256,192,85592,1,2,2:0:0:0:
256,192,85718,1,0,2:0:0:0:
256,192,85843,1,2,2:0:0:0:
256,192,85906,1,2,2:0:0:0:
256,192,85969,1,2,2:0:0:0:
256,192,86031,1,2,2:0:0:0:
256,192,86094,1,0,2:0:0:0:
263,186,86157,1,0,0:0:0:0:
256,192,86220,1,0,2:0:0:0:
256,192,86282,1,0,0:0:0:0:
256,192,86345,1,2,2:0:0:0:
256,192,86471,1,0,2:0:0:0:
256,192,86533,1,2,2:0:0:0:
256,192,86596,1,2,2:0:0:0:
256,192,86722,1,0,2:0:0:0:
256,192,86847,1,2,2:0:0:0:
256,192,87036,1,2,2:0:0:0:
256,192,87098,1,0,2:0:0:0:
256,192,87224,1,2,2:0:0:0:
256,192,87287,1,2,2:0:0:0:
256,192,87349,1,0,2:0:0:0:
256,192,87600,1,0,2:0:0:0:
256,192,87851,1,2,2:0:0:0:
256,192,87977,1,0,2:0:0:0:
256,192,88102,1,2,2:0:0:0:
256,192,88165,1,2,2:0:0:0:
256,192,88228,1,2,2:0:0:0:
256,192,88291,1,2,2:0:0:0:
256,192,88354,1,0,2:0:0:0:
256,192,88479,1,0,2:0:0:0:
256,192,88542,1,2,2:0:0:0:
256,192,88605,1,0,2:0:0:0:
256,192,88730,1,2,2:0:0:0:
256,192,88856,1,0,2:0:0:0:
256,192,88981,1,0,2:0:0:0:
256,192,89107,1,2,2:0:0:0:
256,192,89190,1,2,2:0:0:0:
256,192,89274,1,2,2:0:0:0:
256,192,89358,1,0,2:0:0:0:
256,192,89483,1,2,2:0:0:0:
256,192,89609,1,0,2:0:0:0:
256,192,89672,1,0,2:0:0:0:
256,192,89734,1,0,2:0:0:0:
256,192,89860,1,2,2:0:0:0:
256,192,89985,1,2,2:0:0:0:
256,192,90111,1,0,2:0:0:0:
256,192,90174,1,0,2:0:0:0:
256,192,90236,1,0,2:0:0:0:
256,192,90299,1,0,2:0:0:0:
256,192,90362,1,2,2:0:0:0:
256,192,90613,1,0,2:0:0:0:
256,192,90864,1,0,2:0:0:0:
256,192,90927,1,8,2:0:0:0:
256,192,90990,1,8,2:0:0:0:
256,192,91115,1,0,2:0:0:0:
256,192,91178,1,0,2:0:0:0:
256,192,91241,1,2,2:0:0:0:
256,192,91303,1,2,2:0:0:0:
256,192,91366,1,0,2:0:0:0:
256,210,91492,1,0,0:0:0:0:
256,192,91617,1,2,2:0:0:0:
256,192,91743,1,0,2:0:0:0:
256,192,91868,1,2,2:0:0:0:
256,192,91931,1,2,2:0:0:0:
256,192,91994,1,0,2:0:0:0:
256,192,92119,1,2,2:0:0:0:
256,192,92182,1,0,2:0:0:0:
256,192,92245,1,0,2:0:0:0:
256,192,92307,1,0,2:0:0:0:
256,192,92370,1,2,2:0:0:0:
256,192,92496,1,0,2:0:0:0:
256,192,92621,1,2,2:0:0:0:
256,192,92684,1,2,2:0:0:0:
256,192,92747,1,8,2:0:0:0:
256,192,92872,1,0,2:0:0:0:
256,192,92935,1,2,2:0:0:0:
256,192,92998,1,0,2:0:0:0:
256,192,93123,1,2,2:0:0:0:
256,192,93186,1,2,2:0:0:0:
256,192,93249,1,0,2:0:0:0:
256,192,93312,1,2,2:0:0:0:
256,192,93374,1,0,2:0:0:0:
250,189,93500,1,0,0:0:0:0:
256,192,93625,1,2,2:0:0:0:
256,192,93751,1,0,2:0:0:0:
256,192,93877,1,2,2:0:0:0:
256,192,93939,1,2,2:0:0:0:
256,192,94002,1,0,2:0:0:0:
256,192,94128,1,2,2:0:0:0:
256,192,94190,1,2,2:0:0:0:
256,192,94253,1,0,2:0:0:0:
256,192,94316,1,0,2:0:0:0:
256,192,94379,1,2,2:0:0:0:
256,192,94504,1,0,2:0:0:0:
256,192,94630,1,2,2:0:0:0:
256,192,94692,1,8,2:0:0:0:
256,192,94755,1,2,2:0:0:0:
256,192,94881,1,0,2:0:0:0:
256,192,95006,1,0,2:0:0:0:
256,192,95069,1,0,2:0:0:0:
256,192,95132,1,2,2:0:0:0:
256,192,95195,1,0,2:0:0:0:
256,192,95257,1,2,2:0:0:0:
256,192,95383,1,0,2:0:0:0:
256,192,95508,1,0,2:0:0:0:
256,192,95634,1,2,2:0:0:0:
256,192,95697,1,2,2:0:0:0:
256,192,95759,1,0,2:0:0:0:
256,192,95885,1,2,2:0:0:0:
256,192,96010,1,0,2:0:0:0:
256,192,96073,1,0,2:0:0:0:
256,192,96136,1,2,2:0:0:0:
256,192,96199,1,0,2:0:0:0:
256,192,96261,1,0,2:0:0:0:
256,192,96324,1,0,2:0:0:0:
256,192,96387,1,2,2:0:0:0:
256,192,96513,1,0,2:0:0:0:
256,192,96638,1,2,2:0:0:0:
256,192,96701,1,2,2:0:0:0:
256,192,96764,1,8,2:0:0:0:
256,192,96889,1,0,2:0:0:0:
256,192,96952,1,0,2:0:0:0:
256,192,97015,1,2,2:0:0:0:
256,192,97077,1,0,2:0:0:0:
256,192,97140,1,2,2:0:0:0:
256,192,97266,1,0,2:0:0:0:
256,192,97391,1,2,2:0:0:0:
256,192,97517,1,2,2:0:0:0:
256,192,97579,1,2,2:0:0:0:
256,192,97642,1,0,2:0:0:0:
256,192,97768,1,2,2:0:0:0:
256,192,97893,1,0,2:0:0:0:
256,192,98019,1,0,2:0:0:0:
256,192,98082,1,0,2:0:0:0:
256,192,98144,1,2,2:0:0:0:
256,192,98207,1,2,2:0:0:0:
256,192,98270,1,2,2:0:0:0:
256,192,98333,1,2,2:0:0:0:
256,192,98395,1,0,2:0:0:0:
256,192,98521,1,0,2:0:0:0:
256,192,98646,1,2,2:0:0:0:
256,192,98709,1,0,2:0:0:0:
256,192,98772,1,0,2:0:0:0:
256,192,98897,1,2,2:0:0:0:
256,192,99148,1,2,2:0:0:0:
256,192,99211,1,2,2:0:0:0:
256,192,99274,1,0,2:0:0:0:
256,192,99400,1,2,2:0:0:0:
256,192,99525,1,0,2:0:0:0:
256,192,99588,1,0,2:0:0:0:
256,192,99651,1,0,2:0:0:0:
256,192,99776,1,2,2:0:0:0:
256,192,99839,1,2,2:0:0:0:
256,192,99902,1,0,2:0:0:0:
256,192,99964,1,0,2:0:0:0:
256,192,100027,1,0,2:0:0:0:
256,192,100153,1,2,2:0:0:0:
256,192,100278,1,0,2:0:0:0:
256,192,100404,1,2,2:0:0:0:
256,192,100466,1,2,2:0:0:0:
256,192,100529,1,2,2:0:0:0:
256,192,100592,1,0,2:0:0:0:
256,192,100655,1,0,2:0:0:0:
256,192,100780,1,2,2:0:0:0:
256,192,100906,1,0,2:0:0:0:
256,192,100969,1,0,2:0:0:0:
256,192,101031,1,0,2:0:0:0:
256,192,101157,1,2,2:0:0:0:
256,192,101282,1,0,2:0:0:0:
256,192,101408,1,0,2:0:0:0:
256,192,101533,1,2,2:0:0:0:
256,192,101596,1,2,2:0:0:0:
256,192,101659,1,0,2:0:0:0:
256,192,101784,1,2,2:0:0:0:
256,192,101910,1,0,2:0:0:0:
256,192,101973,1,0,2:0:0:0:
256,192,102036,1,0,2:0:0:0:
256,192,102161,1,2,2:0:0:0:
256,192,102287,1,0,2:0:0:0:
256,192,102349,1,0,2:0:0:0:
256,192,102412,1,2,2:0:0:0:
256,192,102538,1,0,2:0:0:0:
256,192,102600,1,0,2:0:0:0:
256,192,102663,1,2,2:0:0:0:
256,192,102726,1,2,2:0:0:0:
256,192,102789,1,2,2:0:0:0:
256,192,102914,1,0,2:0:0:0:
256,192,103040,1,2,2:0:0:0:
256,192,103102,1,0,2:0:0:0:
256,192,103165,1,2,2:0:0:0:
256,192,103228,1,2,2:0:0:0:
256,192,103291,1,0,2:0:0:0:
256,192,103416,1,2,2:0:0:0:
256,192,103542,1,2,2:0:0:0:
256,192,103605,1,2,2:0:0:0:
256,192,103667,1,0,2:0:0:0:
256,192,103793,1,2,2:0:0:0:
256,192,103918,1,2,2:0:0:0:
256,192,103981,1,0,2:0:0:0:
256,192,104044,1,0,2:0:0:0:
256,192,104169,1,2,2:0:0:0:
256,192,104232,1,0,2:0:0:0:
256,192,104295,1,2,2:0:0:0:
256,192,104358,1,2,2:0:0:0:
256,192,104420,1,0,2:0:0:0:
256,192,104546,1,0,2:0:0:0:
256,192,104672,1,2,2:0:0:0:
256,192,104797,1,0,2:0:0:0:
256,192,104860,1,0,2:0:0:0:
256,192,104923,1,2,2:0:0:0:
256,192,104985,1,0,2:0:0:0:
256,192,105048,1,0,2:0:0:0:
256,192,105111,1,0,2:0:0:0:
256,192,105174,1,2,2:0:0:0:
256,192,105236,1,2,2:0:0:0:
256,192,105299,1,0,2:0:0:0:
256,192,105362,1,0,2:0:0:0:
256,192,105425,1,2,2:0:0:0:
256,192,105676,1,0,2:0:0:0:
256,192,105801,1,2,2:0:0:0:
256,192,105864,1,0,2:0:0:0:
256,192,105927,1,2,2:0:0:0:
256,192,106052,1,0,2:0:0:0:
256,192,106115,1,0,2:0:0:0:
256,192,106178,1,2,2:0:0:0:
256,192,106241,1,2,2:0:0:0:
256,192,106303,1,2,2:0:0:0:
256,192,106366,1,0,2:0:0:0:
256,192,106429,1,2,2:0:0:0:
256,192,106680,1,2,2:0:0:0:
256,192,106805,1,2,2:0:0:0:
256,192,106931,1,0,2:0:0:0:
256,192,106994,1,0,2:0:0:0:
256,192,107056,1,0,2:0:0:0:
256,192,107119,1,0,2:0:0:0:
256,192,107182,1,2,2:0:0:0:
256,192,107245,1,2,2:0:0:0:
256,192,107307,1,2,2:0:0:0:
256,192,107370,1,2,2:0:0:0:
256,192,107433,1,4,2:0:0:0:
256,192,107559,12,6,109441,2:0:0:0:
256,192,110446,5,0,2:0:0:0:
256,192,111450,1,4,0:0:0:0:
256,192,112454,1,2,2:0:0:0:
256,192,112579,1,2,2:0:0:0:
256,192,112642,1,2,2:0:0:0:
256,192,112705,1,0,2:0:0:0:
256,192,112831,1,0,2:0:0:0:
256,192,112893,1,0,2:0:0:0:
256,192,112956,1,2,2:0:0:0:
256,192,113082,1,0,2:0:0:0:
256,192,113144,1,0,2:0:0:0:
256,192,113207,1,2,2:0:0:0:
256,192,113333,1,0,2:0:0:0:
256,192,113395,1,0,2:0:0:0:
256,192,113458,1,2,2:0:0:0:
256,192,113584,1,2,2:0:0:0:
256,192,113646,1,2,2:0:0:0:
256,192,113709,1,0,2:0:0:0:
256,192,113835,1,2,2:0:0:0:
256,192,113960,1,0,2:0:0:0:
256,192,114086,1,2,2:0:0:0:
256,192,114211,1,2,2:0:0:0:
256,192,114337,1,0,2:0:0:0:
256,192,114462,1,2,2:0:0:0:
252,186,114588,1,8,0:0:0:0:
256,192,114713,1,0,2:0:0:0:
256,192,114839,1,0,2:0:0:0:
256,192,114964,1,2,2:0:0:0:
256,192,115048,1,2,2:0:0:0:
256,192,115132,1,2,2:0:0:0:
256,192,115215,1,0,2:0:0:0:
252,185,115341,1,8,0:0:0:0:
256,192,115466,1,4,0:0:0:0:
256,192,116471,1,0,2:0:0:0:
256,192,116596,1,0,2:0:0:0:
256,192,116659,1,0,2:0:0:0:
256,192,116722,1,2,2:0:0:0:
256,192,116847,1,0,2:0:0:0:
256,192,116973,1,2,2:0:0:0:
256,192,117036,1,2,2:0:0:0:
256,192,117098,1,0,2:0:0:0:
256,192,117224,1,2,2:0:0:0:
256,192,117287,1,2,2:0:0:0:
256,192,117349,1,2,2:0:0:0:
256,192,117475,1,0,2:0:0:0:
256,192,117538,1,0,2:0:0:0:
256,192,117600,1,2,2:0:0:0:
256,192,117663,1,2,2:0:0:0:
256,192,117726,1,0,2:0:0:0:
256,192,117851,1,0,2:0:0:0:
256,192,117977,1,2,2:0:0:0:
256,192,118102,1,0,2:0:0:0:
256,192,118165,1,0,2:0:0:0:
256,192,118228,1,2,2:0:0:0:
256,192,118354,1,0,2:0:0:0:
256,192,118416,1,0,2:0:0:0:
256,192,118479,1,0,2:0:0:0:
256,192,118605,1,2,2:0:0:0:
256,192,118730,1,0,2:0:0:0:
256,192,118856,1,2,2:0:0:0:
256,192,118918,1,2,2:0:0:0:
256,192,118981,1,2,2:0:0:0:
256,192,119107,1,0,2:0:0:0:
256,192,119232,1,2,2:0:0:0:
256,192,119295,1,0,2:0:0:0:
256,192,119358,1,2,2:0:0:0:
259,195,119483,1,4,0:0:0:0:
256,192,120487,1,2,2:0:0:0:
256,192,120613,1,2,2:0:0:0:
256,192,120676,1,2,2:0:0:0:
256,192,120738,1,0,2:0:0:0:
256,192,120864,1,0,2:0:0:0:
256,192,120927,1,0,2:0:0:0:
256,192,120990,1,2,2:0:0:0:
256,192,121115,1,2,2:0:0:0:
256,192,121178,1,0,2:0:0:0:
256,192,121241,1,2,2:0:0:0:
256,192,121366,1,0,2:0:0:0:
256,192,121429,1,0,2:0:0:0:
256,192,121492,1,2,2:0:0:0:
256,192,121617,1,0,2:0:0:0:
256,192,121680,1,0,2:0:0:0:
256,192,121743,1,0,2:0:0:0:
256,192,121868,1,2,2:0:0:0:
256,192,121931,1,2,2:0:0:0:
256,192,121994,1,0,2:0:0:0:
256,192,122056,1,0,0:0:0:0:
256,192,122119,1,2,2:0:0:0:
256,192,122245,1,2,2:0:0:0:
256,192,122370,1,0,2:0:0:0:
256,192,122433,1,0,2:0:0:0:
256,192,122496,1,2,2:0:0:0:
256,192,122621,1,0,2:0:0:0:
256,192,122747,1,2,2:0:0:0:
256,192,122872,1,0,2:0:0:0:
256,192,122935,1,0,2:0:0:0:
256,192,122998,1,2,2:0:0:0:
256,192,123123,1,2,2:0:0:0:
256,192,123186,1,2,2:0:0:0:
256,192,123249,1,0,2:0:0:0:
256,192,123312,1,0,2:0:0:0:
256,192,123374,1,2,2:0:0:0:
256,192,123437,1,8,2:0:0:0:
256,192,123500,1,4,0:0:0:0:
256,192,124630,12,0,126513,2:0:0:0:
256,192,127517,5,6,2:0:0:0:
256,192,127893,1,4,2:0:0:0:
256,192,128270,1,4,2:0:0:0:
256,192,128395,1,8,2:0:0:0:
256,192,128521,1,4,2:0:0:0:
256,192,128897,1,4,2:0:0:0:
256,192,129274,1,12,2:0:0:0:
256,192,129400,1,0,2:0:0:0:
256,192,129525,1,4,2:0:0:0:
256,192,129902,1,4,2:0:0:0:
256,192,130278,1,4,2:0:0:0:
256,192,130404,1,0,2:0:0:0:
256,192,130529,1,4,2:0:0:0:
256,192,130780,1,6,2:0:0:0:
256,192,131031,1,4,2:0:0:0:
256,192,131282,1,0,2:0:0:0:
256,192,131408,1,0,2:0:0:0:
256,192,131533,1,6,2:0:0:0:
256,192,131910,1,4,2:0:0:0:
256,192,132287,1,4,2:0:0:0:
256,192,132412,1,8,2:0:0:0:
256,192,132538,1,4,2:0:0:0:
256,192,132914,1,12,2:0:0:0:
256,192,133040,1,0,2:0:0:0:
256,192,133291,1,4,2:0:0:0:
256,192,133416,1,0,2:0:0:0:
256,192,133542,1,6,2:0:0:0:
256,192,133793,1,0,2:0:0:0:
256,192,134044,1,2,2:0:0:0:
256,192,134169,1,2,2:0:0:0:
251,189,134232,1,8,0:0:0:0:
256,192,134295,1,0,2:0:0:0:
256,192,134420,1,0,2:0:0:0:
256,192,134546,1,6,2:0:0:0:
256,192,134672,1,0,2:0:0:0:
256,192,134797,1,2,2:0:0:0:
256,192,134860,1,2,2:0:0:0:
256,192,134923,1,2,2:0:0:0:
256,192,135048,1,0,2:0:0:0:
256,192,135174,1,0,2:0:0:0:
256,192,135299,1,8,2:0:0:0:
256,192,135425,1,0,2:0:0:0:
256,192,135550,1,2,2:0:0:0:
256,192,135613,1,2,2:0:0:0:
256,192,135676,1,2,2:0:0:0:
256,192,135738,1,2,2:0:0:0:
256,192,135801,1,0,2:0:0:0:
256,192,136052,1,0,2:0:0:0:
256,192,136178,1,2,2:0:0:0:
256,192,136303,1,0,2:0:0:0:
256,192,136429,1,0,2:0:0:0:
256,192,136554,1,0,2:0:0:0:
256,192,136680,1,0,2:0:0:0:
256,192,136805,1,2,2:0:0:0:
256,192,136868,1,8,2:0:0:0:
256,192,136931,1,0,2:0:0:0:
256,192,137056,1,2,2:0:0:0:
256,192,137119,1,0,2:0:0:0:
256,192,137182,1,2,2:0:0:0:
256,192,137307,1,0,2:0:0:0:
256,192,137433,1,8,2:0:0:0:
256,192,137496,1,8,2:0:0:0:
256,192,137559,1,0,2:0:0:0:
256,192,137684,1,0,2:0:0:0:
256,160,137747,1,0,0:0:0:0:
256,192,137810,1,2,2:0:0:0:
256,192,137935,1,0,2:0:0:0:
256,192,138061,1,0,2:0:0:0:
256,192,138123,1,0,2:0:0:0:
256,192,138186,1,2,2:0:0:0:
256,192,138312,1,0,2:0:0:0:
256,192,138437,1,8,2:0:0:0:
256,192,138563,1,0,2:0:0:0:
256,192,138688,1,0,2:0:0:0:
256,192,138814,1,2,2:0:0:0:
256,192,138877,1,2,2:0:0:0:
256,192,138939,1,2,2:0:0:0:
256,192,139065,1,0,2:0:0:0:
256,192,139190,1,8,2:0:0:0:
256,192,139316,1,2,2:0:0:0:
256,192,139379,1,0,2:0:0:0:
256,192,139441,1,8,2:0:0:0:
256,192,139567,1,2,2:0:0:0:
256,192,139692,1,0,2:0:0:0:
256,192,139755,1,0,2:0:0:0:
256,192,139818,1,2,2:0:0:0:
256,192,139943,1,0,2:0:0:0:
256,192,140069,1,0,2:0:0:0:
256,192,140195,1,2,2:0:0:0:
256,192,140257,1,8,0:0:0:0:
256,192,140320,1,0,2:0:0:0:
256,192,140446,1,0,2:0:0:0:
256,192,140571,1,0,2:0:0:0:
256,192,140697,1,2,2:0:0:0:
256,192,140759,1,0,2:0:0:0:
256,192,140822,1,2,2:0:0:0:
256,192,140948,1,0,2:0:0:0:
256,192,141073,1,0,2:0:0:0:
256,192,141136,1,0,0:0:0:0:
256,192,141199,1,2,2:0:0:0:
256,192,141261,1,2,2:0:0:0:
256,192,141324,1,0,2:0:0:0:
256,192,141450,1,2,2:0:0:0:
256,192,141513,1,2,2:0:0:0:
256,192,141575,1,2,2:0:0:0:
256,192,141701,1,0,2:0:0:0:
256,192,141826,1,2,2:0:0:0:
256,192,141952,1,0,2:0:0:0:
256,192,142077,1,0,2:0:0:0:
256,192,142140,1,0,2:0:0:0:
256,192,142203,1,2,2:0:0:0:
256,192,142328,1,0,2:0:0:0:
256,192,142454,1,0,2:0:0:0:
256,192,142579,1,2,2:0:0:0:
256,192,142705,1,0,2:0:0:0:
256,192,142768,1,0,2:0:0:0:
256,192,142831,1,2,2:0:0:0:
256,192,142893,1,2,2:0:0:0:
256,192,142956,1,2,2:0:0:0:
256,192,143019,1,2,2:0:0:0:
256,192,143082,1,0,2:0:0:0:
256,192,143207,1,8,2:0:0:0:
256,192,143333,1,0,2:0:0:0:
256,192,143395,1,8,2:0:0:0:
256,192,143458,1,0,2:0:0:0:
256,192,143521,1,0,2:0:0:0:
256,192,143584,1,2,2:0:0:0:
256,192,143709,1,0,2:0:0:0:
256,192,143772,1,0,2:0:0:0:
256,192,143835,1,2,2:0:0:0:
256,192,143960,1,0,2:0:0:0:
256,192,144086,1,2,2:0:0:0:
256,192,144148,1,2,2:0:0:0:
256,192,144211,1,2,2:0:0:0:
256,192,144337,1,0,2:0:0:0:
256,192,144462,1,8,2:0:0:0:
256,192,144588,1,0,2:0:0:0:
256,192,144651,1,0,2:0:0:0:
256,192,144713,1,2,2:0:0:0:
256,192,144776,1,0,2:0:0:0:
256,192,144839,1,2,2:0:0:0:
256,192,144902,1,2,2:0:0:0:
256,192,144964,1,8,2:0:0:0:
256,192,145090,1,2,2:0:0:0:
256,192,145153,1,0,2:0:0:0:
256,192,145215,1,0,2:0:0:0:
256,192,145278,1,0,2:0:0:0:
256,192,145341,1,2,2:0:0:0:
256,192,145466,1,2,2:0:0:0:
256,192,145592,1,0,2:0:0:0:
256,192,145676,1,0,2:0:0:0:
256,192,145759,1,0,2:0:0:0:
256,192,145843,1,8,2:0:0:0:
256,192,145927,1,8,2:0:0:0:
256,192,146010,1,8,2:0:0:0:
256,192,146094,1,0,2:0:0:0:
256,192,146178,1,2,2:0:0:0:
256,192,146261,1,8,2:0:0:0:
256,192,146345,1,0,2:0:0:0:
256,192,146429,1,0,2:0:0:0:
256,192,146513,1,0,2:0:0:0:
256,192,146596,1,2,2:0:0:0:
256,192,146722,1,0,2:0:0:0:
256,192,146784,1,0,2:0:0:0:
256,192,146847,1,2,2:0:0:0:
256,192,146910,1,0,2:0:0:0:
256,192,146973,1,0,2:0:0:0:
256,192,147036,1,0,2:0:0:0:
256,192,147098,1,2,2:0:0:0:
256,192,147224,1,0,2:0:0:0:
256,192,147287,1,0,2:0:0:0:
256,192,147349,1,2,2:0:0:0:
256,192,147412,1,8,2:0:0:0:
256,192,147475,1,2,2:0:0:0:
256,192,147538,1,2,2:0:0:0:
256,192,147600,1,0,2:0:0:0:
256,192,147851,1,2,2:0:0:0:
256,192,147977,1,0,2:0:0:0:
256,192,148102,1,0,2:0:0:0:
256,192,148165,1,0,2:0:0:0:
256,192,148228,1,2,2:0:0:0:
256,192,148354,1,0,2:0:0:0:
256,192,148479,1,0,2:0:0:0:
256,192,148605,1,2,2:0:0:0:
256,192,148667,1,2,2:0:0:0:
256,192,148730,1,2,2:0:0:0:
256,192,148793,1,8,2:0:0:0:
256,192,148856,1,0,2:0:0:0:
256,192,148918,1,0,2:0:0:0:
256,192,148981,1,0,2:0:0:0:
256,192,149107,1,2,2:0:0:0:
256,192,149169,1,0,2:0:0:0:
256,192,149232,1,0,2:0:0:0:
256,192,149295,1,2,2:0:0:0:
256,192,149358,1,2,2:0:0:0:
256,192,149483,1,0,2:0:0:0:
256,192,149609,1,8,2:0:0:0:
256,192,149692,1,8,2:0:0:0:
256,192,149776,1,8,2:0:0:0:
256,192,149860,1,0,2:0:0:0:
256,192,149943,1,0,2:0:0:0:
256,192,150027,1,0,2:0:0:0:
256,192,150111,1,2,2:0:0:0:
256,192,150195,1,2,2:0:0:0:
256,192,150278,1,2,2:0:0:0:
256,192,150362,1,8,2:0:0:0:
256,192,150446,1,8,2:0:0:0:
256,192,150529,1,0,2:0:0:0:
256,192,150613,1,2,2:0:0:0:
256,192,150739,1,0,2:0:0:0:
256,192,150801,1,0,2:0:0:0:
256,192,150864,1,2,2:0:0:0:
256,192,150927,1,0,2:0:0:0:
256,192,150990,1,0,2:0:0:0:
256,192,151053,1,0,2:0:0:0:
256,192,151115,1,2,2:0:0:0:
256,192,151241,1,0,2:0:0:0:
256,192,151304,1,0,2:0:0:0:
256,192,151366,1,2,2:0:0:0:
256,192,151429,1,2,2:0:0:0:
256,192,151492,1,0,2:0:0:0:
256,192,151554,1,0,2:0:0:0:
256,192,151617,1,2,2:0:0:0:
256,192,151868,1,2,2:0:0:0:
256,192,151994,1,0,2:0:0:0:
256,192,152119,1,2,2:0:0:0:
256,192,152182,1,2,2:0:0:0:
256,192,152245,1,2,2:0:0:0:
256,192,152370,1,0,2:0:0:0:
256,192,152496,1,0,2:0:0:0:
256,192,152621,1,2,2:0:0:0:
256,192,152684,1,2,2:0:0:0:
256,192,152746,1,2,2:0:0:0:
256,192,152872,1,2,2:0:0:0:
256,192,152935,1,2,2:0:0:0:
256,192,152997,1,0,2:0:0:0:
256,192,153123,1,2,2:0:0:0:
256,192,153186,1,0,2:0:0:0:
256,192,153248,1,0,2:0:0:0:
256,192,153311,1,0,2:0:0:0:
256,192,153374,1,2,2:0:0:0:
256,192,153437,1,0,2:0:0:0:
256,192,153499,1,2,2:0:0:0:
256,192,153625,1,0,2:0:0:0:
256,192,153709,1,0,2:0:0:0:
256,192,153792,1,0,2:0:0:0:
256,192,153876,1,2,2:0:0:0:
256,192,153960,1,8,2:0:0:0:
256,192,154043,1,8,2:0:0:0:
256,192,154127,1,0,2:0:0:0:
256,192,154211,1,8,2:0:0:0:
256,192,154294,1,0,2:0:0:0:
256,192,154378,1,2,2:0:0:0:
256,192,154462,1,0,2:0:0:0:
256,192,154546,1,0,2:0:0:0:
256,192,154629,1,2,2:0:0:0:
256,192,154755,1,0,2:0:0:0:
256,192,154817,1,0,2:0:0:0:
256,192,154880,1,2,2:0:0:0:
256,192,154943,1,2,2:0:0:0:
256,192,155006,1,0,2:0:0:0:
256,192,155069,1,0,2:0:0:0:
256,192,155131,1,2,2:0:0:0:
256,192,155257,1,0,2:0:0:0:
256,192,155320,1,0,2:0:0:0:
256,192,155382,1,2,2:0:0:0:
256,192,155508,1,0,2:0:0:0:
256,192,155634,1,2,2:0:0:0:
256,192,155697,1,2,2:0:0:0:
256,192,155759,1,0,2:0:0:0:
256,192,155822,1,0,2:0:0:0:
256,192,155885,1,2,2:0:0:0:
256,192,156010,1,2,2:0:0:0:
256,192,156136,1,2,2:0:0:0:
256,192,156261,1,2,2:0:0:0:
256,192,156324,1,8,0:0:0:0:
256,192,156387,1,0,2:0:0:0:
256,192,156450,1,0,2:0:0:0:
256,192,156513,1,2,2:0:0:0:
256,192,156638,1,2,2:0:0:0:
256,192,156701,1,2,2:0:0:0:
256,192,156764,1,2,2:0:0:0:
256,192,156826,1,8,2:0:0:0:
256,192,156889,1,0,2:0:0:0:
256,192,156952,1,0,2:0:0:0:
256,192,157015,1,0,2:0:0:0:
256,192,157140,1,2,2:0:0:0:
256,192,157266,1,0,2:0:0:0:
256,192,157391,1,2,2:0:0:0:
256,192,157454,1,0,2:0:0:0:
256,192,157517,1,2,2:0:0:0:
256,192,157642,1,2,2:0:0:0:
256,192,157705,1,2,2:0:0:0:
256,192,157768,1,0,2:0:0:0:
256,192,157831,1,0,2:0:0:0:
256,192,157893,1,2,2:0:0:0:
256,192,158019,1,0,2:0:0:0:
256,192,158144,1,2,2:0:0:0:
256,192,158207,1,2,2:0:0:0:
256,192,158270,1,0,2:0:0:0:
256,192,158333,1,0,2:0:0:0:
256,192,158395,1,2,2:0:0:0:
256,192,158521,1,0,2:0:0:0:
256,192,158646,1,2,2:0:0:0:
256,192,158709,1,2,2:0:0:0:
256,192,158772,1,2,2:0:0:0:
256,192,158835,1,2,2:0:0:0:
256,192,158897,1,0,2:0:0:0:
256,192,158960,1,0,2:0:0:0:
256,192,159023,1,2,2:0:0:0:
256,192,159148,1,0,2:0:0:0:
256,192,159211,1,0,2:0:0:0:
256,192,159274,1,0,2:0:0:0:
256,192,159337,1,0,2:0:0:0:
256,192,159400,1,8,2:0:0:0:
256,192,159462,1,8,2:0:0:0:
256,192,159525,1,2,2:0:0:0:
256,192,159588,1,8,2:0:0:0:
256,192,159651,1,4,0:0:0:0:
256,192,160655,1,0,2:0:0:0:
256,192,160780,1,2,2:0:0:0:
256,192,160843,1,2,2:0:0:0:
256,192,160906,1,0,2:0:0:0:
256,192,161031,1,2,2:0:0:0:
256,192,161157,1,0,2:0:0:0:
256,192,161282,1,0,2:0:0:0:
256,192,161408,1,0,2:0:0:0:
256,192,161533,1,2,2:0:0:0:
256,192,161596,1,2,2:0:0:0:
256,192,161659,1,0,2:0:0:0:
256,192,161784,1,0,2:0:0:0:
256,192,161910,1,2,2:0:0:0:
256,192,162036,1,0,2:0:0:0:
256,192,162161,1,0,2:0:0:0:
256,192,162287,1,2,2:0:0:0:
256,192,162412,1,0,2:0:0:0:
256,192,162475,1,0,2:0:0:0:
256,192,162538,1,2,2:0:0:0:
256,192,162663,1,0,2:0:0:0:
256,192,162789,1,2,2:0:0:0:
256,192,162851,1,2,2:0:0:0:
256,192,162914,1,2,2:0:0:0:
256,192,163040,1,0,2:0:0:0:
256,192,163165,1,2,2:0:0:0:
256,192,163228,1,8,2:0:0:0:
256,192,163291,1,0,2:0:0:0:
256,192,163416,1,0,2:0:0:0:
256,192,163479,1,2,2:0:0:0:
256,192,163542,1,2,2:0:0:0:
256,192,163667,1,4,0:0:0:0:
256,192,164672,1,0,2:0:0:0:
256,192,164797,1,2,2:0:0:0:
256,192,164860,1,2,2:0:0:0:
256,192,164923,1,0,2:0:0:0:
256,192,165048,1,0,2:0:0:0:
256,192,165174,1,0,2:0:0:0:
256,192,165299,1,2,2:0:0:0:
256,192,165425,1,0,2:0:0:0:
256,192,165550,1,2,2:0:0:0:
256,192,165613,1,2,2:0:0:0:
256,192,165676,1,0,2:0:0:0:
256,192,165801,1,0,2:0:0:0:
256,192,165927,1,2,2:0:0:0:
256,192,166052,1,0,2:0:0:0:
256,192,166178,1,2,2:0:0:0:
256,192,166241,1,2,2:0:0:0:
256,192,166303,1,0,2:0:0:0:
256,192,166429,1,0,2:0:0:0:
256,192,166554,1,2,2:0:0:0:
256,192,166680,1,0,2:0:0:0:
256,192,166805,1,2,2:0:0:0:
256,192,166868,1,2,2:0:0:0:
256,192,166931,1,2,2:0:0:0:
256,192,167056,1,0,2:0:0:0:
256,192,167182,1,2,2:0:0:0:
256,192,167245,1,10,2:0:0:0:
256,192,167307,1,0,2:0:0:0:
256,192,167433,1,0,2:0:0:0:
256,192,167496,1,0,2:0:0:0:
256,192,167559,1,2,2:0:0:0:
256,192,167684,1,4,0:0:0:0:
256,192,168688,1,2,2:0:0:0:
256,192,168751,1,2,2:0:0:0:
256,192,168814,1,0,2:0:0:0:
256,192,168939,1,0,2:0:0:0:
256,192,169065,1,2,2:0:0:0:
256,192,169128,1,2,2:0:0:0:
256,192,169190,1,0,2:0:0:0:
256,192,169316,1,0,2:0:0:0:
256,192,169441,1,2,2:0:0:0:
256,192,169567,1,0,2:0:0:0:
256,192,169692,1,2,2:0:0:0:
256,192,169818,1,0,2:0:0:0:
256,192,169943,1,2,2:0:0:0:
256,192,170006,1,2,2:0:0:0:
256,192,170069,1,2,2:0:0:0:
256,192,170195,1,0,2:0:0:0:
256,192,170320,1,0,2:0:0:0:
256,192,170446,1,2,2:0:0:0:
256,192,170571,1,0,2:0:0:0:
256,192,170697,1,2,2:0:0:0:
256,192,170822,1,2,2:0:0:0:
256,192,170948,1,0,2:0:0:0:
256,192,171010,1,0,2:0:0:0:
256,192,171073,1,2,2:0:0:0:
256,192,171199,1,2,2:0:0:0:
256,192,171261,1,2,2:0:0:0:
256,192,171324,1,0,2:0:0:0:
256,192,171387,1,0,2:0:0:0:
256,192,171450,1,2,2:0:0:0:
256,192,171513,1,0,2:0:0:0:
256,192,171575,1,2,2:0:0:0:
256,192,171701,1,4,0:0:0:0:
256,192,172705,1,2,2:0:0:0:
256,192,172768,1,2,2:0:0:0:
256,192,172831,1,0,2:0:0:0:
256,192,172956,1,0,2:0:0:0:
256,192,173082,1,2,2:0:0:0:
256,192,173144,1,0,2:0:0:0:
256,192,173207,1,2,2:0:0:0:
256,192,173270,1,2,2:0:0:0:
256,192,173333,1,0,2:0:0:0:
256,192,173458,1,2,2:0:0:0:
256,192,173521,1,0,2:0:0:0:
256,192,173584,1,2,2:0:0:0:
256,192,173709,1,6,2:0:0:0:
256,192,174211,1,0,2:0:0:0:
256,192,174274,1,0,2:0:0:0:
256,192,174337,1,8,2:0:0:0:
256,192,174462,1,8,2:0:0:0:
256,192,174588,1,0,2:0:0:0:
256,192,174713,1,2,2:0:0:0:
256,192,174776,1,2,2:0:0:0:
256,192,174839,1,2,2:0:0:0:
256,192,174964,1,0,2:0:0:0:
256,192,175027,1,0,2:0:0:0:
256,192,175090,1,8,2:0:0:0:
256,192,175215,1,2,2:0:0:0:
256,192,175341,1,0,2:0:0:0:
256,192,175404,1,0,2:0:0:0:
256,192,175466,1,8,2:0:0:0:
256,192,175529,1,8,2:0:0:0:
256,192,175592,1,8,2:0:0:0:
256,192,175718,1,4,2:0:0:0:
