osu file format v14

[General]
AudioFilename: audio.mp3
AudioLeadIn: 0
PreviewTime: 93419
Countdown: 0
SampleSet: Soft
StackLeniency: 0.7
Mode: 0
LetterboxInBreaks: 0
WidescreenStoryboard: 1

[Editor]
Bookmarks: 31147,43614,56082,68549,81016,93484,105951,121535,134002,146470,152703,158937,171404,183872,196339,208806
DistanceSpacing: 1.5
BeatDivisor: 4
GridSize: 8
TimelineZoom: 2.1

[Metadata]
Title:My Dearest Nightmare
TitleUnicode:My Dearest Nightmare
Artist:rN
ArtistUnicode:rN
Creator:Mirash
Version:Normal
Source:
Tags:fa featured artist osu! mappers guild mpg showcase breakcore idm electronic instrumental rurinn pishifat pishi nowaie dtm9 nowa dtm insomnia crescent moon under the raining sky
BeatmapID:3156743
BeatmapSetID:1542543

[Difficulty]
HPDrainRate:3
CircleSize:3
OverallDifficulty:4
ApproachRate:6
SliderMultiplier:0.69999990463257
SliderTickRate:1

[Events]
//Background and Video events
0,0,"abstract-2733605_1920.jpg",0,0
//Break Periods
2,146672,157737
//Storyboard Layer 0 (Background)
//Storyboard Layer 1 (Fail)
//Storyboard Layer 2 (Pass)
//Storyboard Layer 3 (Foreground)
//Storyboard Layer 4 (Overlay)
//Storyboard Sound Samples

[TimingPoints]
6213,259.74025974026,3,2,1,70,1,0
11667,-100,3,2,0,70,0,0
12446,-100,3,2,1,70,0,0
17901,-100,3,2,0,70,0,0
18680,-100,3,2,1,70,0,0
31147,-100,3,2,1,60,0,0
31407,-100,3,2,1,50,0,0
31667,-100,3,2,1,40,0,0
31926,-100,3,2,1,20,0,0
32186,-100,3,2,1,10,0,0
32965,-100,3,2,1,20,0,0
33485,-100,3,2,1,30,0,0
33744,-100,3,2,1,40,0,0
40498,-100,3,2,1,50,0,0
43614,-100,3,2,1,70,0,0
55303,-100,3,2,1,50,0,0
55822,-100,3,2,1,70,0,0
134132,-100,3,2,1,80,0,0
138678,-100,3,2,1,70,0,0
139067,-100,3,2,1,60,0,0
139587,-100,3,2,1,80,0,0
144262,-100,3,2,1,30,0,0
144392,-100,3,2,1,50,0,0
144522,-100,3,2,1,30,0,0
144652,-100,3,2,1,60,0,0
144782,-100,3,2,1,70,0,0
144911,-100,3,2,1,80,0,0
145301,-100,3,2,1,70,0,0
145431,-100,3,2,1,60,0,0
145561,-100,3,2,1,50,0,0
146080,-100,3,2,2,30,0,0
146210,-100,3,2,3,15,0,0
146470,-100,3,2,1,70,0,0
152703,-100,3,2,0,60,0,0
159716,-100,3,2,1,60,0,0
182443,-100,3,2,1,50,0,0
182833,-100,3,2,1,40,0,0
182963,-100,3,2,1,20,0,0
183093,-100,3,2,1,50,0,0
183612,-100,3,2,1,70,0,0
196339,-100,3,1,1,90,0,0
208806,-100,3,1,1,60,0,0
210365,-100,3,2,1,40,0,0
214391,-100,3,2,1,50,0,0
214780,-100,3,2,1,60,0,0
215040,-100,3,2,1,80,0,0
215819,-100,3,2,1,20,0,0

[Colours]
Combo1 : 202,194,53
Combo2 : 54,185,51
Combo3 : 208,71,211
Combo4 : 78,188,166

[HitObjects]
25,194,6213,6,2,P|146:187|241:174,1,209.999971389771,2|0,1:0|0:0,1:1:0:0:
487,276,7771,2,2,P|382:270|278:257,1,209.999971389771,2|0,1:0|0:0,1:1:0:0:
244,0,9329,6,2,P|243:85|234:223,1,209.999971389771,2|0,1:0|0:0,1:1:0:0:
336,384,10888,2,2,P|334:279|327:174,1,209.999966621399,2|0,1:0|0:0,1:1:0:0:
90,37,12446,6,2,P|44:66|11:218,1,209.999985694885,2|0,1:0|0:0,1:1:0:0:
245,343,14005,2,2,P|258:258|275:121,1,209.999985694885,2|0,1:0|0:0,1:1:0:0:
422,347,15563,6,2,P|468:318|501:166,1,209.999985694885,2|0,1:0|0:0,1:1:0:0:
267,41,17122,2,2,P|254:126|237:263,1,209.999985694885,2|2,1:0|0:0,1:1:0:0:
506,196,18680,5,2,1:0:0:0:
264,322,19459,2,0,L|206:332,1,34.9999976158142,8|8,1:0|1:2,0:0:0:0:
145,291,19849,2,0,L|97:288,1,34.9999976158142,8|10,1:2|1:0,0:0:0:0:
40,230,20238,2,0,P|19:144|113:41,1,209.999985694885,2|10,1:0|1:0,0:0:0:0:
149,115,21277,1,8,1:2:0:0:
214,51,21537,1,8,1:2:0:0:
274,119,21797,6,2,B|406:128|327:47|475:57,1,209.999985694885,2|8,1:0|1:0,1:1:0:0:
497,141,22836,1,8,1:0:0:0:
425,197,23096,2,0,L|434:242,1,34.9999976158142,8|2,1:2|1:2,0:0:0:0:
455,270,23355,2,2,P|394:287|256:354,1,209.999985694885,2|10,1:0|1:0,1:1:0:0:
180,309,24394,1,2,1:2:0:0:
98,349,24654,1,8,1:2:0:0:
29,289,24914,6,2,P|49:226|49:71,1,209.999985694885,2|0,1:0|1:0,1:1:0:0:
132,41,25953,1,0,0:0:0:0:
212,83,26213,2,0,L|194:133,1,34.9999976158142,8|2,1:2|1:2,0:0:0:0:
178,156,26472,2,2,P|230:175|391:211,1,209.999985694885,2|8,1:0|1:2,1:1:0:0:
448,148,27511,1,2,1:2:0:0:
499,223,27771,1,8,1:2:0:0:
443,294,28031,6,2,P|386:289|348:139,1,209.999985694885,2|0,1:0|1:0,1:1:0:0:
256,49,29200,2,0,L|206:61,1,34.9999976158142,2|8,1:2|1:2,0:0:0:0:
139,17,29589,2,2,P|96:33|63:188,1,209.999985694885,2|8,1:0|1:2,1:1:0:0:
116,245,30628,1,2,1:2:0:0:
108,335,30888,1,8,1:0:0:0:
193,366,31148,1,4,1:3:0:0:
256,217,33745,6,0,L|255:141,2,69.9999952316285,2|2|0,3:2|3:0|3:0,0:0:0:0:
256,217,37122,6,0,L|256:158,2,34.9999976158142,2|2|4,3:2|3:0|3:2,0:0:0:0:
256,217,40238,6,0,L|256:158,2,34.9999976158142,8|8|8,3:0|3:1|3:2,0:0:0:0:
256,192,40758,12,0,43355,1:0:0:0:
135,133,44135,5,2,1:0:0:0:
214,177,44394,1,4,1:3:0:0:
266,102,44654,2,0,P|310:94|390:163,1,139.999990463257,8|2,1:2|1:0,0:0:0:0:
461,194,45433,1,8,1:0:0:0:
404,265,45693,1,8,1:2:0:0:
316,240,45953,2,0,P|305:273|327:318,2,69.9999952316285,4|4|2,1:3|1:3|1:0,0:0:0:0:
276,158,46732,6,0,L|286:62,1,69.9999952316285,4|10,1:0|1:0,0:0:0:0:
225,17,47251,2,0,L|133:30,2,69.9999952316285,2|4|8,1:0|1:3|1:2,0:0:0:0:
301,65,48031,1,0,0:0:0:0:
373,10,48290,2,0,L|451:26,1,69.9999952316285,4|8,1:3|1:0,0:0:0:0:
486,103,48810,1,8,1:2:0:0:
416,162,49070,2,0,L|347:147,1,69.9999952316285,4|8,1:3|1:2,0:0:0:0:
260,174,49589,2,0,L|265:228,2,34.9999976158142,8|8|12,1:0|1:2|1:0,0:0:0:0:
182,125,50109,5,10,1:2:0:0:
103,171,50368,2,0,L|119:253,2,69.9999952316285,2|4|8,1:0|1:3|1:2,0:0:0:0:
22,127,51148,1,0,0:0:0:0:
3,216,51407,2,0,P|32:292|36:308,1,69.9999952316285,4|4,1:3|1:3,0:0:0:0:
71,361,51927,1,8,1:2:0:0:
158,334,52187,1,4,1:0:0:0:
203,255,52446,1,4,1:3:0:0:
277,307,52706,2,0,L|267:349,2,34.9999976158142,2|10|4,1:0|1:2|1:0,0:0:0:0:
333,234,53225,6,0,P|318:181|312:142,1,69.9999952316285,8|2,1:2|1:0,0:0:0:0:
257,96,53745,1,4,1:3:0:0:
283,8,54005,1,8,1:2:0:0:
365,47,54264,2,0,L|459:64,2,69.9999952316285,0|4|10,0:0|1:3|1:0,0:0:0:0:
283,8,55044,1,2,1:2:0:0:
196,35,55303,1,2,0:1:0:0:
254,207,55823,5,4,3:0:0:0:
261,297,56083,2,0,L|266:347,1,34.9999976158142,4|0,1:0|0:0,0:0:0:0:
256,377,56342,2,0,L|351:350,2,69.9999952316285,8|10|2,1:0|1:0|1:2,0:0:0:0:
171,343,57122,1,2,1:2:0:0:
80,354,57381,1,0,1:0:0:0:
22,282,57641,1,4,1:3:0:0:
85,217,57901,2,0,L|72:134,1,69.9999952316285,2|2,1:2|1:0,0:0:0:0:
58,58,58420,1,2,1:2:0:0:
148,67,58680,1,0,1:0:0:0:
236,90,58940,2,0,L|222:151,2,34.9999976158142,0|2|2,0:0|0:2|1:0,0:0:0:0:
293,19,59459,5,2,1:0:0:0:
331,101,59719,1,2,1:0:0:0:
402,44,59979,1,0,1:0:0:0:
470,103,60238,2,0,P|473:168|475:197,2,69.9999952316285,2|0|4,1:2|0:0|1:3,0:0:0:0:
402,44,61018,1,2,0:2:0:0:
354,121,61277,2,0,P|357:186|359:215,1,69.9999952316285,2|10,1:0|1:0,0:0:0:0:
400,271,61797,1,8,1:0:0:0:
342,341,62057,1,2,1:0:0:0:
267,289,62316,6,0,L|216:310,2,34.9999976158143,4|4|4,1:3|1:3|1:3,0:0:0:0:
259,197,62836,2,0,P|251:142|248:96,1,69.9999952316285,6|2,1:3|1:0,0:0:0:0:
167,87,63355,2,2,P|163:121|157:156,1,69.9999952316285,4|0,1:3|0:0,1:1:0:0:
166,247,63875,1,4,1:3:0:0:
118,324,64135,1,2,1:0:0:0:
28,307,64394,1,2,1:0:0:0:
21,216,64654,2,0,P|13:168|16:132,1,69.9999952316285,2|8,1:2|1:0,0:0:0:0:
79,82,65174,2,0,L|67:39,2,34.9999976158143,4|4|4,1:3|1:0|1:3,0:0:0:0:
149,139,65693,5,2,1:2:0:0:
221,84,65953,2,0,L|304:100,1,69.9999952316285,6|8,1:2|1:0,0:0:0:0:
353,161,66472,1,10,1:0:0:0:
419,99,66732,2,0,L|502:115,2,69.9999952316285,14|4|10,1:0|1:3|1:0,0:0:0:0:
357,31,67511,1,10,1:0:0:0:
289,97,67771,2,0,L|221:84,1,69.9999952316285,12|10,1:0|1:0,0:0:0:0:
154,22,68290,2,0,L|102:28,1,34.9999976158143,2|10,1:0|1:0,0:0:0:0:
76,9,68550,6,2,P|94:70|130:236,1,209.999985694886,4|4,1:0|1:3,1:1:0:0:
177,287,69589,1,4,1:3:0:0:
177,287,69849,1,8,1:2:0:0:
254,239,70109,2,0,L|339:254,1,69.9999952316285,4|4,1:3|1:3,0:0:0:0:
411,228,70628,1,8,1:2:0:0:
411,228,70888,2,0,L|420:137,2,69.9999952316285,4|4|4,1:3|1:0|1:2,0:0:0:0:
322,251,71667,6,0,L|254:239,1,69.9999952316285,4|8,1:3|1:2,0:0:0:0:
210,158,72187,1,4,1:3:0:0:
210,158,72446,2,0,L|217:72,2,69.9999952316285,2|2|2,1:2|1:2|1:2,0:0:0:0:
128,198,73225,2,0,L|59:185,2,69.9999952316285,4|8|4,1:3|1:2|1:3,0:0:0:0:
175,282,74005,1,6,1:0:0:0:
193,370,74264,1,2,1:0:0:0:
281,347,74524,1,8,0:2:0:0:
275,256,74784,6,2,P|273:200|255:32,1,209.999985694886,4|4,1:3|0:2,1:1:0:0:
170,72,75823,1,8,1:0:0:0:
114,0,76083,1,2,1:2:0:0:
41,55,76342,1,4,1:3:0:0:
90,131,76602,2,0,L|98:173,2,34.9999976158143,2|0|0,1:2|0:0|1:0,0:0:0:0:
170,72,77122,2,0,B|215:82|215:82|259:61|259:61|309:77,1,139.999990463257,8|8,1:2|1:0,0:0:0:0:
389,102,77901,6,0,L|400:64,2,34.9999976158143,4|2|8,1:3|0:2|1:0,0:0:0:0:
445,173,78420,1,0,1:0:0:0:
355,191,78680,2,0,L|364:234,2,34.9999976158143,4|0|8,1:3|1:0|1:2,0:0:0:0:
265,173,79200,2,0,L|275:125,2,34.9999976158143,0|8|4,1:0|1:2|1:3,0:0:0:0:
182,211,79719,1,0,1:3:0:0:
188,301,79979,1,4,1:3:0:0:
263,351,80238,1,2,1:0:0:0:
352,327,80498,2,0,L|433:309,1,69.9999952316285,0|0,0:0|1:0,0:0:0:0:
488,251,81018,6,2,P|479:204|336:115,1,209.999985694886,4|0,1:0|0:0,1:1:0:0:
281,167,82057,1,2,1:0:0:0:
202,120,82316,1,2,1:2:0:0:
117,155,82576,2,0,L|43:167,2,69.9999952316285,4|4|10,1:3|1:3|1:0,0:0:0:0:
202,120,83355,1,8,1:0:0:0:
281,167,83615,1,6,1:0:0:0:
355,114,83875,6,0,L|448:127,2,69.9999952316285,4|4|2,1:3|1:3|1:0,0:0:0:0:
304,37,84654,1,6,1:2:0:0:
229,88,84914,1,4,1:0:0:0:
150,41,85174,1,2,1:2:0:0:
78,98,85433,1,10,1:0:0:0:
13,33,85693,2,2,P|13:115|11:188,1,139.999990463257,4|2,1:0|1:0,1:1:0:0:
61,249,86472,1,6,1:0:0:0:
146,217,86732,1,2,1:2:0:0:
215,275,86992,1,8,1:2:0:0:
304,259,87251,6,2,P|302:189|305:33,1,209.999985694886,4|6,1:3|0:2,1:1:0:0:
393,29,88290,1,2,1:2:0:0:
395,120,88550,1,8,1:2:0:0:
485,127,88810,1,4,1:3:0:0:
477,217,89070,1,4,1:3:0:0:
385,215,89329,2,0,L|381:278,2,34.9999976158143,4|4|4,1:3|1:3|1:3,0:0:0:0:
294,205,89849,1,8,1:0:0:0:
204,189,90109,1,4,1:0:0:0:
113,184,90368,6,0,L|38:193,1,69.9999952316285,2|2,1:2|1:0,0:0:0:0:
38,101,90888,2,0,L|107:92,1,69.9999952316285,2|4,1:0|1:3,0:0:0:0:
169,25,91407,1,8,1:0:0:0:
233,89,91667,1,8,1:0:0:0:
312,45,91927,1,4,1:3:0:0:
368,116,92187,1,4,3:0:0:0:
443,65,92446,2,0,L|519:81,1,69.9999952316285,4|4,3:0|3:0,0:0:0:0:
255,257,93485,6,2,P|261:188|261:33,1,209.999985694886,4|2,1:0|0:0,1:1:0:0:
177,82,94524,1,10,1:0:0:0:
93,45,94784,1,10,1:0:0:0:
33,114,95044,2,2,P|32:218|39:323,1,209.999985694886,4|8,1:0|1:0,1:1:0:0:
128,344,96083,1,8,1:0:0:0:
188,276,96342,1,2,1:2:0:0:
274,304,96602,6,2,P|342:280|484:249,1,209.999985694886,4|8,1:0|1:0,1:1:0:0:
502,163,97641,1,10,1:0:0:0:
410,163,97901,1,2,1:2:0:0:
410,71,98161,2,2,P|352:37|203:88,1,209.999985694886,4|8,1:0|1:0,1:1:0:0:
199,157,99200,1,2,1:2:0:0:
108,148,99459,2,0,L|69:167,1,34.9999976158143,2|8,1:0|1:0,0:0:0:0:
31,157,99719,6,2,P|41:228|169:294,1,209.999985694886,4|8,1:0|1:0,1:1:0:0:
224,240,100758,1,10,1:0:0:0:
279,312,101018,1,8,1:2:0:0:
361,350,101277,2,2,P|400:312|392:154,1,209.999985694886,4|8,1:0|1:2,1:1:0:0:
309,157,102316,1,2,1:2:0:0:
310,66,102576,1,8,1:0:0:0:
230,20,102836,6,2,P|216:109|203:254,1,209.999985694886,4|8,1:0|1:0,1:1:0:0:
273,288,103875,1,2,1:2:0:0:
201,344,104135,2,0,L|163:339,1,34.9999976158143,8|8,1:0|1:0,0:0:0:0:
123,354,104394,2,0,P|100:310|87:132,1,209.999985694886,4|4,1:0|0:2,0:0:0:0:
339,60,105953,6,0,L|430:90,1,69.9999952316285,12|2,1:0|0:2,0:0:0:0:
405,173,106472,2,0,L|338:151,1,69.9999952316285,2|8,0:2|1:0,0:0:0:0:
257,109,106992,1,8,1:2:0:0:
223,193,107251,1,8,1:2:0:0:
134,174,107511,2,0,L|43:204,1,69.9999952316285,12|2,1:0|0:2,0:0:0:0:
68,287,108031,2,0,L|134:265,1,69.9999952316285,2|8,0:2|1:0,0:0:0:0:
213,310,108550,1,10,1:0:0:0:
295,270,108810,1,8,1:2:0:0:
331,186,109070,6,0,L|421:216,2,69.9999952316285,12|2|2,1:0|0:2|0:2,0:0:0:0:
271,117,109849,1,8,1:0:0:0:
210,185,110109,1,8,1:2:0:0:
145,120,110368,1,10,1:0:0:0:
72,174,110628,2,0,L|-18:204,2,69.9999952316285,12|2|2,1:0|0:2|0:2,0:0:0:0:
144,228,111407,1,8,1:0:0:0:
232,251,111667,1,8,1:2:0:0:
322,237,111927,6,0,L|374:246,2,34.9999976158143,8|8|12,1:2|1:2|1:0,0:0:0:0:
269,162,112446,1,2,0:2:0:0:
324,89,112706,2,0,L|309:5,2,69.9999952316285,2|10|2,0:2|1:0|1:0,0:0:0:0:
405,129,113485,1,10,1:2:0:0:
482,177,113745,2,0,P|461:265|445:321,1,139.999990463257,12|2,1:0|0:2,0:0:0:0:
356,319,114524,1,10,1:0:0:0:
275,276,114784,1,8,1:2:0:0:
192,313,115044,1,8,1:2:0:0:
101,299,115303,6,0,P|55:240|74:166,1,139.999990463257,12|2,1:0|0:2,0:0:0:0:
49,89,116083,1,10,1:0:0:0:
138,101,116342,1,8,1:2:0:0:
203,37,116602,1,8,1:2:0:0:
277,89,116862,2,0,L|365:107,1,69.9999952316285,12|2,1:0|0:2,0:0:0:0:
368,191,117381,2,0,L|299:176,2,69.9999952316285,4|4|0,1:0|0:0|0:0,0:0:0:0:
256,192,118161,12,4,120758,1:0:0:0:
256,192,121537,5,4,3:3:0:0:
191,127,121797,1,4,1:3:0:0:
249,57,122057,2,0,L|331:87,2,69.9999952316285,8|4|12,1:2|3:3|1:2,0:0:0:0:
162,29,122836,1,12,1:2:0:0:
132,115,123096,1,4,3:3:0:0:
215,150,123355,1,8,1:0:0:0:
174,231,123615,2,0,L|182:291,2,34.9999976158143,4|8|4,3:0|1:0|1:3,0:0:0:0:
83,215,124135,2,0,P|35:203|17:165,1,69.9999952316285,4|8,3:0|1:0,0:0:0:0:
33,97,124654,6,0,L|113:128,1,69.9999952316285,12|8,1:0|0:2,0:0:0:0:
186,99,125174,1,8,1:0:0:0:
255,157,125433,2,0,L|320:131,1,69.9999952316285,4|8,1:3|0:2,0:0:0:0:
409,152,125953,1,8,1:0:0:0:
472,87,126212,6,0,B|445:121|445:121|459:247|459:247|435:295,1,209.999985694886,2|4,0:2|1:2,0:0:0:0:
182,193,127771,5,6,1:0:0:0:
213,278,128031,1,8,1:0:0:0:
303,269,128290,1,8,1:0:0:0:
328,181,128550,1,12,1:0:0:0:
254,126,128810,1,8,1:2:0:0:
182,193,129070,1,8,1:2:0:0:
213,278,129329,1,4,1:0:0:0:
303,269,129589,1,8,1:0:0:0:
328,181,129849,1,8,1:0:0:0:
254,126,130109,1,4,1:0:0:0:
182,193,130368,1,8,1:2:0:0:
213,278,130628,1,8,1:2:0:0:
303,269,130888,1,4,1:3:0:0:
328,181,131148,1,8,1:0:0:0:
254,126,131407,1,0,0:0:0:0:
182,193,131667,1,0,0:0:0:0:
213,278,131927,1,8,1:0:0:0:
303,269,132187,1,8,1:0:0:0:
328,181,132446,6,2,P|303:112|277:34,1,139.999990463257,2|0,1:0|0:0,1:1:0:0:
372,52,133225,1,4,1:0:0:0:
273,306,134005,6,0,B|225:339|225:339|155:259,1,139.999990463257,4|8,1:0|1:0,0:0:0:0:
186,187,134784,1,8,1:0:0:0:
101,154,135044,1,10,1:0:0:0:
83,64,135303,2,0,L|135:48,1,34.9999976158143,2|8,1:2|1:0,0:0:0:0:
133,10,135563,2,0,L|298:49,1,139.999990463257,4|12,1:3|1:0,0:0:0:0:
317,119,136342,1,6,1:0:0:0:
401,84,136602,1,8,1:0:0:0:
429,170,136862,1,2,1:2:0:0:
506,217,137122,6,0,L|474:288,2,69.9999952316285,8|8|2,1:0|1:0|1:0,0:0:0:0:
429,170,137901,1,4,1:3:0:0:
344,203,138161,1,4,1:3:0:0:
256,176,138420,1,6,1:3:0:0:
172,212,138680,1,4,1:0:0:0:
9,355,139459,6,0,P|81:349|233:336,1,209.999985694886,8|2,1:0|0:3,0:0:0:0:
287,278,140498,1,8,1:0:0:0:
370,313,140758,1,8,1:0:0:0:
460,320,141018,2,0,P|475:255|419:197,1,139.999990463257,6|14,1:0|1:0,0:0:0:0:
342,184,141797,1,4,1:0:0:0:
259,145,142057,1,4,1:2:0:0:
176,182,142316,2,0,L|186:226,2,34.9999976158143,2|2|8,1:2|1:2|1:0,0:0:0:0:
84,182,142836,1,8,1:0:0:0:
45,99,143096,1,10,1:0:0:0:
135,92,143355,5,6,1:0:0:0:
208,30,143615,2,0,L|283:53,1,69.9999952316285,8|2,1:0|1:2,0:0:0:0:
359,84,144135,2,0,B|428:115|428:115|396:152|396:152|418:187|418:187|409:222|409:222|418:237|418:237|411:251,2,209.999985694886,0|8|4,1:0|1:0|0:2,0:0:0:0:
271,110,145953,1,4,1:0:0:0:
100,45,146472,1,4,0:0:0:0:
253,197,158940,5,4,0:0:0:0:
2,192,159719,5,4,3:0:0:0:
510,192,161277,1,4,3:0:0:0:
258,2,162836,1,4,3:0:0:0:
254,382,164394,1,4,3:0:0:0:
510,192,165953,5,4,3:0:0:0:
2,192,167511,1,4,3:0:0:0:
258,2,169070,1,4,3:0:0:0:
254,382,170628,1,4,3:0:0:0:
262,109,171407,5,4,3:0:0:0:
209,183,171667,2,0,P|128:163|52:142,1,139.999990463257,0|4,0:0|3:0,0:0:0:0:
285,319,172966,5,4,3:0:0:0:
298,228,173225,2,2,P|379:208|455:187,1,139.999990463257,2|4,0:1|3:0,1:1:0:0:
165,140,174524,5,4,3:0:0:0:
152,49,174784,2,0,P|71:29|-5:8,1,139.999990463257,0|4,0:0|3:0,0:0:0:0:
260,136,176083,5,4,3:0:0:0:
273,45,176342,2,2,P|354:25|430:4,1,139.999990463257,2|4,0:1|0:3,1:1:0:0:
364,233,177511,6,0,L|374:270,1,34.9999976158143,4|4,3:0|3:0,0:0:0:0:
105,213,178420,2,0,P|169:252|300:316,1,209.999985694886,4|4,3:0|3:0,0:0:0:0:
361,48,179979,6,0,P|270:101|166:151,1,209.999985694886,4|4,3:0|3:0,0:0:0:0:
445,192,181537,5,4,3:0:0:0:
177,247,182316,2,0,B|143:262|142:262|141:247|141:247|58:273|58:273|34:249|20:252|-21:285,1,209.999985694886,2|4,1:0|0:0,0:0:0:0:
188,86,183875,6,0,L|272:103,1,69.9999952316285,8|10,1:0|1:0,0:0:0:0:
324,38,184394,1,0,0:0:0:0:
394,95,184654,2,0,B|366:145|366:145|404:181,2,104.999992847443,2|2|4,1:0|1:2|1:0,0:0:0:0:
463,36,185693,2,0,L|520:102,1,69.9999952316285,8|0,1:0|0:0,0:0:0:0:
499,180,186212,2,0,L|416:317,1,139.999990463257,8|8,1:2|1:0,1:1:0:0:
337,278,186992,5,4,1:0:0:0:
271,340,187251,2,0,P|216:322|198:243,1,139.999990463257,2|2,1:2|1:2,0:0:0:0:
133,182,188031,2,0,L|141:134,2,34.9999976158143,10|8|8,1:0|1:0|1:0,0:0:0:0:
58,234,188550,1,12,1:0:0:0:
18,151,188810,1,8,1:2:0:0:
67,75,189070,1,8,1:2:0:0:
157,62,189329,2,0,L|306:102,1,139.999990463257,8|6,1:0|1:3,0:0:0:0:
368,48,190109,6,0,L|409:58,2,34.9999976158143,4|8|8,1:0|1:0|1:0,0:0:0:0:
260,195,190888,1,2,1:0:0:0:
272,284,191148,1,8,1:2:0:0:
279,374,191407,1,2,1:2:0:0:
191,348,191667,6,0,L|150:338,2,34.9999976158143,4|8|12,1:0|1:0|1:0,1:1:0:0:
299,201,192446,1,8,1:0:0:0:
287,112,192706,1,8,1:2:0:0:
280,22,192966,1,8,1:0:0:0:
190,38,193225,6,0,L|110:55,1,69.9999952316285,4|4,1:0|1:3,0:0:0:0:
74,131,193745,2,0,L|152:153,2,69.9999952316285,8|4|4,1:2|1:0|1:3,0:0:0:0:
36,48,194524,1,8,1:2:0:0:
121,52,194784,2,0,L|282:26,1,139.999990463257,12|8,1:0|1:2,0:0:0:0:
334,81,195563,1,2,1:2:0:0:
415,40,195823,1,4,0:0:0:0:
485,97,196083,1,8,1:0:0:0:
436,173,196342,6,0,B|380:181|380:181|431:271,1,139.999990463257,4|2,0:3|0:0,0:0:0:0:
339,294,197122,2,0,B|309:270|309:270|266:281,2,69.9999952316285,4|8|2,0:3|0:0|0:2,0:0:0:0:
322,383,197901,1,4,0:3:0:0:
231,371,198161,1,2,0:0:0:0:
187,290,198420,1,2,0:0:0:0:
234,212,198680,2,0,B|193:165|193:165|246:121|246:121|211:90|211:90|213:34,1,209.999985694886,4|4,0:3|0:3,0:0:0:0:
123,46,199719,5,2,0:0:0:0:
36,18,199979,1,2,0:0:0:0:
32,109,200238,2,0,L|53:205,1,69.9999952316285,4|8,0:3|0:0,0:0:0:0:
119,232,200758,1,2,0:2:0:0:
186,292,201018,2,0,L|168:368,2,69.9999952316285,4|2|2,0:3|0:0|0:0,0:0:0:0:
251,227,201797,1,4,0:3:0:0:
328,274,202057,1,8,0:0:0:0:
396,213,202316,1,2,0:2:0:0:
486,203,202576,6,0,B|500:167|500:167|478:138,2,69.9999952316285,4|4|4,1:3|1:3|1:3,0:0:0:0:
413,257,203355,2,0,B|431:282|431:282|417:317,2,69.9999952316285,4|4|4,1:3|1:3|1:3,0:0:0:0:
348,192,204135,2,0,L|363:109,2,69.9999952316285,4|4|4,0:3|0:3|0:3,0:0:0:0:
267,234,204914,2,0,L|279:302,2,69.9999952316285,4|12|4,0:3|0:2|0:3,0:0:0:0:
181,201,205693,5,4,0:3:0:0:
93,225,205953,1,4,0:3:0:0:
9,189,206212,1,4,0:3:0:0:
80,132,206472,5,4,0:3:0:0:
166,160,206732,1,4,0:3:0:0:
236,102,206992,1,4,0:3:0:0:
195,20,207251,5,4,0:3:0:0:
128,82,207511,1,4,0:3:0:0:
45,43,207771,1,8,1:0:0:0:
122,0,208031,6,2,B|172:46|172:46|105:140|105:140|146:179,1,209.999985694886,2|4,1:2|0:2,2:2:0:0:
256,192,210368,12,2,215044,1:0:0:0:
