osu file format v14

[General]
AudioFilename: audio.mp3
AudioLeadIn: 0
PreviewTime: 78729
Countdown: 0
SampleSet: Soft
StackLeniency: 0.7
Mode: 0
LetterboxInBreaks: 0
WidescreenStoryboard: 0

[Editor]
DistanceSpacing: 0.4
BeatDivisor: 5
GridSize: 16
TimelineZoom: 8

[Metadata]
Title:Anteisce
TitleUnicode:Anteisce
Artist:rN
ArtistUnicode:rN
Creator:Ryuusei Aika
Version:Fractus
Source:Corsace Open 2022
Tags:co2022 co22 grand finals gf nm6 electronic instrumental midorijeon deppyforce shiny braixen tycani down gordon deviouspanda mimiliaa osu! featured artist fa 猫鈴杏
BeatmapID:3802315
BeatmapSetID:1850922

[Difficulty]
HPDrainRate:4.4
CircleSize:4.4
OverallDifficulty:9.2
ApproachRate:8.8
SliderMultiplier:1.92
SliderTickRate:1

[Events]
//Background and Video events
0,0,"bg.jpg",0,0
//Break Periods
//Storyboard Layer 0 (Background)
//Storyboard Layer 1 (Fail)
//Storyboard Layer 2 (Pass)
//Storyboard Layer 3 (Foreground)
//Storyboard Layer 4 (Overlay)
//Storyboard Sound Samples

[TimingPoints]
1712,579.710144927536,3,2,1,40,1,0
15045,-50,3,2,1,40,0,0
15625,289.855072463768,6,2,1,60,1,0
15625,-66.6666666666667,6,2,1,60,0,0
15914,-133.333333333333,6,2,1,60,0,0
16494,-66.6666666666667,6,2,1,60,0,0
16784,-100,6,2,1,60,0,0
17364,-66.6666666666667,6,2,1,60,0,0
17653,-100,6,2,1,60,0,0
17943,-80,6,2,1,60,0,0
18523,-66.6666666666667,6,2,1,60,0,0
18813,-133.333333333333,6,2,1,60,0,0
19103,-100,6,2,1,60,0,0
20262,-80,6,2,1,60,0,0
20588,-100,6,2,1,60,0,0
20914,-80,6,2,1,60,0,0
21277,-100,6,2,1,60,0,0
21422,-66.6666666666667,6,2,1,60,0,0
21711,-80,6,2,1,60,0,0
22001,-66.6666666666667,6,2,1,60,0,0
22581,-80,6,2,1,60,0,0
23306,-66.6666666666667,6,2,1,60,0,0
24030,-80,6,2,1,60,0,0
24320,-66.6666666666667,6,2,1,60,0,0
25769,-100,6,2,1,60,0,0
26059,-80,6,2,1,60,0,0
26784,-100,6,2,1,60,0,0
26929,-66.6666666666667,6,2,1,60,0,0
27436,-100,6,2,1,60,0,0
27581,-133.333333333333,6,2,1,60,0,0
27798,-80,6,2,1,60,0,0
28378,-66.6666666666667,6,2,1,60,0,0
28668,-80,6,2,1,60,0,0
29610,-133.333333333333,6,2,1,60,0,0
30806,-66.6666666666667,6,2,1,60,0,0
32823,-66.6666666666667,6,2,1,60,0,0
33016,-50,6,2,1,75,0,0
33306,-100,6,2,1,75,0,0
33596,-80,6,2,1,75,0,0
33885,-500,6,2,1,75,0,0
34755,-50,6,2,1,75,0,0
35045,-100,6,2,1,75,0,0
35335,-80,6,2,1,75,0,0
35624,-50,6,2,1,75,0,0
36494,-50,6,2,1,75,0,0
36784,-100,6,2,1,75,0,0
37074,-80,6,2,1,75,0,0
37364,-303.030303030303,6,2,1,75,0,0
37943,-133.333333333333,6,2,1,75,0,0
38233,-50,6,2,1,75,0,0
38523,-100,6,2,1,75,0,0
38813,-80,6,2,1,75,0,0
39103,-50,6,2,1,75,0,0
39972,-66.6666666666667,6,2,1,75,0,0
40262,-80,6,2,1,75,0,0
40552,-100,6,2,1,75,0,0
41132,-89.2857142857143,6,2,1,75,0,0
41422,-89.2857142857143,6,2,1,75,0,0
42001,-72.992700729927,6,2,1,75,0,0
42291,-80,6,2,1,75,0,0
42581,-89.2857142857143,6,2,1,75,0,0
42871,-80,6,2,1,75,0,0
43161,-89.2857142857143,6,2,1,75,0,0
43451,-100,6,2,1,75,0,0
43740,-89.2857142857143,6,2,1,75,0,0
44030,-80,6,2,1,75,0,0
44900,-72.992700729927,6,2,1,75,0,0
45190,-66.6666666666667,6,2,1,75,0,0
45480,-80,6,2,1,75,0,0
46929,-50,6,2,1,75,0,0
47364,-100,6,2,1,75,0,0
47509,-57.1428571428571,6,2,1,75,0,0
48088,-100,6,2,1,75,0,0
48668,-50,6,2,1,75,0,0
48958,-100,6,2,1,75,0,0
50117,-66.6666666666667,6,2,1,75,0,0
50407,-133.333333333333,6,2,1,75,0,0
50987,-66.6666666666667,6,2,1,75,0,0
51277,-133.333333333333,6,2,1,75,0,0
51567,-66.6666666666667,6,2,1,75,0,0
51856,-133.333333333333,6,2,1,75,0,0
52726,-100,6,2,1,75,0,0
53016,-57.1428571428571,6,2,1,75,0,0
53596,-80,6,2,1,75,0,0
54175,-89.2857142857143,6,2,1,75,0,0
54465,-66.6666666666667,6,2,1,75,0,0
54755,-100,6,2,1,75,0,0
55624,-89.2857142857143,6,2,1,75,0,0
55769,-100,6,2,1,75,0,0
56204,-66.6666666666667,6,2,1,75,0,0
56494,-100,6,2,1,75,0,0
56639,-89.2857142857143,6,2,1,75,0,0
56784,-100,6,2,1,75,0,0
57364,-80,6,2,1,75,0,0
57653,-89.2857142857143,6,2,1,75,0,0
57798,-100,6,2,1,75,0,0
58233,-89.2857142857143,6,2,1,75,0,0
58777,-80,6,2,1,75,0,0
59393,-89.2857142857143,6,2,1,75,0,0
59972,-66.6666666666667,6,2,1,75,0,0
60842,289.855072463768,4,2,1,75,1,0
60842,-500,4,2,1,75,0,0
61422,-80,4,2,1,75,0,0
61567,-100,4,2,1,75,0,0
61711,-80,4,2,1,75,0,0
61856,-66.6666666666667,4,2,1,75,0,0
62001,-50,4,2,1,75,0,0
62581,-66.6666666666667,4,2,1,75,0,0
62871,-66.6666666666667,4,2,1,75,0,0
63016,-100,4,2,1,75,0,0
63161,-500,4,2,1,75,0,0
63740,-89.2857142857143,4,2,1,75,0,0
63885,-114.942528735632,4,2,1,75,0,0
64030,-89.2857142857143,4,2,1,75,0,0
64175,-80,4,2,1,75,0,0
64320,-55.5555555555556,4,2,1,75,0,0
64900,-66.6666666666667,4,2,1,75,0,0
65479,-500,4,2,1,75,0,0
66059,-133.333333333333,4,2,1,75,0,0
66204,-114.942528735632,4,2,1,75,0,0
66349,-100,4,2,1,75,0,0
66494,-89.2857142857143,4,2,1,75,0,0
66639,-62.5,4,2,1,75,0,0
67219,-80,4,2,1,75,0,0
67509,-66.6666666666667,4,2,1,75,0,0
67798,-500,4,2,1,75,0,0
68378,-133.333333333333,4,2,1,75,0,0
68523,-114.942528735632,4,2,1,75,0,0
68668,-100,4,2,1,75,0,0
68813,-89.2857142857143,4,2,1,75,0,0
68958,-66.6666666666667,4,2,1,75,0,0
69538,-80,4,2,1,75,0,0
70117,289.855072463768,5,2,1,75,1,0
70117,-83.3333333333333,5,2,1,75,0,0
70841,-76.9230769230769,5,2,1,75,0,0
71566,-83.3333333333333,5,2,1,75,0,0
72290,-71.4285714285714,5,2,1,75,0,0
73015,-83.3333333333333,5,2,1,75,0,0
73305,-62.5,5,2,1,75,0,0
73653,-90.9090909090909,5,2,1,75,0,0
74464,-76.9230769230769,5,2,1,75,0,0
75189,-66.6666666666667,5,2,1,75,0,0
75914,-83.3333333333333,5,2,1,75,0,0
76638,-90.9090909090909,5,2,1,75,0,0
77363,-66.6666666666667,5,2,1,75,0,0
78088,-76.9230769230769,5,2,1,75,0,0
78667,-66.6666666666667,5,2,1,75,0,0
78812,289.855072463768,4,2,1,65,1,0
78812,-285.714285714286,4,2,1,65,0,0
88014,-285.714285714286,4,2,1,5,0,0
88087,289.855072463768,6,2,1,55,1,0
88087,-250,6,2,1,55,0,0
95623,-133.333333333333,6,2,1,55,0,0
95913,-80,6,2,1,55,0,0
96202,-57.1428571428571,6,2,1,55,0,0
100260,-133.333333333333,6,2,1,60,0,0
101420,-100,6,2,1,60,0,0
101710,-72.992700729927,6,2,1,60,0,0
102000,434.782608695652,4,2,1,80,1,0
102000,-66.6666666666667,4,2,1,80,0,0
103304,-62.5,4,2,1,80,0,0
104028,-66.6666666666667,4,2,1,80,0,0
104608,-62.5,4,2,1,80,0,0
105478,-55.5555555555556,4,2,1,80,0,0
105913,-62.5,4,2,1,80,0,0
106347,-55.5555555555556,4,2,1,80,0,0
107714,-52.6315789473684,4,2,1,80,0,0
108956,-66.6666666666667,4,2,1,80,0,0
109826,-62.5,4,2,1,80,0,0
110695,-55.5555555555556,4,2,1,80,0,0
111275,-62.5,4,2,1,80,0,0
111855,-55.5555555555556,4,2,1,80,0,0
112434,-62.5,4,2,1,80,0,0
113478,-55.5555555555556,4,2,1,80,0,0
114695,-62.5,4,2,1,80,0,0
115913,-66.6666666666667,4,2,1,80,0,0
117072,-400,4,2,1,80,0,0
117652,-50,4,2,1,80,0,0
118086,-200,4,2,1,80,0,0
118521,-120.481927710843,4,2,1,80,0,0
118811,-66.6666666666667,4,2,1,80,0,0
119173,-55.5555555555556,4,2,1,80,0,0
119391,-66.6666666666667,4,2,1,80,0,0
120260,-62.5,4,2,1,80,0,0
121130,-50,4,2,1,80,0,0
121565,-66.6666666666667,4,2,1,80,0,0
122000,-55.5555555555556,4,2,1,80,0,0
122869,-62.5,4,2,1,80,0,0
123159,-66.6666666666667,4,2,1,80,0,0
124391,-80,4,2,1,80,0,0
124608,-50,4,2,1,80,0,0
124898,-66.6666666666667,4,2,1,80,0,0
125768,-62.5,4,2,1,80,0,0
127217,-66.6666666666667,4,2,1,80,0,0
128086,-55.5555555555556,4,2,1,80,0,0
128347,-80,4,2,1,80,0,0
129826,-50,4,2,1,80,0,0
130115,-55.5555555555556,4,2,1,80,0,0
130260,-50,4,2,1,80,0,0
130550,-55.5555555555556,4,2,1,80,0,0
130695,-47.6190476190476,4,2,1,80,0,0
130985,-55.5555555555556,4,2,1,80,0,0
131565,-47.6190476190476,4,2,1,80,0,0
133304,-55.5555555555556,4,2,1,80,0,0
135043,-47.6190476190476,4,2,1,80,0,0
135291,-55.5555555555556,4,2,1,80,0,0
135788,-66.6666666666667,4,2,1,80,0,0
136782,-55.5555555555556,4,2,1,80,0,0
137362,-66.6666666666667,4,2,1,80,0,0
138521,-47.6190476190476,4,2,1,80,0,0
138811,-55.5555555555556,4,2,1,80,0,0
138956,-47.6190476190476,4,2,1,80,0,0
139681,-55.5555555555556,4,2,1,80,0,0
140260,-62.5,4,2,1,80,0,0
140869,-66.6666666666667,4,2,1,80,0,0
142000,-55.5555555555556,4,2,1,80,0,0
142260,-62.5,4,2,1,80,0,0
142695,-58.8235294117647,4,2,1,80,0,0
143739,-55.5555555555556,4,2,1,80,0,0
144318,-66.6666666666667,4,2,1,80,0,0
145478,-47.6190476190476,4,2,1,80,0,0
146202,-66.6666666666667,4,2,1,80,0,0
146347,-55.5555555555556,4,2,1,80,0,0
147000,-62.5,4,2,1,80,0,0
147776,-55.5555555555556,4,2,1,80,0,0
148086,-47.6190476190476,4,2,1,80,0,0
149204,-66.6666666666667,4,2,1,80,0,0
150695,-47.6190476190476,4,2,1,80,0,0
150985,-55.5555555555556,4,2,1,80,0,0
151275,-52.6315789473684,4,2,1,80,0,0
152144,-62.5,4,2,1,80,0,0
152434,-47.6190476190476,4,2,1,80,0,0
152724,-55.5555555555556,4,2,1,80,0,0
153159,-52.6315789473684,4,2,1,80,0,0
154101,-50,4,2,1,80,0,0
154434,-55.5555555555556,4,2,1,80,0,0
155217,-52.6315789473684,4,2,1,80,0,0
155913,-47.6190476190476,4,2,1,80,0,0
156260,-66.6666666666667,4,2,1,80,0,0
156608,-55.5555555555556,4,2,1,80,0,0
157652,-80,4,2,1,80,0,0
171565,-80,4,2,1,60,0,0
173548,-50,4,2,1,60,0,0

[Colours]
Combo1 : 234,117,0
Combo2 : 0,96,191
Combo3 : 0,158,234
Combo4 : 64,128,128
Combo5 : 0,170,170
Combo6 : 159,0,80
Combo7 : 202,0,101
Combo8 : 159,80,0

[HitObjects]
464,64,15045,6,0,B|447:33|447:33|311:212|311:212|382:183,1,336
449,155,15625,6,0,L|189:181,1,216.000008239746,14|0,2:1|0:0,0:0:0:0:
81,183,15914,102,0,B|97:192|97:192|108:234,1,36.0000013732911,8|0,2:1|0:0,0:0:0:0:
150,192,16059,2,0,B|166:201|166:201|177:243,1,36.0000013732911
105,253,16204,2,0,B|121:262|121:262|132:304,1,36.0000013732911,2|0,2:3|0:0,0:0:0:0:
178,266,16349,2,0,B|194:275|194:275|205:317,1,36.0000013732911,2|0,2:3|0:0,0:0:0:0:
198,292,16494,6,0,B|240:327|240:327|379:297|379:297|359:280,1,216.000008239746
341,266,16784,2,0,B|298:266|298:266|267:362,1,144,10|0,2:1|0:0,0:0:0:0:
220,376,17074,101,10,2:1:0:0:
201,366,17146,1,2,2:3:0:0:
189,384,17219,1,2,2:3:0:0:
170,374,17291,1,2,2:3:0:0:
121,362,17364,6,0,B|73:194|73:194|141:134,1,216.000008239746,10|0,2:1|0:0,0:0:0:0:
181,150,17653,2,0,B|186:157|186:157|97:148,1,96,10|2,2:1|2:3,0:0:0:0:
32,142,17871,1,2,2:3:0:0:
18,140,17943,102,0,B|-3:119|-3:119|18:91,1,60,10|0,2:1|0:0,0:0:0:0:
73,37,18088,2,0,B|52:58|52:58|71:83,1,60
70,82,18233,6,0,L|115:72,4,30,2|2|2|2|2,2:2|2:3|2:3|2:3|2:3,0:0:0:0:
411,76,18523,102,0,B|388:32|388:32|326:142|326:142|352:185,1,216.000008239746,10|0,2:1|0:0,0:0:0:0:
370,164,18813,6,0,L|366:200,1,36.0000013732911,10|0,2:1|0:0,0:0:0:0:
445,190,18958,2,0,B|451:174|451:174|442:158,1,36.0000013732911,8|0,2:1|0:0,0:0:0:0:
388,72,19103,102,0,L|264:52,1,96,14|0,2:1|0:0,0:0:0:0:
256,2,19320,1,0,0:0:0:0:
256,2,19393,2,0,L|214:25,1,48,10|0,2:1|0:0,0:0:0:0:
222,99,19538,2,0,L|201:110,1,24
194,176,19682,5,2,2:2:0:0:
170,240,19827,1,0,0:0:0:0:
158,272,19972,102,0,L|137:283,4,24,2|2|2|2|2,2:2|2:3|2:3|2:3|2:3,0:0:0:0:
241,286,20190,1,0,0:0:0:0:
241,286,20262,6,0,B|151:280|151:280|188:361,1,180,2|0,2:2|0:0,0:0:0:0:
338,377,20588,2,0,L|345:348,1,24,2|0,2:2|0:0,0:0:0:0:
348,334,20697,2,0,B|280:340|280:340|262:361,1,96,2|2,2:3|2:2,0:0:0:0:
434,334,20951,102,0,B|433:209|433:209|406:187,1,150,0|2,0:0|2:2,0:0:0:0:
401,166,21277,2,0,B|385:183|385:183|388:207,1,48,8|0,2:1|0:0,0:0:0:0:
458,252,21422,6,0,L|507:185,1,72.0000027465821,2|0,2:2|0:0,0:0:0:0:
458,116,21567,2,0,B|495:112|495:112|486:78,1,72.0000027465821,8|0,2:1|0:0,0:0:0:0:
483,70,21711,102,0,B|399:58|399:58|376:94,1,120,10|0,2:1|0:0,0:0:0:0:
157,93,22001,2,0,B|139:112|139:112|219:99,1,108.000004119873,2|0,2:2|0:0,0:0:0:0:
220,99,22146,2,0,B|263:40|263:40|316:100,1,144.000005493164,8|2,2:1|2:2,0:0:0:0:
266,151,22509,5,0,0:0:0:0:
212,134,22581,2,0,B|264:59|264:59|322:124,1,180,14|0,2:1|0:0,0:0:0:0:
323,125,22871,2,0,L|146:161,1,180,10|0,2:1|0:0,0:0:0:0:
77,155,23161,102,0,L|106:161,1,30,2|0,2:2|0:0,0:0:0:0:
182,177,23306,2,0,B|201:192|201:192|166:345|166:345|154:266|154:266|126:304|126:304|112:272|112:272|100:292,1,360.000013732911
96,306,23740,2,0,L|89:270,1,36.0000013732911,10|0,2:1|0:0,0:0:0:0:
416,306,24030,6,0,L|421:276,1,30,10|0,2:1|0:0,0:0:0:0:
429,243,24103,1,2,2:3:0:0:
440,238,24176,1,2,2:3:0:0:
418,234,24248,1,2,2:3:0:0:
435,200,24320,101,10,2:1:0:0:
441,170,24393,2,0,L|468:28,1,144.000005493164,2|2,2:2|2:2,0:0:0:0:
399,15,24610,6,0,B|360:19|360:19|373:122,1,144.000005493164,10|0,2:1|0:0,0:0:0:0:
408,123,24827,1,2,2:3:0:0:
408,123,24900,2,0,B|380:147|380:147|345:144,1,72.0000027465821,10|0,2:1|0:0,0:0:0:0:
270,111,25045,2,0,B|242:135|242:135|207:132,1,72.0000027465821
187,103,25190,2,0,L|148:128,4,36.0000013732911,10|2|2|2|2,2:1|2:3|2:3|2:3|2:3,0:0:0:0:
298,199,25480,102,0,B|257:182|257:182|169:273|169:273|126:257,1,216.000008239746,10|0,2:1|0:0,0:0:0:0:
101,245,25769,6,0,L|148:239,1,48,10|0,2:1|0:0,0:0:0:0:
189,266,25914,2,0,B|172:284|172:284|150:275,1,48,8|0,2:1|0:0,0:0:0:0:
34,184,26059,102,0,B|59:209|59:209|28:349,1,180,10|0,2:1|0:0,0:0:0:0:
93,387,26349,2,0,L|108:324,1,60,10|0,2:1|0:0,0:0:0:0:
122,338,26784,6,0,L|110:384,1,48
185,380,26929,2,0,B|219:356|219:356|360:368|360:368|331:344,1,216.000008239746,2|0,2:2|0:0,0:0:0:0:
334,347,27219,1,2,2:2:0:0:
507,192,27436,102,0,B|489:207|489:207|494:239,1,48,0|2,0:0|2:2,0:0:0:0:
504,252,27581,2,0,L|512:217,1,36.0000013732911
506,121,27726,5,0,0:0:0:0:
506,121,27798,2,0,B|462:111|462:111|395:204|395:204|438:285,1,240,10|2,2:1|2:2,0:0:0:0:
399,266,28161,1,0,0:0:0:0:
366,258,28233,102,0,L|383:188,1,60,8|0,2:1|0:0,0:0:0:0:
336,144,28378,2,0,B|347:129|347:129|344:113,2,36.0000013732911,2|0|0,2:2|0:0|0:0,0:0:0:0:
275,77,28523,2,0,B|252:105|252:105|259:139,1,72.0000027465821,8|0,2:1|0:0,0:0:0:0:
294,258,28668,6,0,B|262:244|262:244|220:279|220:279|183:264,1,120,10|0,2:1|0:0,0:0:0:0:
295,371,28958,2,0,L|302:338,2,30,2|0|0,2:2|0:0|0:0,0:0:0:0:
305,329,29103,102,0,L|312:296,1,30,8|0,2:1|0:0,0:0:0:0:
386,370,29211,2,0,L|393:337,1,30,0|2,0:0|2:2,0:0:0:0:
119,340,29393,6,0,L|126:370,1,30
223,384,29501,2,0,L|216:351,1,30,0|2,0:0|2:2,0:0:0:0:
216,354,29610,102,0,B|227:317|227:317|191:308|191:308|190:269|190:269|150:266|150:266|115:164|115:164|318:97|318:97|358:124|358:124|345:145,1,540.000020599366,2|0,2:2|0:0,0:0:0:0:
291,213,30806,6,0,B|282:187|282:187|302:171,4,36.0000013732911,2|2|2|2|2,2:3|2:3|2:3|2:3|2:3,0:0:0:0:
279,285,31023,1,2,2:3:0:0:
256,300,31083,101,2,2:3:0:0:
373,220,31277,5,2,2:3:0:0:
474,312,31470,101,2,2:3:0:0:
383,368,31663,5,2,2:3:0:0:
332,304,31856,101,2,2:3:0:0:
359,286,32050,5,2,2:3:0:0:
309,243,32243,101,2,2:3:0:0:
238,296,32436,5,2,2:3:0:0:
315,373,32629,101,2,2:3:0:0:
449,308,32823,6,0,B|501:240|501:240|490:184,1,144.000005493164
415,97,33016,102,0,B|325:135|378:189|367:232|293:264|263:184|226:303,1,288,14|0,2:1|0:0,0:0:0:0:
229,303,33306,6,0,P|247:289|249:266,1,48,10|0,2:1|0:0,0:0:0:0:
135,264,33451,2,0,P|131:240|146:222,1,48,4|0,2:3|0:0,0:0:0:0:
257,169,33596,102,0,L|320:197,1,60,2|0,2:2|0:0,0:0:0:0:
254,166,33740,2,0,L|199:141,1,60,2|0,2:2|0:0,0:0:0:0:
58,29,33885,6,0,P|44:44|45:63,2,38.4,10|2|8,2:2|2:3|2:1,0:0:0:0:
71,26,34755,102,0,B|211:42|38:217|244:108|251:225,1,288,10|0,2:1|0:0,0:0:0:0:
242,340,35045,6,0,L|251:293,1,48,10|0,2:1|0:0,0:0:0:0:
74,191,35190,2,0,L|65:238,1,48,4|0,2:3|0:0,0:0:0:0:
157,329,35335,102,0,P|176:308|173:279,1,60,10|0,2:1|0:0,0:0:0:0:
175,209,35480,2,0,P|155:230|158:259,1,60,10|0,2:1|0:0,0:0:0:0:
247,371,35624,6,0,L|383:347,1,96,10|0,2:2|0:0,0:0:0:0:
341,354,35914,2,0,L|357:238,1,96,10|0,2:1|0:0,0:0:0:0:
431,160,36204,102,0,B|382:150|382:150|328:185,1,96,10|0,2:1|0:0,0:0:0:0:
343,175,36349,2,0,B|333:224|333:224|368:278,1,96,10|0,2:1|0:0,0:0:0:0:
496,206,36494,6,0,B|426:134|415:215|343:186|312:131|320:90|232:113,1,288,10|0,2:1|0:0,0:0:0:0:
216,127,36784,102,0,P|238:133|261:126,1,48,10|0,2:1|0:0,0:0:0:0:
385,51,36929,2,0,P|362:58|339:52,1,48,4|0,2:3|0:0,0:0:0:0:
205,25,37074,6,0,L|134:56,1,60,4|0,2:3|0:0,0:0:0:0:
209,29,37219,2,0,L|263:4,1,60,2|0,2:2|0:0,0:0:0:0:
87,86,37364,102,0,P|70:97|69:136,1,47.5199998549805,10|0,2:2|0:0,0:0:0:0:
46,115,37653,2,0,P|50:92|69:78,1,47.5199998549805,2|0,2:3|0:0,0:0:0:0:
150,121,37943,6,0,P|160:138|163:174,1,36.0000013732911,10|0,2:1|0:0,0:0:0:0:
163,230,38088,2,0,P|159:247|150:263,1,36.0000013732911,10|0,2:1|0:0,0:0:0:0:
9,240,38233,102,0,B|72:275|90:371|185:108|146:413|208:322|308:330,1,288,10|0,2:1|0:0,0:0:0:0:
383,299,38523,6,0,L|329:314,1,48,2|0,2:3|0:0,0:0:0:0:
269,318,38668,2,0,L|315:305,1,48,4|0,2:3|0:0,0:0:0:0:
472,223,38813,102,0,P|454:247|456:280,1,60,8|0,2:1|0:0,0:0:0:0:
482,370,38958,2,0,P|505:351|512:319,1,60,8|0,2:1|0:0,0:0:0:0:
512,222,39103,6,0,B|478:188|478:188|418:209,1,96,8|0,2:2|0:0,0:0:0:0:
364,186,39393,102,0,B|347:169|347:169|317:179,2,48,8|8|8,2:3|2:3|2:3,0:0:0:0:
255,159,39538,1,8,2:1:0:0:
255,159,39682,6,0,B|238:142|238:142|208:152,2,48,8|8|8,2:3|2:3|2:3,0:0:0:0:
106,122,39827,2,0,B|123:139|123:139|153:128,2,48,8|8|8,2:3|2:3|2:3,0:0:0:0:
112,141,39972,102,0,L|130:211,1,72.0000027465821,10|0,2:1|0:0,0:0:0:0:
251,285,40117,2,0,L|271:361,1,72.0000027465821
53,200,40262,6,0,L|67:258,1,60,10|0,2:1|0:0,0:0:0:0:
173,272,40407,2,0,L|188:331,1,60
47,273,40552,102,0,L|61:331,1,48,2|0,2:2|0:0,0:0:0:0:
75,334,40697,2,0,L|87:381,1,48
215,161,40842,6,0,L|227:208,1,48,10|0,2:2|0:0,0:0:0:0:
264,72,40987,2,0,L|275:118,1,48
255,223,41132,102,0,L|268:276,1,53.76000065625,10|0,2:1|0:0,0:0:0:0:
286,75,41277,2,0,L|298:127,1,53.76000065625
344,282,41422,6,0,L|351:307,2,26.880000328125,10|2|2,2:1|2:3|2:3,0:0:0:0:
372,114,41567,2,0,L|385:167,1,53.76000065625
324,353,41711,102,0,L|337:301,1,53.76000065625,10|0,2:1|0:0,0:0:0:0:
355,311,41856,2,0,L|369:252,1,53.76000065625
170,301,42001,6,0,L|185:237,1,65.7600018563233,10|0,2:1|0:0,0:0:0:0:
286,134,42146,2,0,L|299:70,1,65.7600018563233
106,197,42291,102,0,L|121:139,1,60,10|0,2:1|0:0,0:0:0:0:
215,88,42436,2,0,L|233:17,1,60
253,355,42581,6,0,L|266:302,1,53.76000065625,10|0,2:2|0:0,0:0:0:0:
256,198,42726,2,0,L|269:145,1,53.76000065625
340,286,42871,102,0,L|355:222,1,60,10|0,2:1|0:0,0:0:0:0:
363,123,43016,2,0,L|377:64,1,60,8|0,2:1|0:0,0:0:0:0:
432,228,43161,6,0,L|438:201,2,26.880000328125,8|8|8,2:3|2:3|2:3,0:0:0:0:
488,189,43306,2,0,L|494:162,2,26.880000328125,8|8|8,2:3|2:3|2:3,0:0:0:0:
496,272,43451,102,0,L|508:326,1,48,10|0,2:1|0:0,0:0:0:0:
509,384,43596,2,0,L|498:337,1,48,2|0,2:2|0:0,0:0:0:0:
358,220,43740,6,0,L|369:272,1,53.76000065625,10|0,2:1|0:0,0:0:0:0:
434,377,43885,2,0,L|422:325,1,53.76000065625
265,187,44030,102,0,L|278:249,1,60,2|0,2:2|0:0,0:0:0:0:
326,381,44175,2,0,L|311:316,1,60
312,76,44320,6,0,L|325:138,1,60,10|0,2:2|0:0,0:0:0:0:
196,210,44465,2,0,L|182:151,1,60
270,20,44610,102,0,L|282:78,1,60,2|0,2:2|0:0,0:0:0:0:
196,136,44755,2,0,L|183:77,1,60,2|0,2:3|0:0,0:0:0:0:
112,8,44900,6,0,L|118:40,2,32.8800009281616,8|8|8,2:3|2:3|2:3,0:0:0:0:
90,193,45045,2,0,L|72:108,1,65.7600018563233,4|0,2:3|0:0,0:0:0:0:
128,330,45190,102,0,L|142:259,1,72.0000027465821,10|0,2:2|0:0,0:0:0:0:
14,176,45335,2,0,L|0:247,1,72.0000027465821
47,384,45480,6,0,L|61:313,1,60,2|0,2:2|0:0,0:0:0:0:
49,297,45624,2,0,L|36:355,1,60,8|0,2:1|0:0,0:0:0:0:
205,359,45769,102,0,L|219:288,1,60,2|0,2:2|0:0,0:0:0:0:
219,233,45913,2,0,L|206:291,1,60,8|0,2:1|0:0,0:0:0:0:
184,384,46059,21,10,2:2:0:0:
255,372,46175,1,4,2:3:0:0:
326,360,46291,1,4,2:3:0:0:
397,348,46407,5,4,2:3:0:0:
408,277,46523,1,4,2:3:0:0:
418,205,46639,1,4,2:3:0:0:
350,178,46755,102,0,L|251:195,1,96,4|0,2:3|0:0,0:0:0:0:
240,182,46929,86,0,B|248:19|160:132|130:24|213:-25|214:-60|348:-18|340:119|160:132,1,480,10|0,2:1|0:0,0:0:0:0:
162,136,47364,2,0,L|102:148,1,48,8|0,2:1|0:0,0:0:0:0:
21,170,47509,2,0,B|-3:187|-3:187|71:174,1,84.0000008010864,8|0,2:2|0:0,0:0:0:0:
50,177,47798,6,0,B|181:167|121:322|-37:307|33:241,1,252.000002403259,4|0,2:3|0:0,0:0:0:0:
42,254,48088,2,0,L|1:278,1,48,10|0,2:1|0:0,0:0:0:0:
248,371,48378,2,0,B|242:338|257:356|248:325,2,48,10|0|0,2:1|0:0|0:0,0:0:0:0:
495,278,48668,38,0,B|407:276|347:190|438:65|519:48|512:153|426:208,1,288,10|0,2:1|0:0,0:0:0:0:
429,195,48958,1,10,2:1:0:0:
365,162,49054,1,8,2:1:0:0:
314,213,49151,1,8,2:1:0:0:
250,180,49248,54,0,L|311:188,1,48,10|0,2:2|0:0,0:0:0:0:
423,203,49393,1,0,0:0:0:0:
252,165,49538,2,0,B|405:171|327:299|421:280,1,192,4|2,2:3|2:2,0:0:0:0:
396,282,50117,54,0,P|422:289|459:279,1,48.0000018310548,10|0,2:1|0:0,0:0:0:0:
510,306,50214,2,0,P|484:313|447:303,1,48.0000018310548,10|0,2:1|0:0,0:0:0:0:
436,356,50310,2,0,P|412:358|390:352,1,48.0000018310548,10|0,2:1|0:0,0:0:0:0:
367,344,50407,54,0,L|389:382,1,36.0000013732911,10|0,2:1|0:0,0:0:0:0:
203,344,50552,2,0,L|225:382,1,36.0000013732911,8|0,2:1|0:0,0:0:0:0:
303,375,50697,6,0,L|285:344,1,36.0000013732911,8|0,2:1|0:0,0:0:0:0:
121,344,50842,2,0,L|143:382,1,36.0000013732911,8|0,2:1|0:0,0:0:0:0:
225,379,50987,102,0,B|267:361|267:361|293:332|282:251|209:226,1,216.000008239746,10|0,2:2|0:0,0:0:0:0:
143,197,51277,6,0,P|178:159|232:159,1,108.000004119873,2|0,2:2|0:0,0:0:0:0:
239,151,51567,102,0,P|130:193|140:283,1,216.000008239746,10|0,2:1|0:0,0:0:0:0:
165,277,51856,6,0,B|163:295|163:295|148:304,1,36.0000013732911,10|0,2:1|0:0,0:0:0:0:
67,304,52001,2,0,B|55:289|55:289|60:264,1,36.0000013732911,8|0,2:1|0:0,0:0:0:0:
75,181,52146,37,10,2:1:0:0:
64,164,52195,5,8,2:1:0:0:
83,146,52243,101,8,2:1:0:0:
76,137,52291,6,0,L|93:101,1,36.0000013732911,8|0,2:1|0:0,0:0:0:0:
99,24,52436,38,0,P|116:35|145:40,1,36.0000013732911,10|0,2:1|0:0,0:0:0:0:
267,4,52581,2,0,P|284:15|313:20,1,36.0000013732911,10|0,2:1|0:0,0:0:0:0:
161,31,52726,6,0,P|182:38|210:34,1,48,8|0,2:2|0:0,0:0:0:0:
255,95,52871,2,0,P|276:102|304:97,1,48
450,69,53016,102,0,P|384:116|444:57,1,252.000002403259,10|0,2:1|0:0,0:0:0:0:
491,183,53306,53,10,2:1:0:0:
466,118,53403,1,8,2:1:0:0:
403,145,53499,1,8,2:1:0:0:
376,78,53596,6,0,B|384:90|384:90|378:97|378:97|389:113,1,40,10|0,2:1|0:0,0:0:0:0:
403,145,53692,2,0,B|411:157|411:157|404:165|404:165|413:176,1,40,10|0,2:1|0:0,0:0:0:0:
426,208,53789,2,0,B|413:217|413:217|406:211|406:211|393:219,1,40,10|0,2:1|0:0,0:0:0:0:
361,233,53885,38,0,B|323:232|323:232|298:272|298:272|263:272,1,120,10|8,2:1|2:1,0:0:0:0:
166,250,54103,1,0,0:0:0:0:
188,222,54175,2,0,P|182:248|194:272,1,53.76000065625,4|0,2:3|0:0,0:0:0:0:
263,298,54320,1,8,2:1:0:0:
148,345,54465,6,0,L|364:345,1,216.000008239746,8|0,2:2|0:0,0:0:0:0:
495,345,54755,102,0,L|441:345,1,48,10|0,2:1|0:0,0:0:0:0:
381,364,54900,2,0,L|333:364,1,48,4|0,2:3|0:0,0:0:0:0:
131,364,55045,2,0,L|179:364,1,48,2|0,2:2|0:0,0:0:0:0:
333,364,55190,6,0,L|381:364,1,48,8|0,2:1|0:0,0:0:0:0:
257,338,55335,2,0,B|265:374|249:345|256:384,1,48,8|0,2:1|0:0,0:0:0:0:
183,368,55480,2,0,L|135:368,1,48,4|0,2:3|0:0,0:0:0:0:
0,355,55625,102,0,L|51:355,1,53.76000065625,10|0,2:1|0:0,0:0:0:0:
98,298,55769,6,0,P|113:280|114:257,1,48,8|0,2:1|0:0,0:0:0:0:
91,170,55914,2,0,P|79:190|57:198,1,48,4|0,2:3|0:0,0:0:0:0:
0,233,56059,2,0,P|23:235|43:224,1,48,8|0,2:1|0:0,0:0:0:0:
133,36,56204,102,0,B|121:96|121:96|197:151|197:151|187:211,1,216.000008239746,8|0,2:2|0:0,0:0:0:0:
324,211,56494,2,0,B|310:191|310:191|317:168,1,48,10|0,2:1|0:0,0:0:0:0:
282,75,56639,6,0,L|229:75,1,53.76000065625,4|0,2:3|0:0,0:0:0:0:
256,233,56784,102,0,P|264:254|255:275,1,48,10|0,2:1|0:0,0:0:0:0:
253,276,56929,2,0,P|245:255|254:234,1,48,8|0,2:1|0:0,0:0:0:0:
352,104,57074,6,0,P|360:95|363:84,1,24,8|8,2:3|2:3,0:0:0:0:
365,122,57146,2,0,P|376:119|384:110,1,24,8|8,2:3|2:3,0:0:0:0:
367,144,57219,2,0,P|378:147|389:143,1,24,8|8,2:3|2:3,0:0:0:0:
357,164,57291,2,0,P|365:172|376:175,1,24,8|8,2:3|2:3,0:0:0:0:
338,175,57364,102,0,P|343:233|374:284,1,120,10|8,2:1|2:1,0:0:0:0:
411,288,57581,1,0,0:0:0:0:
440,317,57653,6,0,B|429:347|429:347|400:365,1,53.76000065625,4|0,2:3|0:0,0:0:0:0:
319,380,57798,2,0,L|319:317,1,48,8|0,2:1|0:0,0:0:0:0:
319,332,57943,1,4,2:3:0:0:
256,182,58117,5,8,2:1:0:0:
256,88,58233,2,0,B|208:68|159:93|165:133|123:164|64:144,1,215.040002625,10|0,2:1|0:0,0:0:0:0:
61,130,58559,101,8,2:1:0:0:
127,117,58668,1,8,2:1:0:0:
182,155,58777,1,8,2:1:0:0:
26,293,58958,1,8,2:1:0:0:
124,231,59103,102,0,B|140:336|29:282|50:389,1,180,10|8,2:1|2:1,0:0:0:0:
81,378,59393,6,0,P|107:381|136:378,1,53.76000065625,8|0,2:1|0:0,0:0:0:0:
229,322,59538,2,0,P|256:325|283:322,1,53.76000065625,8|0,2:1|0:0,0:0:0:0:
377,378,59682,2,0,P|404:381|431:378,1,53.76000065625,8|0,2:1|0:0,0:0:0:0:
475,322,59827,1,4,2:3:0:0:
358,365,59972,102,0,B|286:388|257:263|228:388|155:365,1,216.000008239746,8|0,2:2|0:0,0:0:0:0:
128,365,60262,1,8,2:1:0:0:
328,93,60480,5,8,2:1:0:0:
266,139,60588,1,8,2:1:0:0:
256,217,60697,2,0,P|270:266|321:279,1,108.000004119873,8|0,2:1|0:0,0:0:0:0:
357,280,60842,102,0,B|345:238|375:263|364:214,1,67.2,10|0,2:1|0:0,0:0:0:0:
183,0,61422,6,0,P|161:14|153:53,1,60,2|0,2:2|0:0,0:0:0:0:
92,0,61567,2,0,P|105:20|106:44,1,48,2|0,2:2|0:0,0:0:0:0:
22,77,61711,2,0,P|40:103|88:104,1,60,2|0,2:2|0:0,0:0:0:0:
212,110,61856,2,0,L|140:115,1,72.0000027465821,2|0,2:2|0:0,0:0:0:0:
0,128,62001,102,0,B|-64:172|-65:279|104:310|256:309|448:191|474:98|433:50|421:40,1,672,10|0,2:2|0:0,0:0:0:0:
367,13,62581,2,0,B|341:71|341:71|200:10,1,216.000008239746,2|0,2:2|0:0,0:0:0:0:
118,33,62871,2,0,B|182:20|157:72|254:61,1,144.000005493164,10|0,2:1|0:0,0:0:0:0:
256,375,63161,6,0,B|255:338|280:353|275:312,1,67.2,10|0,2:1|0:0,0:0:0:0:
340,169,63740,102,0,P|329:190|333:230,1,53.76000065625,2|0,2:2|0:0,0:0:0:0:
402,223,63885,2,0,P|382:238|347:236,1,41.7600003504639,2|0,2:2|0:0,0:0:0:0:
264,273,64030,2,0,P|290:278|313:294,1,53.76000065625,2|0,2:2|0:0,0:0:0:0:
368,375,64175,2,0,L|384:313,1,60,2|0,2:2|0:0,0:0:0:0:
422,160,64320,6,0,B|527:152|555:224|589:375|260:466|122:364|157:293,1,604.799981542969,10|0,2:2|0:0,0:0:0:0:
237,159,64899,5,10,2:1:0:0:
204,232,65015,1,10,2:1:0:0:
122,221,65131,1,10,2:1:0:0:
109,144,65247,1,10,2:1:0:0:
179,105,65363,1,10,2:1:0:0:
370,102,65479,86,0,B|403:101|387:73|424:68,1,67.2,10|0,2:1|0:0,0:0:0:0:
503,66,66059,6,0,P|511:43|510:20,1,36.0000013732911,2|0,2:2|0:0,0:0:0:0:
488,112,66204,2,0,P|503:127|510:147,1,41.7600003504639,2|0,2:2|0:0,0:0:0:0:
428,73,66349,2,0,P|417:93|415:120,1,48,2|0,2:2|0:0,0:0:0:0:
410,223,66494,2,0,L|445:179,1,53.76000065625,2|0,2:2|0:0,0:0:0:0:
372,30,66639,102,0,B|444:27|469:326|-20:235|92:77,1,537.6,10|0,2:2|0:0,0:0:0:0:
128,23,67218,2,0,B|93:52|104:114|180:151|235:123|241:66,1,230.4,2|0,2:2|0:0,0:0:0:0:
291,10,67508,2,0,B|328:1|328:1|311:81,1,120,10|0,2:1|0:0,0:0:0:0:
303,325,67798,6,0,B|270:318|279:350|242:348,1,67.2,10|0,2:1|0:0,0:0:0:0:
179,288,68378,102,0,P|180:271|193:250,1,36.0000013732911,2|0,2:2|0:0,0:0:0:0:
137,306,68523,2,0,P|128:297|98:302,1,41.7600003504639,2|0,2:2|0:0,0:0:0:0:
35,382,68668,2,0,P|44:363|41:332,1,48,2|0,2:2|0:0,0:0:0:0:
0,218,68813,2,0,L|9:274,1,53.76000065625,2|0,2:2|0:0,0:0:0:0:
113,377,68958,6,0,B|259:470|392:114|181:-19|143:111,1,504.000019226075,10|0,2:2|0:0,0:0:0:0:
143,99,69538,5,10,2:1:0:0:
133,165,69653,1,10,2:1:0:0:
192,194,69769,1,10,2:1:0:0:
239,147,69885,1,10,2:1:0:0:
208,88,70001,1,10,2:1:0:0:
315,0,70117,6,0,B|281:106|408:71|360:208,1,230.39999296875,10|0,2:1|0:0,0:0:0:0:
263,306,70522,1,8,2:1:0:0:
308,255,70638,1,8,2:1:0:0:
370,282,70754,2,0,P|392:310|385:356,1,69.1199978906251,8|10,2:1|2:1,0:0:0:0:
201,279,71131,101,8,2:1:0:0:
209,198,71247,1,8,2:1:0:0:
21,283,71478,1,8,2:1:0:0:
83,310,71566,6,0,P|112:262|106:160,1,161.279995078125,10|0,2:1|0:0,0:0:0:0:
40,132,71856,1,8,2:1:0:0:
208,37,72088,2,0,P|236:72|237:117,1,92.1599971875001,8|8,2:1|2:1,0:0:0:0:
168,97,72290,2,0,B|94:91|125:146|28:135,1,134.399995898438,10|0,2:1|0:0,0:0:0:0:
145,337,72580,101,8,2:1:0:0:
218,358,72696,1,8,2:1:0:0:
260,295,72812,1,8,2:1:0:0:
215,235,72928,2,0,B|174:230|174:230|146:259,1,80.6399975390626,8|10,2:1|2:1,0:0:0:0:
502,184,73305,6,0,P|496:170|483:159,10,30.72,8|8|8|8|8|8|8|8|8|8|8,2:1|2:3|2:3|2:3|2:3|2:3|2:3|2:3|2:3|2:3|2:3,0:0:0:0:
501,205,73653,2,0,P|479:231|432:237,1,63.3600019335938,8|10,2:1|2:1,0:0:0:0:
421,220,73798,2,0,P|399:197|369:189,2,63.3600019335938,0|4|0,0:0|2:3|0:0,0:0:0:0:
464,272,74030,101,8,2:1:0:0:
415,329,74145,1,8,2:1:0:0:
345,300,74261,1,8,2:1:0:0:
296,357,74377,86,0,L|234:371,1,63.3600019335938,8|10,2:1|2:1,0:0:0:0:
87,304,74609,1,8,0:1:0:0:
160,135,74774,85,10,2:1:0:0:
338,136,74940,1,8,2:1:0:0:
300,178,75023,1,8,2:1:0:0:
321,231,75105,1,8,2:1:0:0:
283,273,75189,85,10,2:1:0:0:
354,234,75286,1,8,2:1:0:0:
432,253,75382,1,8,2:1:0:0:
442,327,75479,1,8,2:1:0:0:
371,366,75576,1,8,2:1:0:0:
293,347,75672,1,8,2:1:0:0:
284,276,75769,1,8,2:1:0:0:
101,363,75914,86,0,B|93:320|136:331|134:276,1,92.1599971875001,10|0,2:1|0:0,0:0:0:0:
133,264,76059,1,8,2:1:0:0:
65,230,76174,1,8,2:1:0:0:
76,154,76290,1,8,2:1:0:0:
151,140,76406,6,0,L|162:58,2,69.1199978906251,8|8|8,2:1|2:1|2:1,0:0:0:0:
109,120,76638,2,0,P|78:123|54:113,1,52.8000016113282,10|0,2:1|0:0,0:0:0:0:
77,16,76783,2,0,P|108:19|132:9,1,52.8000016113282,8|0,2:1|0:0,0:0:0:0:
256,0,76949,37,8,2:1:0:0:
299,34,77032,1,8,2:1:0:0:
285,86,77114,1,8,2:1:0:0:
328,120,77197,1,8,2:1:0:0:
314,172,77280,1,8,2:1:0:0:
357,206,77363,2,0,B|400:239|400:239|366:290,1,108.000004119873,10|0,2:1|0:0,0:0:0:0:
356,307,77508,21,8,2:1:0:0:
305,302,77580,1,8,2:1:0:0:
267,267,77653,1,8,2:1:0:0:
222,242,77725,1,8,2:1:0:0:
175,250,77798,5,8,2:1:0:0:
136,283,77870,1,8,2:1:0:0:
106,326,77943,1,8,2:1:0:0:
57,341,78015,1,8,2:1:0:0:
7,340,78088,102,0,L|87:353,1,62.3999971435548,4|0,2:3|0:0,0:0:0:0:
145,332,78232,2,0,L|225:345,1,62.3999971435548,4|0,2:3|0:0,0:0:0:0:
305,342,78377,6,0,L|367:332,1,62.3999971435548,4|0,2:3|0:0,0:0:0:0:
443,350,78522,2,0,L|505:340,1,62.3999971435548,4|0,2:3|0:0,0:0:0:0:
304,187,78667,102,0,P|255:202|250:253,1,108.000004119873,4|0,2:3|0:0,0:0:0:0:
256,260,78812,6,1,B|305:301|279:325|304:360|321:381|366:383|404:383|404:383|416:328|419:303|398:267|351:249|351:249|411:242|472:221|519:159|462:92|505:53|542:24|542:24|330:-17|260:133|258:199|258:199|260:133|210:-23|1:-2|1:-2|28:29|66:70|5:132|42:198|100:226|160:239|160:239|111:252|86:286|87:311|92:367|92:367|132:370|177:373|196:355|225:323|201:295|256:260,1,2133.5999348877,14|0,2:1|0:0,0:0:0:0:
283,267,88087,102,0,B|333:265|321:297|380:284,1,96,2|0,2:2|0:0,0:0:0:0:
397,284,88521,2,0,L|443:308,2,38.4,2|2|2,2:2|2:2|2:2,0:0:0:0:
301,257,88956,6,0,B|339:245|337:272|379:250,1,76.8,2|0,2:2|0:0,0:0:0:0:
391,238,89391,1,2,2:2:0:0:
453,252,89536,2,0,L|416:244,1,38.4,2|2,2:2|2:2,0:0:0:0:
316,243,89826,102,0,B|350:222|355:249|387:219,1,76.8,2|2,2:2|2:2,0:0:0:0:
252,211,90260,2,0,L|259:173,1,38.4,2|2,2:2|2:2,0:0:0:0:
116,219,90695,6,0,B|148:249|153:222|187:243,1,76.8,2|2,2:2|2:2,0:0:0:0:
255,169,91130,2,0,L|248:207,2,38.4,2|2|2,2:2|2:2|2:2,0:0:0:0:
148,98,91565,102,0,B|149:141|172:126|181:165,1,76.8,2|0,2:2|0:0,0:0:0:0:
259,165,92000,2,0,L|252:203,1,38.4,2|2,2:2|2:2,0:0:0:0:
319,97,92289,1,2,2:2:0:0:
266,24,92434,6,0,B|236:55|263:60|241:94,1,76.8,2|0,2:2|0:0,0:0:0:0:
263,169,92869,2,0,L|256:207,1,38.4,2|2,2:2|2:2,0:0:0:0:
256,206,93159,1,2,2:2:0:0:
327,104,93304,101,2,2:2:0:0:
352,93,93449,1,2,2:3:0:0:
373,73,93594,1,2,2:3:0:0:
397,57,93739,1,2,2:2:0:0:
426,52,93884,5,2,2:2:0:0:
356,97,94029,1,2,2:2:0:0:
429,135,94173,1,2,2:2:0:0:
359,180,94463,1,2,2:2:0:0:
359,180,94608,1,2,2:3:0:0:
432,218,94753,1,2,2:2:0:0:
185,280,95043,101,2,2:2:0:0:
160,291,95188,1,2,2:2:0:0:
139,311,95333,1,2,2:2:0:0:
115,327,95478,1,2,2:2:0:0:
86,332,95623,6,0,P|72:332|51:304,1,36.0000013732911,2|0,2:2|0:0,0:0:0:0:
83,249,95768,2,0,P|72:231|90:199,1,36.0000013732911,2|0,2:2|0:0,0:0:0:0:
153,204,95913,102,0,B|30:207|64:45|87:145,1,180,2|0,2:2|0:0,0:0:0:0:
94,145,96202,2,0,B|89:125|111:126|102:107,6,42.0000004005432,2|2|2|2|2|2|2,2:2|2:3|2:3|2:3|2:3|2:3|2:3,0:0:0:0:
101,96,96492,5,2,2:2:0:0:
105,83,96564,1,2,2:3:0:0:
116,74,96636,1,2,2:3:0:0:
118,60,96709,1,2,2:3:0:0:
106,9,96782,101,2,2:3:0:0:
406,9,100260,2,0,P|453:50|444:97,1,108.000004119873,2|0,2:2|0:0,0:0:0:0:
376,88,100550,2,0,L|385:11,2,72.0000027465821,2|0|2,2:2|0:0|2:2,0:0:0:0:
230,317,101130,2,0,L|234:281,1,36.0000013732911,2|0,0:0|0:0,0:0:0:0:
423,275,101420,6,0,B|377:281|377:247|333:252,1,96,2|0,2:2|0:0,0:0:0:0:
321,252,101637,1,0,0:0:0:0:
310,261,101710,2,0,P|325:165|316:94,1,164.400004640808,2|0,2:2|0:0,0:0:0:0:
300,188,102000,38,0,B|233:157|246:223|150:211,1,144.000005493164,14|0,2:1|0:0,0:0:0:0:
230,176,102289,1,8,2:1:0:0:
151,239,102434,6,0,P|136:220|138:197,1,48.0000018310548,2|0,2:2|0:0,0:0:0:0:
58,219,102579,2,0,P|57:242|72:261,1,48.0000018310548,2|0,2:2|0:0,0:0:0:0:
25,276,102724,2,0,P|10:257|12:234,1,48.0000018310548,2|0,2:2|0:0,0:0:0:0:
115,274,102869,101,2,2:2:0:0:
115,274,102942,2,0,B|130:324|79:316|102:375,1,96.0000036621095
115,384,103159,1,8,2:1:0:0:
256,349,103304,6,0,B|228:296|256:251|275:239|275:239|293:266|260:295,1,153.6,2|0,2:2|0:0,0:0:0:0:
270,304,103594,1,2,2:3:0:0:
289,340,103666,1,2,2:3:0:0:
354,366,103739,101,10,2:2:0:0:
394,377,103811,1,2,2:3:0:0:
430,370,103884,1,2,2:3:0:0:
430,370,103956,5,2,2:3:0:0:
457,345,104028,2,0,P|470:326|471:302,1,48.0000018310548,8|0,2:1|0:0,0:0:0:0:
453,234,104173,101,2,2:3:0:0:
472,217,104246,1,2,2:3:0:0:
458,205,104318,1,2,2:3:0:0:
354,132,104463,1,2,2:3:0:0:
67,172,104608,6,0,B|134:165|134:165|150:146|150:146|210:141,1,153.6,2|0,2:2|0:0,0:0:0:0:
278,137,104898,1,8,2:1:0:0:
142,190,105043,1,10,2:1:0:0:
42,136,105188,1,8,2:1:0:0:
55,92,105260,1,8,2:1:0:0:
83,126,105333,2,0,L|70:178,1,51.2,8|8,2:1|2:1,0:0:0:0:
53,248,105478,6,0,P|51:304|74:339,1,98.7428541294644,14|0,2:1|0:0,0:0:0:0:
194,302,105726,2,0,P|196:246|173:211,1,98.7428541294644,10|0,2:1|0:0,0:0:0:0:
139,216,105913,6,0,P|128:237|135:269,1,43.8857142857143,8|2,2:1|2:2,0:0:0:0:
221,318,106037,1,0,0:0:0:0:
221,318,106099,102,0,P|197:318|173:341,1,43.8857142857143
110,372,106223,2,0,P|133:371|157:348,1,43.8857142857143,2|0,2:2|0:0,0:0:0:0:
276,271,106347,6,0,L|266:370,1,98.7428541294644,10|0,2:1|0:0,0:0:0:0:
354,257,106534,2,0,L|343:355,1,98.7428541294644,10|0,2:1|0:0,0:0:0:0:
430,313,106720,2,0,P|502:272|483:194,1,148.114281194197,10|0,2:1|0:0,0:0:0:0:
472,184,106968,101,10,2:1:0:0:
430,194,107031,1,8,2:1:0:0:
404,161,107093,1,8,2:1:0:0:
418,121,107155,1,8,2:1:0:0:
488,117,107217,6,0,B|512:105|499:129|535:117,1,49.3714270647322,10|0,2:2|0:0,0:0:0:0:
256,192,107465,2,0,P|261:118|216:42,1,148.114281194197,10|0,2:1|0:0,0:0:0:0:
271,0,107714,2,0,L|246:154,1,156.342852968053,2|0,2:2|0:0,0:0:0:0:
177,154,107962,2,0,B|162:129|162:129|171:106,1,52.1142843226842,2|0,2:2|0:0,0:0:0:0:
232,57,108086,101,10,2:1:0:0:
358,131,108211,1,10,2:1:0:0:
212,141,108335,1,10,2:1:0:0:
338,215,108460,1,10,2:1:0:0:
192,225,108583,1,10,2:1:0:0:
318,299,108708,1,10,2:1:0:0:
172,309,108832,1,10,2:1:0:0:
250,355,108956,86,0,P|179:342|107:346,1,144.000005493164,14|0,2:1|0:0,0:0:0:0:
222,374,109246,2,0,P|245:377|268:384,1,48.0000018310548,8|0,2:1|0:0,0:0:0:0:
396,366,109391,6,0,P|420:355|449:357,1,48.0000018310548,2|0,2:2|0:0,0:0:0:0:
396,244,109536,2,0,L|448:244,1,48.0000018310548
396,122,109681,2,0,P|420:133|449:131,1,48.0000018310548
512,129,109826,1,2,2:2:0:0:
400,126,109898,102,0,L|288:133,1,102.4
0,192,110260,2,0,P|24:202|51:195,1,51.2,2|0,2:2|0:0,0:0:0:0:
104,132,110405,2,0,B|130:225|130:225|85:275,1,153.6,8|0,2:1|0:0,0:0:0:0:
224,192,110695,6,0,B|175:191|175:191|138:237|138:237|71:236,1,172.799994726563,10|0,2:2|0:0,0:0:0:0:
224,192,110984,1,8,2:1:0:0:
180,320,111130,1,2,2:2:0:0:
173,333,111202,1,0,0:0:0:0:
173,346,111275,2,0,P|195:365|223:369,1,51.2,2|2,2:3|2:3,0:0:0:0:
294,370,111420,2,0,P|318:363|337:346,1,51.2,2|2,2:3|2:3,0:0:0:0:
256,289,111565,102,0,B|347:287|305:332|405:326,1,153.6,2|0,2:2|0:0,0:0:0:0:
471,321,111855,2,0,L|525:339,1,57.5999982421876,8|0,2:1|0:0,0:0:0:0:
370,226,112000,2,0,L|315:207,1,57.5999982421876,10|0,2:1|0:0,0:0:0:0:
435,259,112144,1,8,2:1:0:0:
435,259,112217,2,0,P|450:205|457:127,1,115.199996484375,8|0,2:1|0:0,0:0:0:0:
458,48,112434,86,0,P|442:101|436:180,1,122.88,14|0,2:1|0:0,0:0:0:0:
358,134,112695,2,0,P|352:72|335:13,1,122.88,8|2,2:1|2:2,0:0:0:0:
307,82,112956,5,8,2:1:0:0:
366,149,113043,1,8,2:1:0:0:
306,214,113130,1,8,2:1:0:0:
225,179,113217,1,8,2:1:0:0:
166,246,113304,2,0,P|160:275|176:301,1,61.44,8|0,2:1|0:0,0:0:0:0:
269,297,113478,102,0,P|226:289|162:329,1,103.679996835938,10|0,2:1|0:0,0:0:0:0:
189,326,113651,2,0,L|58:353,1,103.679996835938,8|0,2:1|0:0,0:0:0:0:
69,352,113825,6,0,L|126:361,1,34.5599989453125,10|0,2:1|0:0,0:0:0:0:
112,368,113912,2,0,L|169:377,1,34.5599989453125
155,384,114000,1,8,2:1:0:0:
94,142,114173,102,0,P|98:210|69:272,1,138.23999578125,10|0,2:2|0:0,0:0:0:0:
40,266,114434,2,0,P|36:198|65:136,1,138.23999578125,10|0,2:1|0:0,0:0:0:0:
109,60,114695,2,0,L|97:0,1,61.44,2|0,2:2|0:0,0:0:0:0:
64,5,114869,2,0,L|75:65,1,61.44,2|0,2:2|0:0,0:0:0:0:
256,384,115217,5,10,2:1:0:0:
270,313,115304,1,8,2:1:0:0:
288,246,115391,1,8,2:1:0:0:
256,384,115565,101,10,2:1:0:0:
203,299,115652,1,8,2:1:0:0:
288,246,115739,1,8,2:1:0:0:
341,331,115826,1,8,2:1:0:0:
274,317,115913,1,14,2:1:0:0:
224,192,116202,22,0,L|292:179,1,48.0000018310548,10|0,2:1|0:0,0:0:0:0:
271,182,116347,2,0,L|224:192,1,48.0000018310548
224,192,116492,2,0,L|292:179,1,48.0000018310548,2|0,2:2|0:0,0:0:0:0:
271,182,116637,2,0,L|224:192,1,48.0000018310548
120,215,116782,6,0,P|83:287|103:363,1,144.000005493164,2|0,2:2|0:0,0:0:0:0:
161,357,117072,102,0,P|173:335|169:308,1,48,10|0,2:1|0:0,0:0:0:0:
102,181,117652,6,0,L|69:371,1,192,10|0,2:2|0:0,0:0:0:0:
0,325,117941,1,8,2:1:0:0:
67,309,118086,102,0,P|90:339|73:374,1,80,2|0,2:2|0:0,0:0:0:0:
157,362,118521,2,0,P|134:331|151:297,1,79.6800011550293,2|0,2:2|0:0,0:0:0:0:
226,152,118811,6,0,B|247:138|247:138|274:144,1,48.0000018310548,8|0,2:1|0:0,0:0:0:0:
286,232,118956,2,0,B|265:246|265:246|238:240,1,48.0000018310548,10|0,2:1|0:0,0:0:0:0:
256,192,119101,1,8,2:1:0:0:
330,177,119173,2,0,L|445:154,1,115.199996484375,8|0,2:1|0:0,0:0:0:0:
182,207,119391,6,0,L|58:230,1,123.428576136998,14|0,2:1|0:0,0:0:0:0:
0,192,119639,1,8,2:1:0:0:
112,91,120260,6,0,P|148:108|213:101,1,87.7714285714286,8|0,2:1|0:0,0:0:0:0:
220,84,120447,2,0,P|256:101|321:94,1,87.7714285714286,8|0,2:1|0:0,0:0:0:0:
329,123,120633,2,0,P|263:121|204:147,1,131.657142857143,8|0,2:1|0:0,0:0:0:0:
193,181,120881,101,8,2:1:0:0:
204,199,120944,1,8,2:1:0:0:
194,219,121006,1,8,2:1:0:0:
204,238,121068,1,8,2:1:0:0:
200,289,121130,6,0,B|247:276|247:276|295:323|295:323|343:309,1,164.571428571429,10|0,2:2|0:0,0:0:0:0:
341,309,121378,1,8,2:1:0:0:
58,72,121999,101,8,2:1:0:0:
67,162,122124,1,8,2:1:0:0:
129,97,122248,1,8,2:1:0:0:
139,187,122372,1,8,2:1:0:0:
203,123,122496,1,8,2:1:0:0:
212,213,122621,1,8,2:1:0:0:
276,149,122745,1,8,2:1:0:0:
205,232,122869,86,0,B|193:265|193:265|257:373,1,153.6,14|0,2:1|0:0,0:0:0:0:
324,362,123159,1,10,2:1:0:0:
150,343,123304,1,0,0:0:0:0:
218,257,123449,2,0,L|62:279,1,144.000005493164,2|0,2:2|0:0,0:0:0:0:
6,287,123739,6,0,L|-8:338,1,48.0000018310548
0,351,123884,2,0,P|14:339|6:318,1,24.0000009155274
79,281,124028,2,0,P|87:230|134:199,1,96.0000036621095
333,175,124318,101,8,2:1:0:0:
265,184,124391,2,0,P|239:155|239:112,1,80
412,105,124608,6,0,L|220:95,1,192,10|0,2:2|0:0,0:0:0:0:
177,35,124898,2,0,B|208:15|208:15|256:26,1,72.0000027465821,10|0,2:1|0:0,0:0:0:0:
262,21,125043,2,0,B|340:33,1,72.0000027465821,2|0,2:2|0:0,0:0:0:0:
353,30,125188,1,2,2:2:0:0:
269,221,125478,102,0,B|243:243|168:219|114:170|220:160|209:194|199:225,1,144.000005493164,2|0,2:2|0:0,0:0:0:0:
201,213,125768,2,0,P|165:227|129:221,1,51.2,8|0,2:1|0:0,0:0:0:0:
124,143,125913,2,0,P|88:157|52:151,1,51.2,8|0,2:1|0:0,0:0:0:0:
38,160,126057,1,8,2:1:0:0:
18,195,126130,2,0,B|-10:271|43:266|19:325,1,128,8|0,2:1|0:0,0:0:0:0:
25,322,126347,86,0,B|83:307|83:307|129:339|129:339|195:321,1,184.32,14|10,2:1|2:1,0:0:0:0:
511,20,127217,6,0,P|488:4|460:0,1,57.6000021972657,2|0,2:2|0:0,0:0:0:0:
390,16,127391,101,8,2:1:0:0:
146,131,127565,1,8,2:1:0:0:
451,183,127739,1,8,2:1:0:0:
262,0,127912,1,8,2:1:0:0:
280,261,128086,2,0,B|267:210|267:210|297:184|297:184|288:137,1,138.23999578125,10|0,2:1|0:0,0:0:0:0:
282,114,128347,5,8,2:1:0:0:
355,114,128434,2,0,L|400:128,1,48,0|2,0:0|2:2,0:0:0:0:
236,198,128608,1,0,0:0:0:0:
205,208,128695,2,0,L|118:234,1,48
159,221,129043,1,8,2:1:0:0:
121,235,129130,101,8,2:1:0:0:
93,161,129217,1,8,2:1:0:0:
154,111,129304,1,8,2:1:0:0:
317,81,129478,5,8,2:1:0:0:
397,51,129565,1,8,2:1:0:0:
449,119,129652,1,8,2:1:0:0:
404,192,129739,1,8,2:1:0:0:
320,168,129826,6,0,B|219:181|262:269|176:281,1,192,14|0,2:1|0:0,0:0:0:0:
128,332,130115,2,0,P|151:348|179:352,1,57.5999982421876,8|0,2:1|0:0,0:0:0:0:
265,273,130260,6,0,B|287:296|287:296|285:330,1,64,2|0,2:2|0:0,0:0:0:0:
360,230,130405,2,0,P|382:253|380:287,1,64,2|0,2:2|0:0,0:0:0:0:
445,191,130550,2,0,L|465:248,1,57.5999982421876,2|0,2:2|0:0,0:0:0:0:
512,224,130695,102,0,B|531:147|475:121|475:121|420:96|436:22,1,235.199992822266,2|0,2:2|0:0,0:0:0:0:
504,5,130985,2,0,P|484:26|443:28,1,57.5999982421876,2|0,2:2|0:0,0:0:0:0:
361,20,131130,5,2,2:3:0:0:
336,34,131202,1,2,2:3:0:0:
310,21,131275,1,2,2:3:0:0:
285,36,131347,1,2,2:3:0:0:
259,23,131420,1,2,2:3:0:0:
235,38,131492,1,2,2:3:0:0:
168,27,131565,102,0,B|213:38|213:38|162:156|162:156|146:134,1,201.599993847656,10|0,2:2|0:0,0:0:0:0:
216,126,131854,1,8,2:1:0:0:
252,161,131927,1,2,2:3:0:0:
248,205,132000,1,2,2:3:0:0:
229,239,132072,1,2,2:3:0:0:
236,274,132144,1,2,2:3:0:0:
259,292,132217,1,2,2:3:0:0:
280,295,132289,1,2,2:3:0:0:
295,291,132362,1,2,2:3:0:0:
298,284,132434,6,0,L|309:244,2,33.5999989746094,8|8|8,2:3|2:3|2:3,0:0:0:0:
364,311,132579,2,0,P|372:297|371:271,2,33.5999989746094,8|8|8,2:3|2:3|2:3,0:0:0:0:
403,381,132724,2,0,P|363:360|291:377,1,100.799996923828,8|0,2:1|0:0,0:0:0:0:
294,384,132869,2,0,P|254:363|182:380,1,100.799996923828,8|0,2:1|0:0,0:0:0:0:
133,384,133014,1,8,2:1:0:0:
194,351,133086,101,2,2:3:0:0:
153,319,133159,1,2,2:3:0:0:
169,275,133231,1,2,2:3:0:0:
148,248,133304,22,0,B|101:245|101:245|72:284|72:284|16:280,1,148.114281194197,14|0,2:1|0:0,0:0:0:0:
19,280,133552,2,0,B|-4:335|44:315|21:383,1,98.7428541294644,10|0,2:1|0:0,0:0:0:0:
368,202,133863,6,0,P|370:175|384:147,1,49.3714270647322,2|0,2:2|0:0,0:0:0:0:
435,248,133987,2,0,P|437:221|451:193,1,49.3714270647322,2|0,2:2|0:0,0:0:0:0:
484,173,134173,101,10,2:1:0:0:
256,96,134359,1,8,2:1:0:0:
28,173,134546,2,0,P|61:102|144:122,1,148.114281194197,10|0,2:1|0:0,0:0:0:0:
185,134,134795,5,8,2:1:0:0:
234,142,134857,1,8,2:1:0:0:
260,100,134919,1,8,2:1:0:0:
286,58,134981,1,8,2:1:0:0:
335,66,135043,102,0,B|344:88|344:88|178:63,1,172.799994726563,10|0,2:2|0:0,0:0:0:0:
323,136,135291,2,0,P|365:166|429:165,1,98.7428541294644,8|0,2:1|0:0,0:0:0:0:
443,157,135478,2,0,B|461:281|375:221|405:361,1,197.485708258929,2|0,2:2|0:0,0:0:0:0:
478,347,135788,2,0,P|474:367|462:383,1,41.1428587123327
428,384,135912,5,10,2:1:0:0:
394,258,136037,1,8,2:1:0:0:
335,372,136160,1,8,2:1:0:0:
302,246,136285,1,8,2:1:0:0:
243,360,136409,1,8,2:1:0:0:
209,234,136534,1,8,2:1:0:0:
150,348,136658,1,8,2:1:0:0:
180,153,136782,70,0,P|189:233|113:259,1,172.799994726563,14|0,2:1|0:0,0:0:0:0:
42,259,137072,2,0,P|16:269|-12:271,1,57.5999982421876,8|0,2:1|0:0,0:0:0:0:
121,348,137217,2,0,P|147:358|176:359,1,57.5999982421876,2|0,2:2|0:0,0:0:0:0:
246,320,137362,6,0,B|256:336|256:336|240:378,1,48.0000018310548
242,324,137507,2,0,B|232:308|232:308|248:266,1,48.0000018310548
270,216,137652,101,2,2:2:0:0:
308,251,137724,1,0,0:0:0:0:
360,248,137797,1,0,0:0:0:0:
400,135,137942,1,0,0:0:0:0:
265,87,138086,2,0,P|259:111|294:156,1,48.0000018310548,2|0,2:2|0:0,0:0:0:0:
329,166,138231,2,0,P|269:140|189:138,1,144.000005493164,8|0,2:1|0:0,0:0:0:0:
120,147,138521,6,0,P|216:141|273:219,1,201.599993847656,10|0,2:2|0:0,0:0:0:0:
274,291,138811,2,0,B|279:327|250:315|263:352,1,57.5999982421876,8|0,2:1|0:0,0:0:0:0:
122,323,138956,102,0,B|94:341|94:341|56:336,1,67.1999979492188,2|0,2:2|0:0,0:0:0:0:
109,252,139101,2,0,B|78:266|78:266|44:265,1,67.1999979492188,2|2,2:3|2:3,0:0:0:0:
103,215,139246,2,0,L|37:228,1,67.1999979492188,2|2,2:3|2:3,0:0:0:0:
195,303,139391,2,0,B|315:298|255:377|375:372,1,201.599993847656,2|0,2:2|0:0,0:0:0:0:
399,384,139681,6,0,P|408:348|431:311,1,57.5999982421876,8|0,2:1|0:0,0:0:0:0:
314,300,139826,2,0,P|336:281|337:251,1,57.5999982421876,8|0,2:1|0:0,0:0:0:0:
256,192,139971,1,8,2:1:0:0:
326,221,140043,2,0,P|379:245|450:242,1,115.199996484375,8|0,2:1|0:0,0:0:0:0:
186,163,140260,70,0,P|133:139|62:142,1,122.88,14|0,2:1|0:0,0:0:0:0:
261,203,140521,2,0,B|304:184|304:184|334:85|334:85|292:105,1,184.32,8|0,2:1|0:0,0:0:0:0:
242,66,140869,5,0,0:0:0:0:
265,99,140956,2,0,L|273:39,1,57.6000021972657,2|0,2:2|0:0,0:0:0:0:
171,86,141130,2,0,L|178:28,1,57.6000021972657
178,28,141304,101,10,2:1:0:0:
79,261,141478,2,0,L|84:203,1,57.6000021972657,8|2,2:1|2:2,0:0:0:0:
105,8,141652,1,8,2:1:0:0:
332,162,141825,1,8,2:1:0:0:
69,74,142000,6,0,B|73:164|144:120|129:229,1,138.23999578125,10|0,2:2|0:0,0:0:0:0:
68,231,142260,2,0,P|48:254|52:286,1,61.44,8|0,2:1|0:0,0:0:0:0:
185,246,142434,2,0,P|135:282|141:349,1,122.88,2|0,2:2|0:0,0:0:0:0:
334,312,142695,2,0,P|244:297|170:382,1,195.840003735352,2|0,2:2|0:0,0:0:0:0:
277,168,143043,101,8,2:1:0:0:
342,128,143130,1,8,2:1:0:0:
400,177,143217,1,8,2:1:0:0:
261,161,143391,5,8,2:1:0:0:
342,111,143478,1,8,2:1:0:0:
414,172,143565,1,8,2:1:0:0:
378,259,143652,1,8,2:1:0:0:
284,250,143739,6,0,P|234:268|239:329,1,115.199996484375,14|0,2:1|0:0,0:0:0:0:
266,384,143956,1,0,0:0:0:0:
303,371,144028,2,0,P|283:352|256:343,1,57.5999982421876,8|0,2:1|0:0,0:0:0:0:
177,360,144173,2,0,P|156:340|129:331,1,57.5999982421876,2|0,2:2|0:0,0:0:0:0:
0,298,144318,6,0,B|9:322|9:322|30:330,1,48.0000018310548,2|2,2:3|2:3,0:0:0:0:
88,298,144463,2,0,B|67:306|67:306|58:330,1,48.0000018310548,2|2,2:3|2:3,0:0:0:0:
1,369,144608,1,8,2:3:0:0:
62,334,144681,2,0,B|109:306|109:306|85:189,1,144.000005493164,0|8,0:0|2:1,0:0:0:0:
92,180,145188,102,0,L|108:112,1,48.0000018310548,10|2,2:1|2:3,0:0:0:0:
113,63,145333,1,2,2:3:0:0:
163,48,145405,1,2,2:3:0:0:
213,63,145478,2,0,B|238:116|238:116|180:195|180:195|213:256,1,201.599993847656,10|0,2:2|0:0,0:0:0:0:
233,298,145768,5,8,2:1:0:0:
201,234,145840,1,2,2:3:0:0:
240,197,145913,1,2,2:3:0:0:
212,165,145985,1,2,2:3:0:0:
233,144,146057,1,2,2:3:0:0:
233,314,146202,2,0,B|239:348|218:342|226:361,1,48.0000018310548
136,384,146347,102,0,L|251:384,1,115.199996484375,8|0,2:3|0:0,0:0:0:0:
383,315,146637,2,0,P|354:316|329:329,1,57.5999982421876,8|0,2:1|0:0,0:0:0:0:
318,255,146782,2,0,P|337:235|363:246,1,57.5999982421876,8|0,2:1|0:0,0:0:0:0:
507,322,146927,1,8,2:1:0:0:
452,370,147000,2,0,B|437:310|478:321|459:267,1,102.4,8|0,2:1|0:0,0:0:0:0:
480,113,147217,22,0,B|458:130|458:130|512:218,1,131.657142857143,14|0,2:1|0:0,0:0:0:0:
512,218,147465,2,0,P|472:207|441:236,1,87.7714285714286,10|0,2:1|0:0,0:0:0:0:
378,205,147652,2,0,P|387:182|383:139,1,43.8857142857143
366,18,147776,1,2,2:2:0:0:
301,48,147900,1,0,0:0:0:0:
291,65,147962,2,0,P|290:89|307:122,1,49.3714270647322
321,105,148086,6,0,P|314:167|288:213,1,115.199996484375,8|0,2:1|0:0,0:0:0:0:
210,31,148273,2,0,P|211:88|235:140,1,115.199996484375,8|0,2:1|0:0,0:0:0:0:
94,0,148459,2,0,P|123:77|112:185,1,172.799994726563,8|0,2:1|0:0,0:0:0:0:
89,242,148707,101,8,2:1:0:0:
141,232,148770,1,8,2:1:0:0:
105,195,148831,1,8,2:1:0:0:
52,204,148894,1,8,2:1:0:0:
35,250,148956,6,0,B|113:255|84:336|172:355,1,172.799994726563,10|0,2:2|0:0,0:0:0:0:
274,337,149204,2,0,L|222:359,1,41.1428587123327,8|0,2:1|0:0,0:0:0:0:
164,353,149329,101,0,0:0:0:0:
325,272,149453,1,0,0:0:0:0:
229,14,149701,1,4,2:3:0:0:
186,129,149826,5,8,2:1:0:0:
303,89,149950,1,8,2:1:0:0:
234,191,150074,1,8,2:1:0:0:
351,151,150198,1,8,2:1:0:0:
282,253,150322,1,8,2:1:0:0:
399,213,150447,1,8,2:1:0:0:
330,315,150571,1,8,2:1:0:0:
447,275,150695,70,0,B|325:275|364:369|233:351,1,201.599993847656,14|0,2:1|0:0,0:0:0:0:
186,353,150985,2,0,P|202:323|192:296,1,57.5999982421876,10|0,2:1|0:0,0:0:0:0:
161,186,151130,2,0,P|145:216|155:243,1,57.5999982421876
269,267,151275,6,0,L|209:281,1,60.7999983764649,2|0,2:2|0:0,0:0:0:0:
68,236,151420,1,0,0:0:0:0:
36,273,151492,1,0,0:0:0:0:
57,316,151565,2,0,B|87:322|87:322|112:304,1,60.7999983764649,2|0,2:2|0:0,0:0:0:0:
380,145,151855,102,0,L|351:151,1,30.3999991882324,2|0,2:2|0:0,0:0:0:0:
0,0,152144,6,0,B|36:8|36:8|96:60|96:60|135:68,1,153.6,10|0,2:1|0:0,0:0:0:0:
282,18,152434,102,0,B|259:14|259:14|211:73|211:73|284:173,1,201.599993847656,10|0,2:2|0:0,0:0:0:0:
340,182,152724,2,0,L|282:182,1,57.5999982421876,10|0,2:1|0:0,0:0:0:0:
198,269,152869,2,0,L|256:269,1,57.5999982421876,4|0,2:3|0:0,0:0:0:0:
338,297,153014,2,0,L|280:297,1,57.5999982421876,2|0,2:2|0:0,0:0:0:0:
120,290,153159,2,0,L|185:281,1,60.7999983764649,8|0,2:1|0:0,0:0:0:0:
296,270,153304,6,0,B|328:303|328:303|171:391,1,182.399995129395,4|0,2:3|0:0,0:0:0:0:
184,360,153593,1,8,2:1:0:0:
350,376,153738,1,8,2:1:0:0:
475,265,153883,1,8,2:1:0:0:
432,201,153956,2,0,P|401:258|421:314,1,121.59999675293,8|0,2:1|0:0,0:0:0:0:
475,265,154173,70,0,B|448:165|507:215|486:118,1,153.6,14|0,2:1|0:0,0:0:0:0:
449,1,154434,2,0,P|477:19|512:22,1,69.1199978906251,10|0,2:1|0:0,0:0:0:0:
512,22,154695,1,2,2:2:0:0:
445,31,154782,1,2,0:0:0:0:
408,87,154869,1,2,0:0:0:0:
301,31,155043,1,10,2:1:0:0:
340,215,155217,6,0,P|365:187|361:146,1,72.9599980517579,8|2,2:1|2:2,0:0:0:0:
144,19,155391,2,0,L|232:32,1,72.9599980517579,8|0,2:1|0:0,0:0:0:0:
102,74,155565,2,0,P|96:110|128:158,1,72.9599980517579,8|2,2:1|2:2,0:0:0:0:
253,279,155739,2,0,B|269:247|269:247|253:197,1,72.9599980517579,8|0,2:1|0:0,0:0:0:0:
178,99,155913,2,0,B|152:119|152:119|210:292,1,161.279995078125,10|0,2:2|0:0,0:0:0:0:
244,301,156173,101,10,2:1:0:0:
256,328,156260,2,0,L|190:332,1,57.6000021972657
260,332,156434,2,0,L|326:336,1,57.6000021972657,2|0,2:2|0:0,0:0:0:0:
418,276,156608,2,0,B|310:270|318:345|228:349,1,207.359993671875,8|0,2:1|0:0,0:0:0:0:
155,343,156956,5,8,2:1:0:0:
106,285,157043,1,8,2:1:0:0:
132,365,157130,1,8,2:1:0:0:
325,290,157304,101,8,2:1:0:0:
277,223,157391,1,8,2:1:0:0:
198,332,157478,1,8,2:1:0:0:
277,358,157565,1,8,2:1:0:0:
202,253,157652,1,14,2:1:0:0:
202,253,157942,21,14,2:1:0:0:
0,315,159391,21,8,2:1:0:0:
65,292,159639,5,8,2:1:0:0:
104,297,159701,101,8,2:1:0:0:
132,325,159763,5,8,2:1:0:0:
193,357,159888,101,8,2:1:0:0:
273,350,160074,5,8,2:1:0:0:
348,304,160260,101,8,2:1:0:0:
401,206,160447,5,8,2:1:0:0:
363,136,160571,101,8,2:1:0:0:
380,217,160695,5,8,2:1:0:0:
437,279,160819,101,8,2:1:0:0:
512,298,161006,5,8,2:1:0:0:
415,354,161130,69,14,2:1:0:0:
415,354,161420,5,14,2:1:0:0:
0,333,162869,69,8,2:1:0:0:
51,337,162956,5,8,2:1:0:0:
97,309,163043,101,8,2:1:0:0:
104,257,163130,5,8,2:1:0:0:
79,186,163304,101,8,2:1:0:0:
109,110,163478,5,8,2:1:0:0:
179,65,163652,101,8,2:1:0:0:
278,69,163826,5,8,2:1:0:0:
360,158,164086,101,8,2:1:0:0:
428,250,164260,5,8,2:1:0:0:
477,258,164347,101,8,2:1:0:0:
512,196,164434,5,8,2:1:0:0:
456,135,164521,101,8,2:1:0:0:
379,199,164608,21,14,2:1:0:0:
379,199,164898,5,14,2:1:0:0:
0,353,166347,5,8,2:1:0:0:
45,337,166409,5,8,2:1:0:0:
91,350,166472,101,8,2:1:0:0:
136,334,166534,5,8,2:1:0:0:
121,288,166596,101,8,2:1:0:0:
149,249,166658,5,8,2:1:0:0:
137,202,166720,101,8,2:1:0:0:
71,166,166844,5,8,2:1:0:0:
237,99,166968,101,8,2:1:0:0:
99,94,167093,5,8,2:1:0:0:
169,62,167279,101,8,2:1:0:0:
237,99,167341,5,8,2:1:0:0:
225,142,167465,101,8,2:1:0:0:
151,163,167590,5,8,2:1:0:0:
151,44,167714,101,8,2:1:0:0:
297,28,167900,5,8,2:1:0:0:
367,141,168086,69,14,2:1:0:0:
367,141,168376,5,14,2:1:0:0:
0,384,169826,69,8,2:1:0:0:
56,334,169913,5,8,2:1:0:0:
124,360,170000,101,8,2:1:0:0:
180,310,170086,5,8,2:1:0:0:
248,336,170173,101,8,2:1:0:0:
124,360,170347,5,8,2:1:0:0:
62,311,170434,101,8,2:1:0:0:
148,244,170521,5,8,2:1:0:0:
35,317,170782,101,8,2:1:0:0:
203,343,170956,5,8,2:1:0:0:
237,261,171130,101,8,2:1:0:0:
197,321,171217,5,8,2:1:0:0:
372,356,171391,101,8,2:1:0:0:
366,329,171565,5,2,2:2:0:0:
256,192,171592,12,2,173521,2:2:0:0:
256,192,173548,12,0,175043,0:0:0:0:
