osu file format v14

[General]
AudioFilename: Cho-E - Amputator.mp3
AudioLeadIn: 0
PreviewTime: 79522
Countdown: 0
SampleSet: Normal
StackLeniency: 0.3
Mode: 0
LetterboxInBreaks: 1
WidescreenStoryboard: 1

[Editor]
DistanceSpacing: 1
BeatDivisor: 4
GridSize: 4
TimelineZoom: 1

[Metadata]
Title:Amputator
TitleUnicode:Amputator
Artist:r300k feat. Cho-E
ArtistUnicode:r300k feat. Cho-E
Creator:UndeadCapulet
Version:Skystar's Expert Style
Source:TouchMix
Tags:TOMIX Android Gamevil skystar amamiya yuko korean video game
BeatmapID:2682720
BeatmapSetID:1292704

[Difficulty]
HPDrainRate:6
CircleSize:4
OverallDifficulty:8.3
ApproachRate:9.3
SliderMultiplier:2.88
SliderTickRate:1

[Events]
//Background and Video events
0,0,"amputator.png",0,0
//Break Periods
2,133608,141743
//Storyboard Layer 0 (Background)
//Storyboard Layer 1 (Fail)
//Storyboard Layer 2 (Pass)
//Storyboard Layer 3 (Foreground)
//Storyboard Layer 4 (Overlay)
//Storyboard Sound Samples

[TimingPoints]
75,555.555555555556,4,1,1,60,1,0
8963,-200,4,2,1,60,0,0
25769,-200,4,1,1,60,0,0
26741,-100,4,1,1,60,0,0
44519,-200,4,1,1,40,0,0
60630,-200,4,2,1,40,0,0
61325,-200,4,1,1,40,0,0
80075,-83.3333333333333,4,1,1,60,0,0

[Colours]
Combo1 : 255,0,0
Combo2 : 255,255,0
Combo3 : 176,39,205

[HitObjects]
60,44,8963,6,0,P|120:32|176:64,1,107.999996423721,4|0,0:0|0:0,0:0:0:0:
176,68,9519,1,8,0:0:0:0:
204,164,9797,2,0,L|184:316,1,143.999995231629,0|0,0:0|0:0,0:0:0:0:
280,356,10630,1,8,0:0:0:0:
292,336,10769,2,0,P|348:320|408:352,1,107.999996423721,0|0,0:0|0:0,0:0:0:0:
472,216,11602,5,0,0:0:0:0:
460,200,11741,1,8,0:0:0:0:
376,144,12019,2,0,P|328:168|240:144,1,143.999995231629,0|0,0:0|0:0,0:0:0:0:
188,64,12852,1,8,0:0:0:0:
24,28,13269,1,0,0:0:0:0:
24,28,13408,6,0,L|40:168,1,107.999996423721,0|0,0:0|0:0,0:0:0:0:
40,156,13963,1,8,0:0:0:0:
100,244,14241,2,0,P|164:244|220:188,1,143.999995231629,0|0,0:0|0:0,0:0:0:0:
268,84,15075,1,8,0:0:0:0:
276,104,15213,2,0,L|400:112,1,107.999996423721,0|0,0:0|0:0,0:0:0:0:
300,260,16047,5,0,0:0:0:0:
292,240,16186,2,0,L|272:320,1,71.9999976158143,8|0,0:0|0:0,0:0:0:0:
224,176,17019,1,0,0:0:0:0:
328,160,17297,2,0,L|440:184,1,107.999996423721,8|0,0:0|0:0,0:0:0:0:
456,188,17852,6,0,P|484:240|460:304,1,107.999996423721,0|0,0:0|0:0,0:0:0:0:
456,300,18408,1,8,0:0:0:0:
336,268,18686,1,0,0:0:0:0:
316,260,18825,2,0,L|252:268,1,35.9999988079071,2|0,0:0|0:0,0:0:0:0:
224,320,19102,1,2,0:0:0:0:
220,340,19241,2,0,P|192:364|144:368,1,71.9999976158143,0|8,0:0|0:0,0:0:0:0:
140,364,19658,2,0,P|96:340|24:356,1,107.999996423721,0|0,0:0|0:0,0:0:0:0:
16,172,20491,5,0,0:0:0:0:
36,184,20630,2,0,L|120:188,1,71.9999976158143,8|0,0:0|0:0,0:0:0:0:
128,188,21047,1,2,0:0:0:0:
188,140,21186,1,0,0:0:0:0:
184,120,21325,1,2,0:0:0:0:
256,180,21463,2,0,L|336:184,1,71.9999976158143,0|8,0:0|0:0,0:0:0:0:
448,188,22158,1,0,0:0:0:0:
448,188,22297,6,0,L|432:308,1,107.999996423721,0|0,0:0|0:0,0:0:0:0:
432,316,22852,2,0,L|352:316,1,71.9999976158143,8|0,0:0|0:0,0:0:0:0:
340,316,23269,1,2,0:0:0:0:
280,252,23408,1,0,0:0:0:0:
268,268,23547,1,2,0:0:0:0:
220,200,23686,2,0,P|256:176|304:180,1,71.9999976158143,0|8,0:0|0:0,0:0:0:0:
304,176,24102,2,0,P|360:176|408:132,1,107.999996423721,0|0,0:0|0:0,0:0:0:0:
328,16,24936,5,0,0:0:0:0:
324,36,25075,1,8,0:0:0:0:
228,68,25352,1,8,0:0:0:0:
132,40,25630,1,8,0:0:0:0:
40,80,25769,5,8,0:0:0:0:
64,312,25908,1,8,0:0:0:0:
64,312,26186,5,8,0:0:0:0:
164,256,26325,1,8,0:0:0:0:
276,240,26463,1,8,0:0:0:0:
392,252,26602,1,8,0:0:0:0:
504,168,26741,6,0,P|472:172|428:160,1,71.9999976158143,4|0,0:0|0:0,0:0:0:0:
365,24,27019,2,0,L|376:96,1,71.9999976158143,0|0,0:0|0:0,0:0:0:0:
316,156,27297,1,8,0:0:0:0:
280,16,27436,5,0,0:0:0:0:
228,84,27575,2,0,P|168:108|80:84,1,143.999995231629,0|0,0:0|0:0,0:0:0:0:
24,220,27991,1,0,0:0:0:0:
108,336,28130,6,0,P|140:324|196:332,1,71.9999976158143,0|0,0:0|0:0,0:0:0:0:
264,344,28408,1,8,0:0:0:0:
417,355,28547,2,0,P|383:368|348:368,1,71.9999976158143,0|0,0:0|0:0,0:0:0:0:
228,264,28825,1,0,0:0:0:0:
236,176,28963,6,0,P|244:136|288:96,1,71.9999976158143,0|0,0:0|0:0,0:0:0:0:
384,32,29241,2,0,P|414:58|427:117,1,71.9999976158143,0|0,0:0|0:0,0:0:0:0:
434,232,29519,5,8,0:0:0:0:
236,176,29658,1,0,0:0:0:0:
348,108,29797,2,0,L|356:252,1,143.999995231629,0|0,0:0|0:0,0:0:0:0:
276,367,30213,2,0,L|280:296,1,71.9999976158143,0|0,0:0|0:0,0:0:0:0:
200,260,30491,1,0,0:0:0:0:
116,272,30630,1,8,0:0:0:0:
32,264,30769,1,0,0:0:0:0:
84,152,30908,5,0,0:0:0:0:
92,124,31047,1,0,0:0:0:0:
41,13,31186,6,0,P|21:43|17:78,1,71.9999976158143,0|0,0:0|0:0,0:0:0:0:
176,144,31463,2,0,P|196:114|199:79,1,71.9999976158143,0|0,0:0|0:0,0:0:0:0:
41,13,31741,5,8,0:0:0:0:
92,124,31880,1,0,0:0:0:0:
188,48,32019,2,0,L|348:60,1,143.999995231629,0|0,0:0|0:0,0:0:0:0:
424,168,32436,1,0,0:0:0:0:
323,269,32575,6,0,P|288:267|256:252,1,71.9999976158143,0|0,0:0|0:0,0:0:0:0:
179,210,32852,1,8,0:0:0:0:
182,296,32991,1,0,0:0:0:0:
258,338,33130,1,0,0:0:0:0:
253,165,33269,1,0,0:0:0:0:
253,165,33408,6,0,L|232:92,1,71.9999976158143,0|0,0:0|0:0,0:0:0:0:
96,232,33686,2,0,L|75:305,1,71.9999976158143,0|0,0:0|0:0,0:0:0:0:
16,196,33963,5,8,0:0:0:0:
179,210,34102,1,0,0:0:0:0:
65,78,34241,2,0,P|14:126|16:196,1,143.999995231629,0|0,0:0|0:0,0:0:0:0:
158,362,34658,2,0,P|163:326|156:292,1,71.9999976158143,8|0,0:0|0:0,0:0:0:0:
96,232,34936,1,0,0:0:0:0:
240,272,35075,5,8,0:0:0:0:
364,244,35213,1,8,0:0:0:0:
456,156,35352,1,8,0:0:0:0:
472,28,35491,1,8,0:0:0:0:
312,104,35630,6,0,P|280:108|236:96,1,71.9999976158143,0|0,0:0|0:0,0:0:0:0:
102,31,35908,2,0,P|138:30|172:44,1,71.9999976158143,0|0,0:0|0:0,0:0:0:0:
204,176,36186,1,8,0:0:0:0:
193,319,36325,5,0,0:0:0:0:
193,319,36463,2,0,L|204:176,1,143.999995231629,0|0,0:0|0:0,0:0:0:0:
104,125,36880,2,0,P|103:160|120:192,1,71.9999976158143,0|0,0:0|0:0,0:0:0:0:
212,92,37158,1,0,0:0:0:0:
284,208,37297,2,0,P|305:179|310:144,1,71.9999976158143,8|0,0:0|0:0,0:0:0:0:
128,40,37713,1,0,0:0:0:0:
44,64,37852,6,0,P|24:92|28:168,1,71.9999976158143,0|0,0:0|0:0,0:0:0:0:
151,265,38130,2,0,P|160:230|152:196,1,71.9999976158143,0|0,0:0|0:0,0:0:0:0:
24,216,38408,5,8,0:0:0:0:
100,336,38547,1,0,0:0:0:0:
236,288,38686,1,0,0:0:0:0:
160,168,38825,1,0,0:0:0:0:
160,168,38963,6,0,L|156:88,1,71.9999976158143,0|0,0:0|0:0,0:0:0:0:
247,32,39241,2,0,L|244:104,1,71.9999976158143,0|0,0:0|0:0,0:0:0:0:
340,180,39519,5,8,0:0:0:0:
332,95,39657,1,0,0:0:0:0:
424,28,39797,1,0,0:0:0:0:
416,112,39935,1,0,0:0:0:0:
304,200,40075,6,0,L|316:116,1,71.9999976158143,0|0,0:0|0:0,0:0:0:0:
384,12,40352,2,0,L|396:96,1,71.9999976158143,0|0,0:0|0:0,0:0:0:0:
368,260,40630,1,8,0:0:0:0:
220,184,40769,5,0,0:0:0:0:
220,184,40908,2,0,P|148:176|80:248,1,143.999995231629,0|0,0:0|0:0,0:0:0:0:
92,380,41325,1,0,0:0:0:0:
172,256,41463,1,0,0:0:0:0:
24,168,41602,1,0,0:0:0:0:
21,310,41741,6,0,L|92:296,1,71.9999976158143,8|0,0:0|0:0,0:0:0:0:
248,300,42019,2,0,L|318:314,1,71.9999976158143,8|0,0:0|0:0,0:0:0:0:
424,328,42297,5,0,0:0:0:0:
404,336,42436,1,0,0:0:0:0:
312,212,42575,5,0,0:0:0:0:
332,220,42714,1,0,0:0:0:0:
448,148,42852,5,8,0:0:0:0:
332,12,42991,1,0,0:0:0:0:
332,12,43130,2,0,P|317:80|359:135,1,143.999995231629,0|0,0:0|0:0,0:0:0:0:
475,53,43547,2,0,L|404:60,1,71.9999976158143,8|0,0:0|0:0,0:0:0:0:
359,135,43825,1,0,0:0:0:0:
416,228,43963,5,8,0:0:0:0:
288,200,44102,1,8,0:0:0:0:
172,256,44241,1,8,0:0:0:0:
44,248,44380,1,8,0:0:0:0:
4,368,44519,6,0,L|120:360,1,107.999996423721,4|0,0:0|0:0,0:0:0:0:
111,360,45075,1,8,0:0:0:0:
256,240,45352,1,0,0:0:0:0:
252,220,45491,1,2,0:2:0:0:
288,148,45630,1,0,0:0:0:0:
368,128,45769,1,2,0:2:0:0:
376,108,45908,2,0,L|472:112,1,71.9999976158143,0|8,0:0|0:0,0:0:0:0:
468,112,46325,2,0,P|480:164|496:228,1,107.999996423721,0|0,0:0|0:0,0:0:0:0:
380,340,47158,5,0,0:0:0:0:
388,320,47297,1,8,0:0:0:0:
228,200,47575,1,0,0:0:0:0:
232,220,47713,1,2,0:2:0:0:
204,296,47852,1,0,0:0:0:0:
132,256,47991,1,2,0:2:0:0:
136,236,48130,1,0,0:0:0:0:
281,367,48408,2,0,P|334:368|380:340,1,107.999996423721,8|0,0:0|0:0,0:0:0:0:
388,320,48963,5,0,0:0:0:0:
296,116,49380,1,0,0:0:0:0:
288,96,49519,2,0,L|256:16,1,71.9999976158143,8|0,0:0|0:0,0:0:0:0:
244,44,49936,1,2,0:2:0:0:
176,88,50075,1,0,0:0:0:0:
176,108,50213,1,2,0:2:0:0:
112,40,50352,2,0,L|24:32,1,71.9999976158143,0|8,0:0|0:0,0:0:0:0:
20,32,50769,1,0,0:0:0:0:
44,112,50908,2,0,L|60:164,1,35.9999988079071,0|0,0:0|0:0,0:0:0:0:
80,224,51186,6,0,L|68:348,1,107.999996423721,0|0,0:0|0:0,0:0:0:0:
69,331,51741,1,8,0:0:0:0:
224,224,52019,1,0,0:0:0:0:
220,204,52158,1,2,0:2:0:0:
284,148,52297,1,0,0:0:0:0:
360,184,52435,1,2,0:2:0:0:
380,180,52574,2,0,L|464:160,1,71.9999976158143,0|8,0:0|0:0,0:0:0:0:
472,156,53269,1,0,0:0:0:0:
450,163,53408,6,0,L|329:191,1,107.999996423721,0|0,0:0|0:0,0:0:0:0:
348,208,53963,2,0,L|364:312,1,71.9999976158143,8|0,0:0|0:0,0:0:0:0:
280,308,54380,1,2,0:2:0:0:
196,300,54519,2,0,L|190:335,1,35.9999988079071,0|2,0:0|0:2,0:0:0:0:
124,256,54797,2,0,L|32:252,1,71.9999976158143,0|8,0:0|0:0,0:0:0:0:
32,240,55213,2,0,L|156:236,1,107.999996423721,0|0,0:0|0:0,0:0:0:0:
289,360,56047,5,0,0:0:0:0:
267,359,56186,2,0,L|170:356,1,71.9999976158143,8|0,0:0|0:0,0:0:0:0:
188,336,56602,1,2,0:2:0:0:
236,244,56741,1,0,0:0:0:0:
232,264,56880,1,2,0:2:0:0:
120,288,57019,2,0,L|100:196,1,71.9999976158143,0|8,0:0|0:0,0:0:0:0:
312,132,57713,1,0,0:0:0:0:
308,152,57852,6,0,L|328:40,1,107.999996423721,0|0,0:0|0:0,0:0:0:0:
332,68,58408,2,0,L|360:164,1,71.9999976158143,8|0,0:0|0:0,0:0:0:0:
376,216,58825,1,2,0:2:0:0:
368,236,58963,1,0,0:0:0:0:
444,168,59102,1,2,0:2:0:0:
436,148,59240,1,0,0:0:0:0:
300,288,59519,1,8,0:0:0:0:
304,308,59658,1,0,0:0:0:0:
368,360,59797,2,0,L|420:348,1,35.9999988079071,0|0,0:0|0:0,0:0:0:0:
256,376,60075,6,0,L|148:369,1,107.999996423721,0|0,0:0|0:0,0:0:0:0:
148,370,60630,1,8,0:0:0:0:
98,282,60908,1,8,0:0:0:0:
166,207,61186,1,8,0:0:0:0:
259,251,61325,5,8,0:0:0:0:
259,251,61463,1,8,0:0:0:0:
444,124,61741,5,8,0:0:0:0:
332,140,61880,1,8,0:0:0:0:
220,112,62019,1,8,0:0:0:0:
144,24,62158,1,8,0:0:0:0:
52,96,62297,6,0,L|60:224,1,107.999996423721,4|0,0:0|0:0,0:0:0:0:
58,203,62852,2,0,L|52:292,1,71.9999976158143,8|0,0:0|0:0,0:0:0:0:
52,296,63269,1,2,0:2:0:0:
136,344,63408,1,0,0:0:0:0:
132,324,63547,1,2,0:2:0:0:
192,264,63686,2,0,L|272:268,1,71.9999976158143,0|8,0:0|0:0,0:0:0:0:
284,272,64102,2,0,L|368:264,1,71.9999976158143,0|0,0:0|0:0,0:0:0:0:
376,260,64519,5,0,0:0:0:0:
512,132,64936,1,0,0:0:0:0:
492,136,65075,1,8,0:0:0:0:
288,56,65352,2,0,L|332:64,1,35.9999988079071,0|2,0:0|0:2,0:0:0:0:
408,80,65630,1,0,0:0:0:0:
384,180,65769,1,2,0:2:0:0:
380,160,65908,2,0,L|376:244,1,71.9999976158143,0|8,0:0|0:0,0:0:0:0:
328,300,66325,2,0,L|336:344,2,35.9999988079071,0|0|0,0:0|0:0|0:0,0:0:0:0:
260,248,66741,5,0,0:0:0:0:
240,252,66880,2,0,L|160:252,1,71.9999976158143,0|0,0:0|0:0,0:0:0:0:
148,248,67297,2,0,L|72:256,1,71.9999976158143,8|0,0:0|0:0,0:0:0:0:
56,256,67713,1,2,0:2:0:0:
8,188,67852,1,0,0:0:0:0:
16,168,67991,1,2,0:2:0:0:
92,132,68130,2,0,L|80:44,1,71.9999976158143,0|8,0:0|0:0,0:0:0:0:
72,44,68547,2,0,L|200:48,1,107.999996423721,0|0,0:0|0:0,0:0:0:0:
224,216,69380,5,0,0:0:0:0:
208,232,69520,2,0,L|305:235,1,71.9999976158143,8|0,0:0|0:0,0:0:0:0:
364,224,69936,2,0,L|372:168,2,35.9999988079071,2|0|2,0:2|0:0|0:2,0:0:0:0:
444,248,70352,1,0,0:0:0:0:
412,48,70630,1,8,0:0:0:0:
392,56,70769,2,0,L|328:80,1,35.9999988079071,0|0,0:0|0:0,0:0:0:0:
280,36,71047,1,0,0:0:0:0:
260,32,71186,6,0,L|140:48,1,107.999996423721,0|0,0:0|0:0,0:0:0:0:
152,46,71741,1,8,0:0:0:0:
288,136,72019,1,0,0:0:0:0:
268,136,72158,1,2,0:2:0:0:
184,192,72297,1,0,0:0:0:0:
204,188,72436,1,2,0:2:0:0:
268,244,72575,2,0,L|260:332,1,71.9999976158143,0|8,0:0|0:0,0:0:0:0:
260,336,72991,1,0,0:0:0:0:
336,376,73130,2,0,L|348:336,1,35.9999988079071,0|0,0:0|0:0,0:0:0:0:
416,292,73408,6,0,L|404:176,1,107.999996423721,0|0,0:0|0:0,0:0:0:0:
404,164,73963,2,0,L|408:80,1,71.9999976158143,8|0,0:0|0:0,0:0:0:0:
412,72,74380,1,2,0:2:0:0:
328,8,74519,2,0,L|332:44,1,35.9999988079071,0|2,0:0|0:2,0:0:0:0:
264,96,74797,1,0,0:0:0:0:
72,28,75075,1,8,0:0:0:0:
52,20,75213,1,0,0:0:0:0:
52,104,75352,2,0,L|56:164,1,35.9999988079071,0|0,0:0|0:0,0:0:0:0:
68,224,75630,5,0,0:0:0:0:
72,244,75769,2,0,L|60:332,1,71.9999976158143,0|0,0:0|0:0,0:0:0:0:
60,336,76186,2,0,L|148:336,1,71.9999976158143,8|0,0:0|0:0,0:0:0:0:
212,292,76602,1,2,0:2:0:0:
208,272,76741,1,0,0:0:0:0:
204,252,76880,1,2,0:2:0:0:
200,232,77019,2,0,L|200:128,1,71.9999976158143,0|8,0:0|0:0,0:0:0:0:
248,88,77436,2,0,L|256:28,1,35.9999988079071,0|0,0:0|0:0,0:0:0:0:
340,56,77713,1,0,0:0:0:0:
408,108,77852,6,0,L|424:220,1,107.999996423721,0|0,0:0|0:0,0:0:0:0:
423,214,78408,1,8,0:0:0:0:
288,292,78686,1,0,0:0:0:0:
292,272,78825,1,2,0:2:0:0:
216,204,78963,1,0,0:0:0:0:
220,224,79102,1,8,0:0:0:0:
160,288,79241,1,0,0:0:0:0:
52,64,79519,1,8,0:0:0:0:
52,64,79658,1,8,0:0:0:0:
52,64,79797,1,8,0:0:0:0:
52,64,79936,1,8,0:0:0:0:
92,140,80075,6,0,L|85:226,1,86.3999945022585,4|0,0:0|0:0,0:0:0:0:
242,74,80352,2,0,P|199:68|159:84,1,86.3999945022585,0|0,0:0|0:0,0:0:0:0:
242,273,80630,2,0,P|306:219|304:136,1,172.799989004517,8|0,0:0|0:0,0:0:0:0:
344,212,81047,6,0,L|360:384,2,172.799989004517,0|8|0,0:0|0:0|0:0,0:0:0:0:
328,40,81741,2,0,P|360:24|424:32,1,86.3999945022585,8|0,0:0|0:0,0:0:0:0:
260,176,82019,2,0,P|232:176|176:140,1,86.3999945022585,0|0,0:0|0:0,0:0:0:0:
132,64,82297,5,0,0:0:0:0:
182,147,82436,2,0,P|192:224|104:284,1,172.799989004517,8|0,0:0|0:0,0:0:0:0:
10,153,82852,2,0,L|96:144,1,86.3999945022585,8|0,0:0|0:0,0:0:0:0:
218,67,83130,1,0,0:0:0:0:
244,208,83269,2,0,L|344:220,1,86.3999945022585,0|0,0:0|0:0,0:0:0:0:
455,113,83547,6,0,P|413:108|372:120,1,86.3999945022585,0|0,0:0|0:0,0:0:0:0:
364,324,83825,2,0,P|406:329|447:317,1,86.3999945022585,0|8,0:0|0:0,0:0:0:0:
447,317,84102,1,0,0:0:0:0:
360,216,84241,5,0,0:0:0:0:
260,240,84380,1,0,0:0:0:0:
138,163,84519,6,0,P|207:116|288:140,1,172.799989004517,0|0,0:0|0:0,0:0:0:0:
331,315,85075,1,8,0:0:0:0:
360,216,85213,1,0,0:0:0:0:
360,216,85283,1,0,0:0:0:0:
360,216,85352,2,0,L|348:112,1,86.3999945022585,0|0,0:0|0:0,0:0:0:0:
232,44,85630,6,0,P|232:84|264:132,1,86.3999945022585,0|0,0:0|0:0,0:0:0:0:
442,94,85908,2,0,P|419:58|380:44,1,86.3999945022585,0|0,0:0|0:0,0:0:0:0:
205,222,86186,2,0,P|284:252|360:216,1,172.799989004517,8|0,0:0|0:0,0:0:0:0:
476,340,86602,1,0,0:0:0:0:
476,340,86672,1,0,0:0:0:0:
476,340,86741,6,0,L|368:320,1,86.3999945022585,0|0,0:0|0:0,0:0:0:0:
312,144,87019,2,0,P|304:104|332:48,1,86.3999945022585,0|0,0:0|0:0,0:0:0:0:
320,248,87297,1,8,0:0:0:0:
180,176,87436,2,0,P|136:172|84:192,1,86.3999945022585,0|0,0:0|0:0,0:0:0:0:
24,304,87713,6,0,L|-8:352,2,43.1999972511293,0|0|0,0:0|0:0|0:0,0:0:0:0:
96,184,87991,2,0,P|128:116|64:20,1,172.799989004517,8|0,0:0|0:0,0:0:0:0:
64,28,88338,1,0,0:0:0:0:
40,32,88408,5,8,0:0:0:0:
124,96,88547,1,8,0:0:0:0:
228,108,88686,1,8,0:0:0:0:
332,92,88825,1,8,0:0:0:0:
424,16,88963,6,0,L|444:112,1,86.3999945022585,0|0,0:0|0:0,0:0:0:0:
432,252,89241,2,0,P|406:217|401:174,1,86.3999945022585,0|0,0:0|0:0,0:0:0:0:
291,25,89519,2,0,P|332:97|296:172,1,172.799989004517,8|0,0:0|0:0,0:0:0:0:
332,92,89936,5,0,0:0:0:0:
168,244,90213,2,0,P|92:248|24:156,1,172.799989004517,8|0,0:0|0:0,0:0:0:0:
52,80,90630,5,8,0:0:0:0:
144,28,90769,1,0,0:0:0:0:
248,28,90908,1,8,0:0:0:0:
332,92,91047,1,8,0:0:0:0:
440,32,91186,5,0,0:0:0:0:
440,32,91325,2,0,P|488:108|416:196,1,172.799989004517,8|0,0:0|0:0,0:0:0:0:
356,192,91741,1,8,0:0:0:0:
242,86,91880,5,0,0:0:0:0:
242,86,91950,1,0,0:0:0:0:
242,86,92019,2,0,L|256:172,1,86.3999945022585,0|0,0:0|0:0,0:0:0:0:
172,236,92297,2,0,P|128:240|64:200,1,86.3999945022585,0|0,0:0|0:0,0:0:0:0:
34,53,92575,2,0,L|28:140,1,86.3999945022585,0|0,0:0|0:0,0:0:0:0:
48,320,92852,5,8,0:0:0:0:
72,220,92991,1,0,0:0:0:0:
144,360,93130,1,0,0:0:0:0:
72,220,93269,1,0,0:0:0:0:
232,304,93408,6,0,P|320:308|376:212,1,172.799989004517,0|0,0:0|0:0,0:0:0:0:
220,24,93963,1,8,0:0:0:0:
140,88,94102,1,0,0:0:0:0:
140,88,94172,1,0,0:0:0:0:
140,88,94241,2,0,L|156:200,1,86.3999945022585,0|0,0:0|0:0,0:0:0:0:
63,300,94519,6,0,P|54:258|72:220,1,86.3999945022585,0|0,0:0|0:0,0:0:0:0:
240,112,94797,2,0,P|279:96|320:106,1,86.3999945022585,0|0,0:0|0:0,0:0:0:0:
416,264,95075,1,8,0:0:0:0:
288,192,95213,1,0,0:0:0:0:
416,116,95352,1,0,0:0:0:0:
416,264,95491,1,0,0:0:0:0:
372,188,95630,6,0,P|364:100|436:24,1,172.799989004517,0|0,0:0|0:0,0:0:0:0:
472,188,96047,1,0,0:0:0:0:
324,276,96186,1,8,0:0:0:0:
429,349,96325,2,0,L|416:264,1,86.3999945022585,0|0,0:0|0:0,0:0:0:0:
300,136,96602,6,0,L|304:84,2,43.1999972511293,0|0|0,0:0|0:0|0:0,0:0:0:0:
232,312,96880,2,0,P|152:344|64:296,1,172.799989004517,8|0,0:0|0:0,0:0:0:0:
64,288,97227,1,0,0:0:0:0:
52,264,97297,5,8,0:0:0:0:
90,100,97436,1,8,0:0:0:0:
153,255,97575,1,8,0:0:0:0:
11,165,97713,1,8,0:0:0:0:
178,155,97852,5,4,0:0:0:0:
328,312,98130,1,0,0:0:0:0:
400,136,98408,2,0,L|392:28,1,86.3999945022585,8|0,0:0|0:0,0:0:0:0:
256,24,98686,1,0,0:0:0:0:
393,49,98825,6,0,P|436:132|396:216,2,172.799989004517,0|8|0,0:0|0:0|0:0,0:0:0:0:
168,52,99519,2,0,L|60:72,1,86.3999945022585,8|0,0:0|0:0,0:0:0:0:
233,190,99797,2,0,P|247:150|240:108,1,86.3999945022585,0|0,0:0|0:0,0:0:0:0:
29,155,100075,5,0,0:0:0:0:
136,256,100213,1,0,0:0:0:0:
168,52,100352,2,0,L|24:160,1,172.799989004517,0|8,0:0|0:0,0:0:0:0:
92,332,100769,2,0,P|132:344|196:320,1,86.3999945022585,0|0,0:0|0:0,0:0:0:0:
312,232,101047,5,0,0:0:0:0:
200,168,101186,1,0,0:0:0:0:
329,33,101325,2,0,P|391:89|380:172,1,172.799989004517,0|0,0:0|0:0,0:0:0:0:
257,330,101741,2,0,P|233:294|232:252,1,86.3999945022585,8|0,0:0|0:0,0:0:0:0:
380,171,102019,1,0,0:0:0:0:
364,304,102158,1,0,0:0:0:0:
220,224,102297,6,0,P|140:200|52:248,1,172.799989004517,0|0,0:0|0:0,0:0:0:0:
244,64,102852,2,0,L|360:84,1,86.3999945022585,8|0,0:0|0:0,0:0:0:0:
456,104,103130,1,0,0:0:0:0:
356,84,103269,6,0,P|292:144|316:236,2,172.799989004517,0|8|0,0:0|0:0|0:0,0:0:0:0:
492,196,103963,2,0,L|496:292,1,86.3999945022585,8|0,0:0|0:0,0:0:0:0:
304,236,104241,2,0,L|304:340,1,86.3999945022585,0|0,0:0|0:0,0:0:0:0:
131,224,104519,5,0,0:0:0:0:
88,340,104658,1,0,0:0:0:0:
24,184,104797,2,0,P|88:128|56:16,1,172.799989004517,0|8,0:0|0:0,0:0:0:0:
132,248,105213,2,0,L|140:364,1,86.3999945022585,0|0,0:0|0:0,0:0:0:0:
232,356,105491,1,0,0:0:0:0:
216,180,105630,1,0,0:0:0:0:
484,307,105769,6,0,L|312:300,1,172.799989004517,8|0,0:0|0:0,0:0:0:0:
132,248,106186,1,8,0:0:0:0:
216,180,106325,1,8,0:0:0:0:
232,356,106463,1,8,0:0:0:0:
48,316,106602,1,8,0:0:0:0:
144,124,106741,6,0,P|228:92|304:160,1,172.799989004517,0|0,0:0|0:0,0:0:0:0:
328,344,107297,1,8,0:0:0:0:
232,356,107436,2,0,L|96:340,1,86.3999945022585,0|0,0:0|0:0,0:0:0:0:
80,204,107713,2,0,P|40:124|88:40,1,172.799989004517,0|8,0:0|0:0,0:0:0:0:
364,44,108269,5,0,0:0:0:0:
268,32,108408,2,0,L|132:48,1,86.3999945022585,8|0,0:0|0:0,0:0:0:0:
172,232,108686,1,0,0:0:0:0:
148,56,108825,1,0,0:0:0:0:
80,204,108963,6,0,L|68:336,1,86.3999945022585,0|0,0:0|0:0,0:0:0:0:
230,308,109241,2,0,P|310:336|388:304,1,172.799989004517,0|8,0:0|0:0,0:0:0:0:
428,100,109658,1,0,0:0:0:0:
416,296,109936,6,0,L|408:382,1,86.3999945022585,0|0,0:0|2:0,0:0:0:0:
496,244,110213,2,0,P|412:204|316:284,1,172.799989004517,8|0,0:0|0:0,0:0:0:0:
237,178,110630,2,0,L|252:264,1,86.3999945022585,8|0,0:0|0:0,0:0:0:0:
252,264,110908,1,0,0:0:0:0:
252,264,111047,1,0,0:0:0:0:
172,316,111186,6,0,P|92:336|12:276,1,172.799989004517,0|0,0:0|0:0,0:0:0:0:
120,56,111741,2,0,L|108:176,1,86.3999945022585,8|0,0:0|0:0,0:0:0:0:
111,141,111950,1,0,0:0:0:0:
111,141,112019,1,0,0:0:0:0:
232,80,112158,6,0,P|316:48|424:112,2,172.799989004517,0|8|0,0:0|0:0|0:0,0:0:0:0:
148,240,112852,2,0,L|152:352,1,86.3999945022585,8|0,0:0|0:0,0:0:0:0:
336,288,113130,2,0,L|348:176,1,86.3999945022585,0|0,0:0|0:0,0:0:0:0:
232,80,113408,5,0,0:0:0:0:
236,176,113547,1,0,0:0:0:0:
240,272,113686,1,0,0:0:0:0:
436,80,113963,6,0,P|400:56|328:64,1,86.3999945022585,8|0,0:0|0:0,0:0:0:0:
344,148,114241,1,0,0:0:0:0:
328,240,114380,1,0,0:0:0:0:
244,368,114519,6,8,P|200:364|152:320,1,86.3999945022585,8|8,0:0|0:0,0:0:0:0:
124,120,114797,2,8,P|80:124|32:168,1,86.3999945022585,8|8,0:0|0:0,0:0:0:0:
20,284,115075,6,0,L|80:276,1,43.1999972511293,0|0,0:0|2:0,0:0:0:0:
152,256,115213,2,0,L|212:248,1,43.1999972511293,8|0,0:0|2:0,0:0:0:0:
288,248,115352,2,0,L|348:240,1,43.1999972511293,8|0,0:0|2:0,0:0:0:0:
420,216,115491,2,0,L|480:208,1,43.1999972511293,8|0,0:0|2:0,0:0:0:0:
476,120,115630,6,0,P|480:76|428:16,1,86.3999945022585,6|0,0:0|0:0,0:0:0:0:
316,128,115908,2,0,L|324:260,1,86.3999945022585,2|2,0:0|0:0,0:0:0:0:
172,56,116186,2,2,P|84:32|-12:88,1,172.799989004517,8|2,0:0|0:0,0:0:0:0:
96,204,116602,6,2,L|-4:196,1,86.3999945022585,2|0,0:0|2:0,0:0:0:0:
264,296,116880,2,0,L|164:304,1,86.3999945022585,10|0,0:0|2:0,0:0:0:0:
348,128,117158,2,2,L|244:132,1,86.3999945022585,0|10,0:0|0:0,0:0:0:0:
384,336,117436,1,0,0:0:0:0:
469,232,117575,2,0,P|472:189|452:152,1,86.3999945022585,2|2,0:0|0:0,0:0:0:0:
261,131,117852,5,0,0:0:0:0:
451,151,117991,2,2,L|256:160,1,172.799989004517,10|0,0:0|0:0,0:0:0:0:
92,148,118408,1,8,0:0:0:0:
261,131,118547,2,2,L|144:128,1,86.3999945022585,2|0,0:0|0:0,0:0:0:0:
32,232,118825,6,2,P|16:320|76:368,1,172.799989004517,0|0,0:0|0:0,0:0:0:0:
188,256,119241,1,2,0:0:0:0:
336,296,119380,1,0,0:0:0:0:
336,296,119450,1,0,0:0:0:0:
336,296,119519,2,2,L|328:388,1,86.3999945022585,10|0,0:0|0:0,0:0:0:0:
480,236,119797,2,0,L|488:328,1,86.3999945022585,2|2,0:0|0:0,0:0:0:0:
300,184,120075,6,2,P|268:112|320:24,1,172.799989004517,0|2,0:0|0:0,0:0:0:0:
440,152,120630,1,8,0:0:0:0:
268,104,120769,1,2,0:0:0:0:
268,104,120838,1,0,0:0:0:0:
268,104,120908,2,2,L|116:96,1,86.3999945022585,0|2,0:0|0:0,0:0:0:0:
44,252,121186,6,2,L|160:244,1,86.3999945022585,2|0,0:0|0:0,0:0:0:0:
336,352,121463,2,2,L|184:344,1,86.3999945022585,0|2,0:0|0:0,0:0:0:0:
130,246,121741,2,2,P|92:156|152:76,1,172.799989004517,10|0,0:0|0:0,0:0:0:0:
268,104,122158,1,2,0:0:0:0:
268,104,122227,1,0,0:0:0:0:
268,104,122297,6,0,L|388:96,1,86.3999945022585,0|2,0:0|0:0,0:0:0:0:
456,224,122575,2,0,P|476:276|432:352,1,86.3999945022585,0|0,0:0|0:0,0:0:0:0:
260,372,122852,1,10,0:0:0:0:
184,312,122991,2,2,P|181:269|199:230,1,86.3999945022585,0|2,0:0|0:0,0:0:0:0:
360,152,123269,6,2,L|408:156,2,43.1999972511293,0|0|0,0:0|0:0|0:0,0:0:0:0:
199,230,123547,2,2,P|112:240|36:160,1,172.799989004517,8|0,0:0|0:0,0:0:0:0:
40,168,123894,1,0,0:0:0:0:
36,144,123963,5,10,0:0:0:0:
246,220,124102,1,8,0:0:0:0:
30,283,124241,1,8,0:0:0:0:
168,106,124380,1,8,0:0:0:0:
160,330,124519,6,0,L|32:348,1,86.3999945022585,2|0,0:0|0:0,0:0:0:0:
318,255,124797,2,0,L|232:248,1,86.3999945022585,2|0,0:0|0:0,0:0:0:0:
384,360,125075,2,2,P|448:304|424:176,1,172.799989004517,8|2,0:0|0:0,0:0:0:0:
231,248,125491,1,2,0:0:0:0:
453,220,125769,6,0,P|464:136|384:48,1,172.799989004517,10|2,0:0|0:0,0:0:0:0:
266,77,126186,2,2,L|272:164,1,86.3999945022585,10|0,0:0|0:0,0:0:0:0:
141,345,126463,2,0,P|128:304|140:264,1,86.3999945022585,2|2,0:0|0:0,0:0:0:0:
284,176,126741,6,2,L|289:89,1,86.3999945022585,0|10,0:0|0:0,0:0:0:0:
432,336,127158,2,2,L|424:249,1,86.3999945022585,0|10,0:0|0:0,0:0:0:0:
284,176,127436,1,2,0:0:0:0:
284,176,127505,1,0,0:0:0:0:
284,176,127575,6,0,P|240:168|168:200,1,86.3999945022585,0|2,0:0|0:0,0:0:0:0:
1,253,127852,2,2,L|88:256,1,86.3999945022585,2|0,0:0|0:0,0:0:0:0:
252,360,128130,2,2,L|165:363,1,86.3999945022585,0|0,0:0|0:0,0:0:0:0:
344,292,128408,5,10,0:0:0:0:
436,312,128547,1,0,0:0:0:0:
477,179,128686,1,2,0:0:0:0:
384,192,128825,1,2,0:0:0:0:
386,85,128963,6,2,P|312:48|208:88,1,172.799989004517,0|2,0:0|0:0,0:0:0:0:
112,276,129519,2,0,L|108:160,1,86.3999945022585,8|2,0:0|0:0,0:0:0:0:
109,189,129727,1,0,0:0:0:0:
109,189,129797,1,0,0:0:0:0:
192,328,129936,1,2,0:0:0:0:
277,135,130075,6,2,L|192:144,1,86.3999945022585,0|2,0:0|0:0,0:0:0:0:
363,348,130352,2,0,P|322:361|279:355,1,86.3999945022585,2|0,0:0|0:0,0:0:0:0:
364,112,130630,1,10,0:0:0:0:
440,308,130769,1,0,0:0:0:0:
424,52,130908,1,2,0:0:0:0:
488,236,131047,1,2,0:0:0:0:
344,196,131186,6,0,L|160:188,1,172.799989004517,0|2,0:0|0:0,0:0:0:0:
36,264,131602,2,2,P|20:304|64:372,1,86.3999945022585,2|8,0:0|0:0,0:0:0:0:
208,332,131880,1,2,0:0:0:0:
265,169,132019,1,0,0:0:0:0:
95,202,132158,5,0,0:0:0:0:
112,220,132227,1,0,0:0:0:0:
132,240,132297,1,0,0:0:0:0:
328,236,132436,2,2,P|352:152|252:80,1,172.799989004517,10|0,0:0|0:0,0:0:0:0:
95,202,132852,5,8,0:0:0:0:
112,220,132991,1,8,0:0:0:0:
132,240,133130,1,8,0:0:0:0:
149,258,133269,1,8,0:0:0:0:
328,236,133408,5,0,0:0:0:0:
64,144,142297,6,0,L|76:20,1,86.3999945022585,0|0,0:0|0:0,0:0:0:0:
204,200,142575,2,0,L|194:75,1,86.3999945022585,0|0,0:0|0:0,0:0:0:0:
336,176,142852,1,8,0:0:0:0:
453,50,142991,5,0,0:0:0:0:
453,50,143130,2,0,P|496:121|460:196,1,172.799989004517,0|0,0:0|0:0,0:0:0:0:
288,100,143547,2,0,P|328:88|408:128,1,86.3999945022585,0|0,0:0|0:0,0:0:0:0:
432,284,143825,5,0,0:0:0:0:
408,288,143894,1,0,0:0:0:0:
384,292,143963,1,8,0:0:0:0:
296,296,144102,1,0,0:0:0:0:
208,292,144241,1,0,0:0:0:0:
124,304,144380,1,0,0:0:0:0:
40,292,144519,6,0,L|44:204,1,86.3999945022585,0|0,0:0|0:0,0:0:0:0:
138,73,144797,2,0,L|144:160,1,86.3999945022585,0|0,0:0|0:0,0:0:0:0:
244,188,145075,2,0,L|372:188,1,86.3999945022585,8|0,0:0|0:0,0:0:0:0:
356,188,145283,1,0,0:0:0:0:
380,188,145352,6,0,P|436:132|396:28,1,172.799989004517,0|0,0:0|0:0,0:0:0:0:
476,248,145769,2,0,P|492:288|456:364,1,86.3999945022585,0|0,0:0|0:0,0:0:0:0:
436,88,146047,1,0,0:0:0:0:
356,188,146186,6,0,L|232:196,1,86.3999945022585,8|0,0:0|0:0,0:0:0:0:
232,32,146463,2,0,L|108:24,1,86.3999945022585,0|0,0:0|0:0,0:0:0:0:
60,164,146741,5,0,0:0:0:0:
48,268,146880,1,0,0:0:0:0:
168,328,147019,1,0,0:0:0:0:
160,224,147158,1,0,0:0:0:0:
264,152,147297,1,8,0:0:0:0:
270,256,147436,1,0,0:0:0:0:
415,365,147575,6,0,P|437:286|376:232,1,172.799989004517,0|0,0:0|0:0,0:0:0:0:
168,278,147991,2,0,P|220:344|304:344,1,172.799989004517,0|0,0:0|0:0,0:0:0:0:
303,344,148338,1,0,0:0:0:0:
303,344,148408,5,8,0:0:0:0:
352,196,148547,1,0,0:0:0:0:
408,376,148686,1,0,0:0:0:0:
456,164,148825,1,0,0:0:0:0:
496,288,148963,6,0,L|368:280,1,86.3999945022585,0|0,0:0|0:0,0:0:0:0:
168,120,149241,2,0,L|254:114,1,86.3999945022585,0|0,0:0|0:0,0:0:0:0:
352,196,149519,5,8,0:0:0:0:
344,300,149658,1,0,0:0:0:0:
200,136,149797,1,0,0:0:0:0:
228,236,149936,1,0,0:0:0:0:
36,131,150075,1,0,0:0:0:0:
97,215,150213,2,0,L|160:305,1,86.3999945022585,8|0,0:0|0:0,0:0:0:0:
284,372,150491,5,0,0:0:0:0:
260,364,150561,1,0,0:0:0:0:
236,356,150630,1,8,0:0:0:0:
236,260,150769,1,8,0:0:0:0:
232,172,150908,1,8,0:0:0:0:
236,84,151047,1,8,0:0:0:0:
152,308,151186,5,0,0:0:0:0:
