osu file format v14

[General]
AudioFilename: Cho-E - Amputator.mp3
AudioLeadIn: 0
PreviewTime: 79522
Countdown: 0
SampleSet: Normal
StackLeniency: 0.3
Mode: 0
LetterboxInBreaks: 1
WidescreenStoryboard: 1

[Editor]
DistanceSpacing: 1.1
BeatDivisor: 1
GridSize: 4
TimelineZoom: 1

[Metadata]
Title:Amputator
TitleUnicode:Amputator
Artist:r300k feat. Cho-E
ArtistUnicode:r300k feat. Cho-E
Creator:UndeadCapulet
Version:Skystar's Expert Style (2020 Remaster)
Source:TouchMix
Tags:TOMIX Android Gamevil skystar amamiya yuko korean video game
BeatmapID:2682718
BeatmapSetID:1292704

[Difficulty]
HPDrainRate:6
CircleSize:4
OverallDifficulty:8.3
ApproachRate:9.3
SliderMultiplier:2.88
SliderTickRate:1

[Events]
//Background and Video events
0,0,"amputator.png",0,0
//Break Periods
2,133608,141743
//Storyboard Layer 0 (Background)
//Storyboard Layer 1 (Fail)
//Storyboard Layer 2 (Pass)
//Storyboard Layer 3 (Foreground)
//Storyboard Layer 4 (Overlay)
//Storyboard Sound Samples

[TimingPoints]
75,555.555555555556,4,1,1,60,1,0
8963,-200,4,2,1,60,0,0
25769,-200,4,1,1,60,0,0
26741,-100,4,1,1,60,0,0
44519,-200,4,1,1,40,0,0
60630,-200,4,2,1,40,0,0
61325,-200,4,1,1,40,0,0
80075,-83.3333333333333,4,1,1,60,0,0

[Colours]
Combo1 : 255,0,0
Combo2 : 255,255,0
Combo3 : 176,39,205

[HitObjects]
310,82,8963,6,0,L|186:94,1,108,4|0,0:0|0:0,0:0:0:0:
138,56,9519,1,8,0:0:0:0:
138,56,9797,2,0,B|94:80|94:80|117:175,1,144
8,312,10630,1,8,0:0:0:0:
58,368,10769,2,0,L|68:234,1,108
335,175,11602,5,0,0:0:0:0:
209,204,11741,1,8,0:0:0:0:
285,259,12019,2,0,L|272:82,1,144
235,328,12852,1,8,0:0:0:0:
470,49,13269,1,0,0:0:0:0:
487,122,13408,6,0,P|447:130|373:83,1,108
362,31,13963,1,8,0:0:0:0:
362,31,14241,2,0,P|305:18|231:78,1,144
97,122,15075,1,8,0:0:0:0:
36,166,15213,2,0,P|76:199|129:203,1,108
307,303,16047,5,0,0:0:0:0:
291,184,16186,2,0,L|285:268,1,72,8|0,0:0|0:0,0:0:0:0:
295,171,17019,1,0,0:0:0:0:
239,255,17297,2,0,L|248:366,1,108,8|0,0:0|0:0,0:0:0:0:
168,320,17852,6,0,B|155:339|155:339|66:352,1,108
8,307,18408,1,8,0:0:0:0:
113,266,18686,1,0,0:0:0:0:
168,320,18825,2,0,L|215:330,1,36,2|0,0:0|0:0,0:0:0:0:
356,281,19102,1,2,0:0:0:0:
429,264,19241,2,0,L|464:192,1,72,0|8,0:0|0:0,0:0:0:0:
436,127,19658,2,0,B|410:107|410:107|370:23,1,108
377,39,20491,5,0,0:0:0:0:
377,114,20630,2,0,L|388:195,1,72,8|0,0:0|0:0,0:0:0:0:
458,211,21047,1,2,0:0:0:0:
440,284,21186,1,0,0:0:0:0:
366,301,21325,1,2,0:0:0:0:
402,366,21463,2,0,L|491:383,1,72,0|8,0:0|0:0,0:0:0:0:
124,338,22158,1,0,0:0:0:0:
54,367,22297,6,0,B|3:345|3:345|22:284,1,108
81,252,22852,2,0,L|158:209,1,72,8|0,0:0|0:0,0:0:0:0:
151,141,23269,1,2,0:0:0:0:
88,98,23408,1,0,0:0:0:0:
117,28,23547,1,2,0:0:0:0:
190,10,23686,2,0,L|214:88,1,72,0|8,0:0|0:0,0:0:0:0:
151,141,24102,2,0,B|227:130|227:130|254:158,1,108
490,306,24936,5,0,0:0:0:0:
419,333,25075,1,8,0:0:0:0:
419,333,25352,1,8,0:0:0:0:
419,333,25630,1,8,0:0:0:0:
490,306,25769,5,8,0:0:0:0:
350,265,25908,1,8,0:0:0:0:
490,306,26186,5,8,0:0:0:0:
490,306,26325,1,8,0:0:0:0:
490,306,26463,1,8,0:0:0:0:
490,306,26602,1,8,0:0:0:0:
485,174,26741,6,0,B|461:189|461:189|455:248,1,72,4|0,0:0|0:0,0:0:0:0:
369,348,27019,2,0,L|277:361,1,72
161,311,27297,1,8,0:0:0:0:
115,384,27436,5,0,0:0:0:0:
161,311,27575,2,0,B|197:280|260:291|260:291|238:300|223:336,1,144
97,209,27991,1,0,0:0:0:0:
297,358,28130,6,0,P|312:375|292:360,1,72
323,201,28408,1,8,0:0:0:0:
232,317,28547,2,0,P|224:286|246:231,1,72
437,92,28825,1,0,0:0:0:0:
437,92,28963,6,0,L|484:16,1,72
219,154,29241,2,0,B|237:175|237:175|252:239,1,72
21,341,29519,5,8,0:0:0:0:
196,292,29658,1,0,0:0:0:0:
115,268,29797,2,0,B|88:239|88:204|88:204|74:238|34:248,1,144
33,248,30213,2,0,P|31:223|47:170,1,72
98,117,30491,1,0,0:0:0:0:
112,227,30630,1,8,0:0:0:0:
222,209,30769,1,0,0:0:0:0:
368,272,30908,5,0,0:0:0:0:
347,265,31047,1,0,0:0:0:0:
191,285,31186,6,0,L|178:372,1,72
311,247,31463,2,0,L|326:351,1,72
221,197,31741,5,8,0:0:0:0:
290,156,31880,1,0,0:0:0:0:
254,62,32019,2,0,L|249:222,1,144
250,206,32436,1,0,0:0:0:0:
453,70,32575,6,0,B|411:48|411:48|386:46,1,72
346,114,32852,1,8,0:0:0:0:
375,187,32991,1,0,0:0:0:0:
454,192,33130,1,0,0:0:0:0:
507,250,33269,1,0,0:0:0:0:
507,250,33408,6,0,L|495:339,1,72
334,371,33686,2,0,L|428:357,1,72
420,272,33963,5,8,0:0:0:0:
223,382,34102,1,0,0:0:0:0:
405,360,34241,2,0,B|295:344|295:344|268:307,1,144
412,155,34658,2,0,L|470:79,1,72,8|0,0:0|0:0,0:0:0:0:
455,97,34936,1,0,0:0:0:0:
316,123,35075,5,8,0:0:0:0:
283,212,35213,1,8,0:0:0:0:
153,184,35352,1,8,0:0:0:0:
134,292,35491,1,8,0:0:0:0:
114,99,35630,6,0,L|103:-3,1,72
0,210,35908,2,0,B|23:248|23:248|53:259,1,72
78,179,36186,1,8,0:0:0:0:
214,0,36325,5,0,0:0:0:0:
214,0,36463,2,0,B|185:11|185:11|107:106,1,144
261,252,36880,2,0,L|320:211,1,72
167,190,37158,1,0,0:0:0:0:
261,90,37297,2,0,L|191:78,1,72,8|0,0:0|0:0,0:0:0:0:
261,90,37713,1,0,0:0:0:0:
320,13,37852,6,0,B|332:36|332:36|369:62,1,72
495,120,38130,2,0,B|493:154|493:154|471:186,1,72
272,254,38408,5,8,0:0:0:0:
367,230,38547,1,0,0:0:0:0:
272,254,38686,1,0,0:0:0:0:
367,230,38825,1,0,0:0:0:0:
315,346,38963,6,0,B|348:330|348:330|421:334,1,72
471,186,39241,2,0,B|429:166|429:166|399:127,1,72
308,36,39519,5,8,0:0:0:0:
270,177,39658,1,0,0:0:0:0:
308,36,39797,1,0,0:0:0:0:
270,177,39936,1,0,0:0:0:0:
326,238,40075,6,0,L|394:284,1,72
127,208,40352,2,0,L|34:227,1,72
194,146,40630,1,8,0:0:0:0:
183,360,40769,5,0,0:0:0:0:
183,360,40908,2,0,P|242:333|242:239,1,144
83,282,41325,1,0,0:0:0:0:
9,237,41463,1,0,0:0:0:0:
29,153,41602,1,0,0:0:0:0:
151,104,41741,6,0,L|147:32,1,72,8|0,0:0|0:0,0:0:0:0:
236,123,42019,2,0,L|232:51,1,72,8|0,0:0|0:0,0:0:0:0:
380,102,42297,5,0,0:0:0:0:
392,80,42436,1,0,0:0:0:0:
399,192,42575,5,0,0:0:0:0:
412,213,42714,1,0,0:0:0:0:
311,163,42852,5,8,0:0:0:0:
221,209,42991,1,0,0:0:0:0:
202,308,43130,2,0,B|102:328|102:328|90:281,1,144
169,114,43547,2,0,P|144:93|90:88,1,72,8|0,0:0|0:0,0:0:0:0:
32,124,43825,1,0,0:0:0:0:
0,201,43963,5,8,0:0:0:0:
110,168,44102,1,8,0:0:0:0:
183,28,44241,1,8,0:0:0:0:
300,134,44380,1,8,0:0:0:0:
415,128,44519,6,0,P|445:136|449:208,1,108,4|0,0:0|0:0,0:0:0:0:
384,242,45075,1,8,0:0:0:0:
384,242,45352,1,0,0:0:0:0:
310,258,45491,1,2,0:2:0:0:
234,249,45630,1,0,0:0:0:0:
162,223,45769,1,2,0:2:0:0:
88,241,45908,2,0,P|90:281|93:312,1,72,0|8,0:0|0:0,0:0:0:0:
0,331,46325,2,0,P|8:277|13:224,1,108
57,12,47158,5,0,0:0:0:0:
117,56,47297,1,8,0:0:0:0:
117,56,47575,1,0,0:0:0:0:
191,51,47713,1,2,0:2:0:0:
249,99,47852,1,0,0:0:0:0:
198,155,47991,1,2,0:2:0:0:
123,142,48130,1,0,0:0:0:0:
373,340,48408,2,0,P|417:318|415:243,1,108,8|0,0:0|0:0,0:0:0:0:
376,207,48963,5,0,0:0:0:0:
376,207,49380,1,0,0:0:0:0:
302,224,49519,2,0,P|269:227|201:214,1,72,8|0,0:0|0:0,0:0:0:0:
155,208,49936,1,2,0:2:0:0:
81,224,50075,1,0,0:0:0:0:
12,255,50213,1,2,0:2:0:0:
19,179,50352,2,0,P|20:144|12:94,1,72,0|8,0:0|0:0,0:0:0:0:
60,46,50769,1,0,0:0:0:0:
110,101,50908,2,0,L|104:152,1,36
181,141,51186,6,0,P|224:125|236:62,1,108
201,3,51741,1,8,0:0:0:0:
201,3,52019,1,0,0:0:0:0:
184,76,52158,1,2,0:2:0:0:
198,150,52297,1,0,0:0:0:0:
243,210,52436,1,2,0:2:0:0:
313,237,52575,2,0,P|352:230|405:235,1,72,0|8,0:0|0:0,0:0:0:0:
66,365,53269,1,0,0:0:0:0:
12,311,53408,6,0,B|8:268|8:268|14:256|14:256|9:203,1,108
81,182,53963,2,0,L|87:91,1,72,8|0,0:0|0:0,0:0:0:0:
63,37,54380,1,2,0:2:0:0:
137,50,54519,2,0,L|134:14,1,36,0|2,0:0|0:2,0:0:0:0:
202,89,54797,2,0,B|216:76|216:76|284:74,1,72,0|8,0:0|0:0,0:0:0:0:
344,76,55213,2,0,B|390:101|390:101|435:68,1,108
471,352,56047,5,0,0:0:0:0:
426,291,56186,2,0,L|331:295,1,72,8|0,0:0|0:0,0:0:0:0:
285,326,56602,1,2,0:2:0:0:
210,340,56741,1,0,0:0:0:0:
140,310,56880,1,2,0:2:0:0:
80,263,57019,2,0,L|75:174,1,72,0|8,0:0|0:0,0:0:0:0:
406,18,57713,1,0,0:0:0:0:
450,79,57852,6,0,P|481:101|465:183,1,108
412,197,58408,2,0,P|410:234|419:279,1,72,8|0,0:0|0:0,0:0:0:0:
469,321,58825,1,2,0:2:0:0:
396,340,58963,1,0,0:0:0:0:
324,314,59102,1,2,0:2:0:0:
396,340,59241,1,0,0:0:0:0:
390,53,59519,1,8,0:0:0:0:
317,74,59658,1,0,0:0:0:0:
294,146,59797,2,0,L|299:204,1,36
243,236,60075,6,0,L|126:227,1,108
77,178,60630,1,8,0:0:0:0:
77,178,60908,1,8,0:0:0:0:
77,178,61186,1,8,0:0:0:0:
243,236,61325,5,8,0:0:0:0:
320,202,61463,1,8,0:0:0:0:
112,360,61741,5,8,0:0:0:0:
37,346,61880,1,8,0:0:0:0:
14,273,62019,1,8,0:0:0:0:
59,212,62158,1,8,0:0:0:0:
211,246,62297,6,0,L|196:364,1,108,4|0,0:0|0:0,0:0:0:0:
282,246,62852,2,0,P|252:242|183:255,1,72,8|0,0:0|0:0,0:0:0:0:
338,305,63269,1,2,0:2:0:0:
397,257,63408,1,0,0:0:0:0:
472,256,63547,1,2,0:2:0:0:
490,174,63686,2,0,L|479:257,1,72,0|8,0:0|0:0,0:0:0:0:
330,316,64102,2,0,P|305:280|317:225,1,72
338,184,64519,5,0,0:0:0:0:
45,212,64936,1,0,0:0:0:0:
45,212,65075,1,8,0:0:0:0:
244,63,65352,2,0,L|240:113,1,36,0|2,0:0|0:2,0:0:0:0:
166,115,65630,1,0,0:0:0:0:
166,115,65769,1,2,0:2:0:0:
198,183,65908,2,0,L|203:262,1,72,0|8,0:0|0:0,0:0:0:0:
68,344,66325,2,0,L|28:370,2,36
105,278,66741,5,0,0:0:0:0:
260,309,66880,2,0,L|329:368,1,72
390,353,67297,2,0,L|449:284,1,72,8|0,0:0|0:0,0:0:0:0:
470,147,67713,1,2,0:2:0:0:
470,147,67852,1,0,0:0:0:0:
402,182,67991,1,2,0:2:0:0:
329,161,68130,2,0,P|321:129|330:69,1,72,0|8,0:0|0:0,0:0:0:0:
470,147,68547,2,0,P|480:197|470:278,1,108
126,270,69380,5,0,0:0:0:0:
194,237,69519,2,0,P|230:232|287:250,1,72,8|0,0:0|0:0,0:0:0:0:
285,345,69936,2,0,L|289:310,2,36,2|0|2,0:2|0:0|0:2,0:0:0:0:
357,277,70352,1,0,0:0:0:0:
357,277,70630,1,8,0:0:0:0:
415,229,70769,2,0,L|472:222,1,36
490,289,71047,1,0,0:0:0:0:
490,95,71186,6,0,P|445:90|367:99,1,108
317,134,71741,1,8,0:0:0:0:
126,72,72019,1,0,0:0:0:0:
193,105,72158,1,2,0:2:0:0:
233,169,72297,1,0,0:0:0:0:
252,242,72436,1,2,0:2:0:0:
319,276,72575,2,0,P|311:313|311:362,1,72,0|8,0:0|0:0,0:0:0:0:
92,365,72991,1,0,0:0:0:0:
92,365,73130,2,0,L|87:321,1,36
170,380,73408,6,0,P|181:338|170:252,1,108
134,211,73963,2,0,P|98:206|41:218,1,72,8|0,0:0|0:0,0:0:0:0:
136,191,74380,1,2,0:2:0:0:
210,205,74519,2,0,P|231:208|264:228,1,36,0|2,0:0|0:2,0:0:0:0:
304,260,74797,1,0,0:0:0:0:
492,362,75075,1,8,0:0:0:0:
440,307,75213,1,0,0:0:0:0:
434,231,75352,2,0,P|435:212|445:184,1,36
480,83,75630,5,0,0:0:0:0:
480,83,75769,2,0,P|448:101|399:89,1,72
501,0,76186,2,0,L|494:71,1,72,8|0,0:0|0:0,0:0:0:0:
414,98,76602,1,2,0:2:0:0:
339,80,76741,1,0,0:0:0:0:
263,81,76880,1,2,0:2:0:0:
275,155,77019,2,0,P|238:160|175:149,1,72,0|8,0:0|0:0,0:0:0:0:
97,130,77436,2,0,L|133:126,1,36
188,74,77713,1,0,0:0:0:0:
31,73,77852,6,0,P|41:123|36:190,1,108
4,248,78408,1,8,0:0:0:0:
175,201,78686,1,0,0:0:0:0:
238,159,78825,1,2,0:2:0:0:
310,186,78963,1,0,0:0:0:0:
356,290,79102,1,8,0:0:0:0:
151,312,79241,1,0,0:0:0:0:
151,312,79519,1,8,0:0:0:0:
205,252,79658,1,8,0:0:0:0:
291,225,79797,1,8,0:0:0:0:
391,250,79936,1,8,0:0:0:0:
462,344,80075,6,0,B|487:327|487:327|504:249,1,86.3999973632813,4|0,0:0|0:0,0:0:0:0:
259,21,80352,2,0,L|248:106,1,86.3999973632813
481,180,80630,2,0,B|351:152|351:152|297:170,1,172.799994726563,8|0,0:0|0:0,0:0:0:0:
313,164,81047,6,0,P|385:187|374:114,2,172.799994726563,0|8|0,0:0|0:0|0:0,0:0:0:0:
461,61,81741,2,0,L|444:194,1,86.3999973632813,8|0,0:0|0:0,0:0:0:0:
266,234,82019,2,0,B|247:217|247:217|188:206,1,86.3999973632813
72,189,82297,5,0,0:0:0:0:
183,290,82436,2,0,B|151:159|151:159|184:134,1,172.799994726563,8|0,0:0|0:0,0:0:0:0:
257,98,82852,2,0,B|275:104|275:104|358:86,1,86.3999973632813,8|0,0:0|0:0,0:0:0:0:
387,297,83130,1,0,0:0:0:0:
434,33,83269,2,0,L|416:142,1,86.3999973632813
331,370,83547,6,0,P|305:349|314:280,1,86.3999973632813
265,55,83825,2,0,P|307:62|340:89,1,86.3999973632813,0|8,0:0|0:0,0:0:0:0:
357,172,84102,1,0,0:0:0:0:
124,252,84241,5,0,0:0:0:0:
124,252,84380,1,0,0:0:0:0:
215,200,84519,6,0,B|77:212|77:212|42:230,1,172.799994726563
31,65,85075,1,8,0:0:0:0:
117,42,85213,1,0,0:0:0:0:
117,42,85283,1,0,0:0:0:0:
117,42,85352,2,0,B|170:53|170:53|201:82,1,86.3999973632813
113,337,85630,6,0,L|124:252,1,86.3999973632813
226,285,85908,2,0,L|215:200,1,86.3999973632813
311,182,86186,2,0,L|424:41,1,172.799994726563,8|0,0:0|0:0,0:0:0:0:
266,56,86602,1,0,0:0:0:0:
266,56,86672,1,0,0:0:0:0:
266,56,86741,6,0,B|203:70|203:70|243:80,1,86.3999973632813
388,155,87019,2,0,B|451:169|451:169|411:179,1,86.3999973632813
304,262,87297,1,8,0:0:0:0:
309,348,87436,2,0,L|304:262,1,86.3999973632813
165,148,87713,6,0,P|143:149|127:135,2,43.1999986816407
2,146,87991,2,0,P|71:123|65:196,1,172.799994726563,8|0,0:0|0:0,0:0:0:0:
64,196,88338,1,0,0:0:0:0:
64,196,88408,5,8,0:0:0:0:
147,276,88547,1,8,0:0:0:0:
245,208,88686,1,8,0:0:0:0:
345,136,88825,1,8,0:0:0:0:
436,225,88963,6,0,L|506:292,1,86.3999973632813
335,366,89241,2,0,B|384:331|384:331|438:328,1,86.3999973632813
399,73,89519,2,0,L|347:237,1,172.799994726563,8|0,0:0|0:0,0:0:0:0:
345,136,89936,5,0,0:0:0:0:
410,329,90213,2,0,B|385:296|385:296|290:268|290:268|266:237,1,172.799994726563,8|0,0:0|0:0,0:0:0:0:
346,237,90630,5,8,0:0:0:0:
215,343,90769,1,0,0:0:0:0:
310,314,90908,1,8,0:0:0:0:
114,290,91047,1,8,0:0:0:0:
193,218,91186,5,0,0:0:0:0:
193,218,91325,2,0,B|123:331|123:331|117:371,1,172.799994726563,8|0,0:0|0:0,0:0:0:0:
31,328,91741,1,8,0:0:0:0:
66,239,91880,5,0,0:0:0:0:
66,239,91950,1,0,0:0:0:0:
66,239,92019,2,0,L|54:134,1,86.3999973632813
184,0,92297,2,0,B|204:39|204:39|167:81,1,86.3999973632813
193,218,92575,2,0,B|242:240|242:240|260:204,1,86.3999973632813
351,105,92852,5,8,0:0:0:0:
265,120,92991,1,0,0:0:0:0:
178,122,93130,1,0,0:0:0:0:
93,141,93269,1,0,0:0:0:0:
384,195,93408,6,0,L|402:23,1,172.799994726563
351,105,93963,1,8,0:0:0:0:
469,184,94102,1,0,0:0:0:0:
469,184,94172,1,0,0:0:0:0:
469,184,94241,2,0,L|351:199,1,86.3999973632813
198,261,94519,6,0,P|244:260|277:287,1,86.3999973632813
198,261,94797,2,0,P|166:232|149:192,1,86.3999973632813
225,74,95075,1,8,0:0:0:0:
236,168,95213,1,0,0:0:0:0:
57,212,95352,1,0,0:0:0:0:
81,109,95491,1,0,0:0:0:0:
320,210,95630,6,0,L|149:192,1,172.799994726563
334,194,96047,1,0,0:0:0:0:
180,337,96186,1,8,0:0:0:0:
283,319,96325,2,0,L|196:325,1,86.3999973632813
40,210,96602,6,0,L|48:157,2,43.1999986816407
125,188,96880,2,0,P|158:126|152:23,1,172.799994726563,8|0,0:0|0:0,0:0:0:0:
153,25,97227,1,0,0:0:0:0:
153,25,97297,5,8,0:0:0:0:
173,113,97436,1,8,0:0:0:0:
125,188,97575,1,8,0:0:0:0:
40,210,97713,1,8,0:0:0:0:
8,58,97852,5,4,0:0:0:0:
377,29,98130,1,0,0:0:0:0:
268,344,98408,2,0,L|282:232,1,86.3999973632813,8|0,0:0|0:0,0:0:0:0:
415,130,98686,1,0,0:0:0:0:
409,212,98825,6,0,B|332:109|332:109|314:36,2,172.799994726563,0|8|0,0:0|0:0|0:0,0:0:0:0:
278,258,99519,2,0,B|324:281|324:281|372:278,1,86.3999973632813,8|0,0:0|0:0,0:0:0:0:
138,209,99797,2,0,L|251:199,1,86.3999973632813
512,255,100075,5,0,0:0:0:0:
362,128,100213,1,0,0:0:0:0:
483,124,100352,2,0,B|516:123|516:123|408:211,1,172.799994726563,0|8,0:0|0:0,0:0:0:0:
307,331,100769,2,0,B|286:321|286:321|277:257,1,86.3999973632813
252,81,101047,5,0,0:0:0:0:
357,273,101186,1,0,0:0:0:0:
137,281,101325,2,0,B|14:333|14:333|0:370,1,172.799994726563
0,370,101741,2,0,L|98:376,1,86.3999973632813,8|0,0:0|0:0,0:0:0:0:
221,322,102019,1,0,0:0:0:0:
29,217,102158,1,0,0:0:0:0:
277,378,102297,6,0,B|261:240|261:240|229:229,1,172.799994726563
485,252,102852,2,0,L|475:345,1,86.3999973632813,8|0,0:0|0:0,0:0:0:0:
500,166,103130,1,0,0:0:0:0:
285,121,103269,6,0,B|302:204|302:204|378:158,2,172.799994726563,0|8|0,0:0|0:0|0:0,0:0:0:0:
228,228,103963,2,0,L|119:238,1,86.3999973632813,8|0,0:0|0:0,0:0:0:0:
64,236,104241,2,0,B|23:248|23:248|75:254,1,86.3999973632813
303,267,104519,5,0,0:0:0:0:
367,62,104658,1,0,0:0:0:0:
404,327,104797,2,0,L|177:305,1,172.799994726563,0|8,0:0|0:0,0:0:0:0:
141,235,105213,2,0,L|127:136,1,86.3999973632813
255,17,105491,1,0,0:0:0:0:
303,267,105630,1,0,0:0:0:0:
87,35,105769,6,0,B|163:134|163:134|224:147,1,172.799994726563,8|0,0:0|0:0,0:0:0:0:
398,112,106186,1,8,0:0:0:0:
121,130,106325,1,8,0:0:0:0:
169,211,106463,1,8,0:0:0:0:
358,196,106602,1,8,0:0:0:0:
308,277,106741,6,0,L|319:88,1,172.799994726563
236,333,107297,1,8,0:0:0:0:
237,235,107436,2,0,B|286:248|286:248|314:284,1,86.3999973632813
318,104,107713,2,0,B|200:145|200:145|289:161,1,172.799994726563,0|8,0:0|0:0,0:0:0:0:
68,52,108269,5,0,0:0:0:0:
120,189,108408,2,0,B|143:156|143:156|125:97,1,86.3999973632813,8|0,0:0|0:0,0:0:0:0:
68,52,108686,1,0,0:0:0:0:
39,234,108825,1,0,0:0:0:0:
39,234,108963,6,0,L|53:328,1,86.3999973632813
173,89,109241,2,0,L|-25:105,1,172.799994726563,0|8,0:0|0:0,0:0:0:0:
237,243,109658,1,0,0:0:0:0:
51,319,109936,6,0,L|65:225,1,86.3999973632813,0|0,0:0|2:0,0:0:0:0:
158,191,110213,2,0,L|330:204,1,172.799994726563,8|0,0:0|0:0,0:0:0:0:
473,255,110630,2,0,P|474:298|446:329,1,86.3999973632813,8|0,0:0|0:0,0:0:0:0:
261,231,110908,1,0,0:0:0:0:
422,172,111047,1,0,0:0:0:0:
390,263,111186,6,0,P|374:189|390:89,1,172.799994726563
388,93,111741,2,0,P|355:119|289:101,1,86.3999973632813,8|0,0:0|0:0,0:0:0:0:
303,115,111950,1,0,0:0:0:0:
295,110,112019,1,0,0:0:0:0:
42,153,112158,6,0,B|113:152|113:152|130:145|130:145|276:141,2,172.799994726563,0|8|0,0:0|0:0|0:0,0:0:0:0:
251,256,112852,2,0,B|259:311|259:311|248:353,1,86.3999973632813,8|0,0:0|0:0,0:0:0:0:
236,170,113130,2,0,B|228:115|228:115|239:73,1,86.3999973632813
314,67,113408,5,0,0:0:0:0:
174,234,113547,1,0,0:0:0:0:
333,378,113686,1,0,0:0:0:0:
333,378,113963,6,0,L|419:370,1,86.3999973632813,8|0,0:0|0:0,0:0:0:0:
474,291,114241,1,0,0:0:0:0:
392,242,114380,1,0,0:0:0:0:
432,155,114519,6,8,L|442:51,1,86.3999973632813
60,36,114797,2,8,L|68:122,1,86.3999973632813
343,188,115075,6,0,L|348:128,1,43.1999986816407,0|0,0:0|2:0,0:0:0:0:
150,17,115213,2,0,L|154:60,1,43.1999986816407,8|0,0:0|2:0,0:0:0:0:
262,202,115352,2,0,L|267:142,1,43.1999986816407,8|0,0:0|2:0,0:0:0:0:
231,31,115491,2,0,L|236:90,1,43.1999986816407,8|0,0:0|2:0,0:0:0:0:
252,286,115630,6,0,B|225:308|225:308|159:281,1,86.3999973632813,6|0,0:0|0:0,0:0:0:0:
8,112,115908,2,0,L|84:48,1,86.3999973632813,2|2,0:0|0:0,0:0:0:0:
315,220,116186,2,2,B|292:366|292:366|269:377,1,172.799994726563,8|2,0:0|0:0,0:0:0:0:
177,288,116602,6,2,L|118:188,1,86.3999973632813,2|0,0:0|2:0,0:0:0:0:
364,32,116880,2,0,L|303:103,1,86.3999973632813,10|0,0:0|2:0,0:0:0:0:
1,9,117158,2,2,L|85:63,1,86.3999973632813,0|10,0:0|0:0,0:0:0:0:
415,115,117436,1,0,0:0:0:0:
386,308,117575,2,0,B|360:334|360:334|293:300,1,86.3999973632813,2|2,0:0|0:0,0:0:0:0:
307,97,117852,5,0,0:0:0:0:
237,270,117991,2,2,B|376:250|376:250|420:208,1,172.799994726563,10|0,0:0|0:0,0:0:0:0:
204,184,118408,1,8,0:0:0:0:
344,144,118547,2,2,B|276:136|276:136|280:164,1,86.3999973632813,2|0,0:0|0:0,0:0:0:0:
241,365,118825,6,2,B|230:333|230:333|102:206,1,172.799994726563,0|0,0:0|0:0,0:0:0:0:
270,244,119241,1,2,0:0:0:0:
15,294,119380,1,0,0:0:0:0:
7,299,119450,1,0,0:0:0:0:
0,305,119519,2,2,B|-11:287|-11:287|18:201,1,86.3999973632813,10|0,0:0|0:0,0:0:0:0:
442,31,119797,2,0,B|453:49|453:49|424:135,1,86.3999973632813,2|2,0:0|0:0,0:0:0:0:
373,326,120075,6,2,B|373:359|373:359|512:370,1,172.799994726563,0|2,0:0|0:0,0:0:0:0:
284,384,120630,1,8,0:0:0:0:
301,246,120769,1,2,0:0:0:0:
297,253,120838,1,0,0:0:0:0:
293,261,120908,2,2,B|270:281|270:281|183:268,1,86.3999973632813,0|2,0:0|0:0,0:0:0:0:
449,118,121186,6,2,L|372:179,1,86.3999973632813,2|0,0:0|0:0,0:0:0:0:
66,14,121463,2,2,L|143:75,1,86.3999973632813,0|2,0:0|0:0,0:0:0:0:
373,285,121741,2,2,L|316:119,1,172.799994726563,10|0,0:0|0:0,0:0:0:0:
96,260,122158,1,2,0:0:0:0:
96,260,122227,1,0,0:0:0:0:
96,260,122297,6,0,L|141:187,1,86.3999973632813,0|2,0:0|0:0,0:0:0:0:
133,67,122575,2,0,B|72:57|72:57|29:69,1,86.3999973632813
361,22,122852,1,10,0:0:0:0:
261,157,122991,2,2,B|253:169|253:169|192:115,1,86.3999973632813,0|2,0:0|0:0,0:0:0:0:
48,63,123269,6,2,L|66:13,2,43.1999986816407,0|0|0,0:0|0:0|0:0,0:0:0:0:
326,97,123547,2,2,L|523:132,1,172.799994726563,8|0,0:0|0:0,0:0:0:0:
496,127,123894,1,0,0:0:0:0:
496,127,123963,5,10,0:0:0:0:
247,162,124102,1,8,0:0:0:0:
415,160,124241,1,8,0:0:0:0:
507,333,124380,1,8,0:0:0:0:
210,328,124519,6,0,B|226:268|226:268|271:240,1,86.3999973632813,2|0,0:0|0:0,0:0:0:0:
403,49,124797,2,0,L|414:134,1,86.3999973632813,2|0,0:0|0:0,0:0:0:0:
24,166,125075,2,2,B|102:105|102:105|185:98,1,172.799994726563,8|2,0:0|0:0,0:0:0:0:
95,66,125491,1,2,0:0:0:0:
258,71,125769,6,0,B|293:169|293:169|197:167,1,172.799994726563,10|2,0:0|0:0,0:0:0:0:
175,98,126186,2,2,L|95:66,1,86.3999973632813,10|0,0:0|0:0,0:0:0:0:
379,42,126463,2,0,B|360:101|360:101|399:88,1,86.3999973632813,2|2,0:0|0:0,0:0:0:0:
495,209,126741,6,2,B|471:169|471:169|423:171,1,86.3999973632813,0|10,0:0|0:0,0:0:0:0:
273,323,127158,2,2,B|297:363|297:363|345:361,1,86.3999973632813,0|10,0:0|0:0,0:0:0:0:
419,341,127436,1,2,0:0:0:0:
419,341,127505,1,0,0:0:0:0:
419,341,127575,6,0,L|432:242,1,86.3999973632813,0|2,0:0|0:0,0:0:0:0:
77,102,127852,2,2,L|160:169,1,86.3999973632813,2|0,0:0|0:0,0:0:0:0:
365,191,128130,2,2,L|429:133,1,86.3999973632813,0|0,0:0|0:0,0:0:0:0:
453,54,128408,5,10,0:0:0:0:
278,100,128547,1,0,0:0:0:0:
327,317,128686,1,2,0:0:0:0:
142,216,128825,1,2,0:0:0:0:
168,324,128963,6,2,B|156:257|214:213|214:213|231:236|232:280,1,172.799994726563,0|2,0:0|0:0,0:0:0:0:
409,36,129519,2,0,B|433:90|433:90|419:137,1,86.3999973632813,8|2,0:0|0:0,0:0:0:0:
423,124,129727,1,0,0:0:0:0:
421,132,129797,1,0,0:0:0:0:
373,287,129936,1,2,0:0:0:0:
512,200,130075,6,2,P|476:206|416:235,1,86.3999973632813,0|2,0:0|0:0,0:0:0:0:
341,95,130352,2,0,P|305:101|245:130,1,86.3999973632813,2|0,0:0|0:0,0:0:0:0:
138,331,130630,1,10,0:0:0:0:
212,358,130769,1,0,0:0:0:0:
298,345,130908,1,2,0:0:0:0:
373,287,131047,1,2,0:0:0:0:
358,176,131186,6,0,B|359:126|406:75|406:75|345:81,1,172.799994726563,0|2,0:0|0:0,0:0:0:0:
206,92,131602,2,2,B|267:69|267:69|262:107,1,86.3999973632813,2|8,0:0|0:0,0:0:0:0:
227,178,131880,1,2,0:0:0:0:
36,156,132019,1,0,0:0:0:0:
99,257,132158,5,0,0:0:0:0:
105,232,132227,1,0,0:0:0:0:
111,206,132297,1,0,0:0:0:0:
264,90,132436,2,2,L|274:297,1,172.799994726563,10|0,0:0|0:0,0:0:0:0:
454,360,132852,5,8,0:0:0:0:
437,266,132991,1,8,0:0:0:0:
420,172,133130,1,8,0:0:0:0:
403,78,133269,1,8,0:0:0:0:
494,16,133408,5,0,0:0:0:0:
115,256,142297,6,0,P|157:249|188:220,1,86.3999973632813
369,115,142575,2,0,P|339:85|297:79,1,86.3999973632813
153,102,142852,1,8,0:0:0:0:
330,223,142991,5,0,0:0:0:0:
244,272,143130,2,0,B|248:202|189:145|189:145|242:160,1,172.799994726563
286,104,143547,2,0,L|393:139,1,86.3999973632813
493,176,143825,5,0,0:0:0:0:
493,176,143894,1,0,0:0:0:0:
493,176,143963,1,8,0:0:0:0:
462,320,144102,1,0,0:0:0:0:
349,276,144241,1,0,0:0:0:0:
369,378,144380,1,0,0:0:0:0:
349,276,144519,6,0,B|350:229|350:229|370:180,1,86.3999973632813
163,108,144797,2,0,B|162:155|162:155|142:204,1,86.3999973632813
260,237,145075,2,0,L|252:134,1,86.3999973632813,8|0,0:0|0:0,0:0:0:0:
185,271,145283,1,0,0:0:0:0:
185,271,145352,6,0,P|264:287|271:399,1,172.799994726563
139,340,145769,2,0,L|21:343,1,86.3999973632813
52,342,146047,1,0,0:0:0:0:
41,200,146186,6,0,L|67:90,1,86.3999973632813,8|0,0:0|0:0,0:0:0:0:
153,124,146463,2,0,L|186:229,1,86.3999973632813
108,260,146741,5,0,0:0:0:0:
109,48,146880,1,0,0:0:0:0:
290,76,147019,1,0,0:0:0:0:
261,207,147158,1,0,0:0:0:0:
428,187,147297,1,8,0:0:0:0:
413,130,147436,1,0,0:0:0:0:
493,144,147575,6,0,B|350:165|350:165|340:221,1,172.799994726563
394,265,147991,2,0,B|414:337|355:387|303:376|324:302,1,172.799994726563
319,325,148338,1,0,0:0:0:0:
319,325,148408,5,8,0:0:0:0:
169,248,148547,1,0,0:0:0:0:
47,364,148686,1,0,0:0:0:0:
122,338,148825,1,0,0:0:0:0:
25,216,148963,6,0,B|9:251|9:251|2:299,1,86.3999973632813
220,119,149241,2,0,B|240:163|240:163|246:213,1,86.3999973632813
193,274,149519,5,8,0:0:0:0:
87,156,149658,1,0,0:0:0:0:
139,80,149797,1,0,0:0:0:0:
160,197,149936,1,0,0:0:0:0:
42,256,150075,1,0,0:0:0:0:
116,366,150213,2,0,L|113:249,1,86.3999973632813,8|0,0:0|0:0,0:0:0:0:
220,119,150491,5,0,0:0:0:0:
220,119,150561,1,0,0:0:0:0:
220,119,150630,1,8,0:0:0:0:
312,137,150769,1,8,0:0:0:0:
397,177,150908,1,8,0:0:0:0:
472,236,151046,1,8,0:0:0:0:
489,371,151186,5,0,0:0:0:0:
