osu file format v14

[General]
AudioFilename: Cho-E - Amputator.mp3
AudioLeadIn: 0
PreviewTime: 79522
Countdown: 0
SampleSet: Normal
StackLeniency: 0.3
Mode: 0
LetterboxInBreaks: 1
WidescreenStoryboard: 1

[Editor]
Bookmarks: 75,8686,79519,97852,115630,133408
DistanceSpacing: 1.2
BeatDivisor: 8
GridSize: 32
TimelineZoom: 1.9

[Metadata]
Title:Amputator
TitleUnicode:Amputator
Artist:r300k feat. Cho-E
ArtistUnicode:r300k feat. Cho-E
Creator:UndeadCapulet
Version:Insane Style
Source:TouchMix
Tags:TOMIX Android Gamevil skystar amamiya yuko korean video game
BeatmapID:2682717
BeatmapSetID:1292704

[Difficulty]
HPDrainRate:5
CircleSize:4
OverallDifficulty:7
ApproachRate:9
SliderMultiplier:2.6
SliderTickRate:1

[Events]
//Background and Video events
0,0,"amputator.png",0,0
//Break Periods
2,9163,25169
//Storyboard Layer 0 (Background)
//Storyboard Layer 1 (Fail)
//Storyboard Layer 2 (Pass)
//Storyboard Layer 3 (Foreground)
//Storyboard Layer 4 (Overlay)
//Storyboard Sound Samples

[TimingPoints]
75,555.555555555556,4,1,1,60,1,0
8825,-133.333333333333,4,1,1,60,0,0
8963,-133.333333333333,4,2,1,60,0,0
25769,-133.333333333333,4,1,1,60,0,0
26741,-81.3008130081301,4,1,1,60,0,0
44519,-200,4,1,1,40,0,0
46325,-133.333333333333,4,1,1,40,0,0
46741,-200,4,1,1,40,0,0
47297,-133.333333333333,4,1,1,40,0,0
47575,-200,4,1,1,40,0,0
48686,-133.333333333333,4,1,1,40,0,0
48963,-200,4,1,1,40,0,0
50352,-133.333333333333,4,1,1,40,0,0
51186,-200,4,1,1,40,0,0
55352,-133.333333333333,4,1,1,40,0,0
55630,-200,4,1,1,40,0,0
56186,-133.333333333333,4,1,1,40,0,0
56463,-200,4,1,1,40,0,0
57019,-133.333333333333,4,1,1,40,0,0
57852,-200,4,1,1,40,0,0
59797,-133.333333333333,4,1,1,40,0,0
60075,-200,4,1,1,40,0,0
60630,-200,4,2,1,40,0,0
61325,-200,4,1,1,40,0,0
61463,-133.333333333333,4,1,1,40,0,0
79519,-100,4,1,1,40,0,0
80075,-81.3008130081301,4,1,1,60,0,1
97852,-100,4,1,1,60,0,0
115630,-81.3008130081301,4,1,1,60,0,1
133408,-81.3008130081301,4,1,1,60,0,0

[Colours]
Combo1 : 255,0,0
Combo2 : 255,255,0
Combo3 : 176,39,205

[HitObjects]
313,182,8825,6,0,L|369:185,1,48.750001859665,0|4,0:0|0:0,0:0:0:0:
313,202,25769,6,0,L|369:199,1,48.750001859665,8|8,0:0|0:0,0:0:0:0:
227,205,26186,6,0,L|200:164,1,48.750001859665,8|8,0:0|0:0,0:0:0:0:
273,278,26463,2,0,L|250:321,1,48.750001859665,8|8,0:0|0:0,0:0:0:0:
88,329,26741,6,0,B|61:260|61:260|95:126,2,159.90000243988,4|0|8,0:0|0:0|0:0,0:0:0:0:
0,354,27436,1,0,0:0:0:0:
231,257,27575,2,0,P|180:252|125:262,1,79.9500012199402,0|0,0:0|0:0,0:0:0:0:
12,139,27852,2,0,L|22:28,1,79.9500012199402,0|0,0:0|0:0,0:0:0:0:
159,89,28130,2,0,L|169:200,1,79.9500012199402,0|0,0:0|0:0,0:0:0:0:
12,139,28408,5,8,0:0:0:0:
99,18,28547,1,0,0:0:0:0:
158,190,28686,2,0,P|221:203|269:204,1,79.9500012199402,0|0,0:0|0:0,0:0:0:0:
323,210,28963,5,0,0:0:0:0:
365,0,29241,2,0,B|319:15|298:35|298:35|281:79|308:170,1,159.90000243988,0|8,0:0|0:0,0:0:0:0:
407,250,29658,2,0,P|415:204|416:160,1,79.9500012199402,0|0,0:0|0:0,0:0:0:0:
308,132,29936,1,0,0:0:0:0:
419,147,30075,6,0,L|510:137,1,79.9500012199402,0|0,0:0|0:0,0:0:0:0:
302,241,30352,2,0,L|211:231,1,79.9500012199402,0|0,0:0|0:0,0:0:0:0:
210,99,30630,5,8,0:0:0:0:
210,220,30769,1,0,0:0:0:0:
311,148,30908,2,0,P|317:101|318:30,1,79.9500012199402,0|0,0:0|0:0,0:0:0:0:
196,207,31186,6,0,P|138:205|77:193,1,119.92500182991,0|0,0:0|0:0,0:0:0:0:
63,207,31463,2,0,L|62:296,1,79.9500012199402,0|0,0:0|0:0,0:0:0:0:
0,366,31741,5,8,0:0:0:0:
146,287,31880,1,0,0:0:0:0:
222,345,32019,2,0,P|269:297|371:291,1,159.90000243988,0|0,0:0|0:0,0:0:0:0:
456,202,32436,2,0,P|383:211|347:207,1,79.9500012199402,0|0,0:0|0:0,0:0:0:0:
225,102,32713,1,0,0:0:0:0:
288,193,32852,5,8,0:0:0:0:
333,98,32991,1,0,0:0:0:0:
214,85,33130,2,0,L|133:89,1,79.9500012199402,0|0,0:0|0:0,0:0:0:0:
27,47,33408,5,0,0:0:0:0:
27,47,33547,2,0,B|37:89|37:89|19:148,1,79.9500012199402,0|0,0:0|0:0,0:0:0:0:
103,297,33825,5,0,0:0:0:0:
103,297,33964,2,0,B|93:255|93:255|111:196,1,79.9500012199402,8|0,0:0|0:0,0:0:0:0:
214,90,34241,5,0,0:0:0:0:
226,179,34380,2,0,B|236:143|236:143|226:101,1,79.9500012199402,0|0,0:0|0:0,0:0:0:0:
184,262,34658,6,0,B|240:269|240:269|279:258|279:258|374:272,1,159.90000243988,8|0,0:0|0:0,0:0:0:0:
291,341,35075,5,8,0:0:0:0:
401,206,35213,1,8,0:0:0:0:
378,346,35352,5,8,0:0:0:0:
320,178,35491,1,8,0:0:0:0:
442,282,35630,6,0,P|421:213|437:109,2,159.90000243988,0|0|8,0:0|0:0|0:0,0:0:0:0:
303,157,36325,2,0,P|249:164|203:165,1,79.9500012199402,0|0,0:0|0:0,0:0:0:0:
160,81,36602,1,0,0:0:0:0:
267,32,36741,2,0,P|306:34|346:40,1,79.9500012199402,0|0,0:0|0:0,0:0:0:0:
142,63,37019,1,0,0:0:0:0:
20,266,37297,6,0,P|104:278|152:212,1,159.90000243988,8|0,0:0|0:0,0:0:0:0:
96,148,37713,1,0,0:0:0:0:
138,301,37852,6,0,L|132:401,1,79.9500012199402,0|0,0:0|0:0,0:0:0:0:
237,221,38130,2,0,B|222:199|212:179|212:179|210:146|228:106,1,119.92500182991,0|0,0:0|0:0,0:0:0:0:
242,100,38408,1,8,0:0:0:0:
381,86,38547,1,0,0:0:0:0:
255,16,38686,5,0,0:0:0:0:
316,156,38825,1,0,0:0:0:0:
349,6,38963,6,0,B|465:-3|465:-3|440:47,1,159.90000243988,0|0,0:0|0:0,0:0:0:0:
380,212,39380,1,0,0:0:0:0:
471,165,39519,5,8,0:0:0:0:
465,143,39658,1,0,0:0:0:0:
406,313,39797,5,0,0:0:0:0:
428,307,39936,1,0,0:0:0:0:
358,195,40075,6,0,L|155:210,2,159.90000243988,0|0|8,0:0|0:0|0:0,0:0:0:0:
428,307,40769,1,0,0:0:0:0:
333,357,40908,2,0,P|288:313|208:293,1,119.92500182991,0|0,0:0|0:0,0:0:0:0:
218,278,41186,6,0,P|159:299|116:309,1,79.9500012199402,0|0,0:0|0:0,0:0:0:0:
145,102,41463,2,0,P|183:113|220:127,1,79.9500012199402,0|0,0:0|0:0,0:0:0:0:
124,204,41741,2,0,B|88:208|36:225|36:225|49:206|59:181,1,119.92500182991,8|0,0:0|0:0,0:0:0:0:
62,116,42019,2,0,P|61:73|50:35,1,79.9500012199402,8|0,0:0|0:0,0:0:0:0:
6,320,42297,5,0,0:0:0:0:
50,199,42436,2,0,P|100:218|162:217,1,79.9500012199402,0|0,0:0|0:0,0:0:0:0:
155,332,42713,5,0,0:0:0:0:
185,164,42852,2,0,P|235:145|297:146,1,79.9500012199402,8|0,0:0|0:0,0:0:0:0:
288,30,43130,5,0,0:0:0:0:
318,198,43269,2,0,P|368:217|430:216,1,79.9500012199402,0|0,0:0|0:0,0:0:0:0:
477,70,43547,2,0,B|458:61|442:45|442:45|455:102|450:180,1,159.90000243988,8|0,0:0|0:0,0:0:0:0:
512,290,43963,5,8,0:0:0:0:
429,291,44102,1,8,0:0:0:0:
346,292,44241,1,8,0:0:0:0:
263,293,44380,1,8,0:0:0:0:
180,294,44519,6,0,L|40:281,1,130,4|8,0:0|0:0,0:0:0:0:
261,315,45352,2,0,L|401:302,1,130,0|0,0:0|0:0,0:0:0:0:
390,302,46186,5,8,0:0:0:0:
455,247,46325,2,0,L|458:188,1,48.750001859665,0|0,0:0|0:0,0:0:0:0:
390,302,46602,1,0,0:0:0:0:
261,315,46741,6,0,P|235:267|226:218,1,97.5,0|0,0:0|0:0,0:0:0:0:
252,139,47297,2,0,L|309:145,1,48.750001859665,8|0,0:0|0:0,0:0:0:0:
246,53,47575,2,0,B|219:65|219:65|141:62,1,97.5,0|2,0:0|0:2,0:0:0:0:
77,24,48130,5,0,0:0:0:0:
35,179,48408,1,8,0:0:0:0:
63,50,48686,2,0,L|72:107,1,48.750001859665,0|0,0:0|0:0,0:0:0:0:
26,202,48963,6,0,P|40:243|37:305,1,97.5,0|0,0:0|0:0,0:0:0:0:
4,373,49519,2,0,P|25:340|142:308,1,162.5,8|2,0:0|0:2,0:0:0:0:
196,375,50352,6,0,L|244:370,1,48.750001859665,0|0,0:0|0:0,0:0:0:0:
340,239,50630,1,8,0:0:0:0:
230,294,50769,2,0,L|284:299,1,48.750001859665,0|0,0:0|0:0,0:0:0:0:
354,228,51047,1,0,0:0:0:0:
278,298,51186,6,0,P|231:284|170:275,1,97.5,0|0,0:0|0:0,0:0:0:0:
367,216,51741,2,0,P|413:202|461:194,2,97.5,8|2|0,0:0|0:2|0:0,0:0:0:0:
395,329,52852,1,8,0:0:0:0:
395,329,53269,1,0,0:0:0:0:
374,197,53408,6,0,P|375:147|387:59,1,130,0|8,0:0|0:0,0:0:0:0:
263,1,54241,2,0,P|272:65|274:130,1,130,0|0,0:0|0:0,0:0:0:0:
232,224,55075,1,8,0:0:0:0:
260,143,55213,1,0,0:0:0:0:
220,238,55352,2,0,L|164:228,1,48.750001859665,0|0,0:0|0:0,0:0:0:0:
98,277,55630,6,0,B|88:232|88:232|94:178,1,97.5,0|0,0:0|0:0,0:0:0:0:
104,85,56186,2,0,L|158:91,1,48.750001859665,8|0,0:0|0:0,0:0:0:0:
8,88,56463,2,0,B|13:139|13:139|3:184,1,97.5,0|2,0:0|0:2,0:0:0:0:
30,305,57019,6,0,L|84:299,1,48.750001859665,0|0,0:0|0:0,0:0:0:0:
199,249,57297,2,0,L|145:243,1,48.750001859665,8|0,0:0|0:0,0:0:0:0:
255,318,57575,1,0,0:0:0:0:
338,296,57713,1,0,0:0:0:0:
415,329,57852,6,0,B|450:323|450:323|479:270|464:227,1,130,0|8,0:0|0:0,0:0:0:0:
424,75,58686,1,0,0:0:0:0:
477,140,58825,2,0,P|427:158|374:144,1,97.5,2|0,0:2|0:0,0:0:0:0:
249,47,59519,5,8,0:0:0:0:
337,30,59658,1,0,0:0:0:0:
233,28,59797,2,0,L|177:23,1,48.750001859665,0|0,0:0|0:0,0:0:0:0:
30,82,60075,6,0,P|64:82|101:63,1,65,0|0,0:0|0:0,0:0:0:0:
103,50,60491,1,0,0:0:0:0:
211,141,60630,2,0,P|181:128|148:128,1,65,8|8,0:0|0:0,0:0:0:0:
89,203,61047,2,0,P|93:235|109:262,1,65,0|8,0:0|0:0,0:0:0:0:
128,270,61463,2,0,P|160:267|184:272,1,48.750001859665,8|0,0:0|0:0,0:0:0:0:
251,321,61741,5,8,0:0:0:0:
318,273,61880,1,8,0:0:0:0:
348,201,62019,1,8,0:0:0:0:
334,122,62158,1,8,0:0:0:0:
281,63,62297,6,0,B|251:57|226:31|226:31|201:52|182:60,1,97.50000371933,4|0,0:0|0:0,0:0:0:0:
95,40,62713,1,0,0:0:0:0:
28,85,62852,2,0,P|61:62|86:62,1,48.750001859665,8|0,0:0|0:0,0:0:0:0:
136,118,63130,2,0,L|126:226,1,97.50000371933,0|0,0:0|0:0,0:0:0:0:
127,215,63547,1,2,0:2:0:0:
171,298,63686,6,0,P|204:284|226:279,1,48.750001859665,0|0,0:0|0:0,0:0:0:0:
79,294,63963,1,8,0:0:0:0:
241,360,64102,2,0,L|317:366,1,73.1250027894975,0|0,0:0|0:0,0:0:0:0:
330,359,64380,1,0,0:0:0:0:
371,284,64519,6,0,P|364:245|347:186,1,97.50000371933,0|0,0:0|0:0,0:0:0:0:
355,99,64936,1,0,0:0:0:0:
425,154,65075,2,0,P|448:196|475:237,1,97.50000371933,8|0,0:0|0:0,0:0:0:0:
343,82,65491,2,0,P|310:81|276:74,1,48.750001859665,2|0,0:2|0:0,0:0:0:0:
236,12,65769,5,2,0:2:0:0:
236,12,65908,2,0,P|253:58|230:120,1,97.50000371933,0|8,0:0|0:0,0:0:0:0:
167,153,66325,1,0,0:0:0:0:
167,153,66463,2,0,L|108:148,1,48.750001859665,0|0,0:0|0:0,0:0:0:0:
35,245,66741,6,0,B|79:227|79:227|144:239,1,97.50000371933,0|0,0:0|0:0,0:0:0:0:
154,44,67158,1,0,0:0:0:0:
144,59,67297,2,0,B|94:68|94:68|50:50,1,97.50000371933,8|0,0:0|0:0,0:0:0:0:
31,35,67713,6,0,L|16:148,1,97.50000371933,2|2,0:2|0:2,0:0:0:0:
98,212,68130,2,0,L|93:156,1,48.750001859665,0|0,0:0|0:0,0:0:0:0:
197,137,68408,5,8,0:0:0:0:
184,218,68547,1,0,0:0:0:0:
104,143,68686,2,0,L|109:87,1,48.750001859665,0|0,0:0|0:0,0:0:0:0:
176,238,68963,6,0,P|216:220|325:217,1,146.250005578995,0|0,0:0|0:0,0:0:0:0:
317,215,69519,2,0,B|301:144|333:139|317:54,2,146.250005578995,8|2|0,0:0|0:2|0:0,0:0:0:0:
417,73,70630,2,0,L|411:18,1,48.750001859665,8|0,0:0|0:0,0:0:0:0:
496,74,70908,2,0,L|502:19,1,48.750001859665,0|0,0:0|0:0,0:0:0:0:
505,172,71186,6,0,P|448:182|381:158,1,121.875004649162,0|0,0:0|0:0,0:0:0:0:
379,145,71602,1,0,0:0:0:0:
453,265,71741,2,0,P|485:269|511:285,1,48.750001859665,8|0,0:0|0:0,0:0:0:0:
280,281,72019,1,0,0:0:0:0:
362,245,72158,2,0,L|374:351,1,97.50000371933,2|2,0:2|0:2,0:0:0:0:
291,195,72575,2,0,L|301:98,1,97.50000371933,0|8,0:0|0:0,0:0:0:0:
244,31,72991,1,0,0:0:0:0:
191,97,73130,2,0,L|140:85,1,48.750001859665,0|0,0:0|0:0,0:0:0:0:
7,53,73408,6,0,P|60:26|122:14,1,121.875004649162,0|0,0:0|0:0,0:0:0:0:
120,14,73825,1,0,0:0:0:0:
122,172,73963,2,0,B|75:179|75:179|28:156,1,97.50000371933,8|0,0:0|0:0,0:0:0:0:
16,275,74380,2,0,B|63:268|63:268|110:291,1,97.50000371933,2|2,0:2|0:2,0:0:0:0:
48,360,74797,5,0,0:0:0:0:
218,155,75075,2,0,B|209:119|209:88|209:88|229:45|228:-6,1,146.250005578995,8|0,0:0|0:0,0:0:0:0:
291,108,75630,5,0,0:0:0:0:
318,117,75769,2,0,L|371:104,1,48.750001859665,0|0,0:0|0:0,0:0:0:0:
144,29,76047,5,0,0:0:0:0:
117,38,76186,2,0,L|64:25,1,48.750001859665,8|0,0:0|0:0,0:0:0:0:
360,24,76463,5,0,0:0:0:0:
360,24,76602,2,0,P|396:33|464:23,1,97.50000371933,2|2,0:2|0:2,0:0:0:0:
474,8,77019,1,0,0:0:0:0:
452,187,77297,5,8,0:0:0:0:
460,164,77436,1,0,0:0:0:0:
488,265,77575,2,0,L|495:313,1,48.750001859665,0|0,0:0|0:0,0:0:0:0:
400,371,77852,6,0,L|377:210,1,146.250005578995,0|0,0:0|0:0,0:0:0:0:
328,57,78408,2,0,L|315:173,1,97.50000371933,8|0,0:0|0:0,0:0:0:0:
242,311,78825,2,0,L|309:306,1,48.750001859665,2|0,0:2|0:0,0:0:0:0:
182,371,79102,2,0,L|115:366,1,48.750001859665,8|0,0:0|0:0,0:0:0:0:
112,371,79519,6,0,P|113:338|119:306,1,65,8|8,0:0|0:0,0:0:0:0:
57,172,79797,2,0,P|64:208|62:262,1,65,8|8,0:0|0:0,0:0:0:0:
65,237,80075,6,0,B|95:235|124:223|124:223|151:236|151:236|196:246,1,120,4|0,0:0|0:0,0:0:0:0:
201,233,80352,1,0,0:0:0:0:
173,69,80491,2,0,L|179:149,1,80,0|8,0:0|0:0,0:0:0:0:
278,139,80769,1,0,3:0:0:0:
73,137,80908,1,0,0:0:0:0:
278,139,81047,1,0,0:0:0:0:
201,233,81186,6,0,P|191:271|198:329,1,80,0|8,0:0|0:0,0:0:0:0:
320,369,81463,2,0,L|311:231,1,120,0|0,3:2|2:0,0:0:0:0:
300,228,81741,6,0,P|340:237|399:245,1,80,8|0,0:0|0:0,0:0:0:0:
512,330,82019,2,0,P|472:321|413:313,1,80,0|0,0:0|0:0,0:0:0:0:
357,147,82297,6,0,P|407:144|475:205,1,120,0|0,0:0|2:0,0:0:0:0:
480,198,82575,2,0,L|487:88,1,80,0|0,3:0|0:0,0:0:0:0:
368,48,82852,5,8,0:0:0:0:
390,232,82991,1,0,0:0:0:0:
368,48,83130,1,0,0:0:0:0:
259,185,83269,5,0,0:0:0:0:
417,120,83408,1,0,0:0:0:0:
259,35,83547,1,0,0:0:0:0:
326,123,83686,2,0,L|360:214,1,80,0|0,0:0|0:0,0:0:0:0:
150,236,83963,6,0,L|184:145,1,80,8|0,0:0|0:0,0:0:0:0:
107,88,84241,2,0,L|97:38,2,40,0|0|0,0:0|0:0|0:0,0:0:0:0:
259,185,84519,6,0,B|263:230|263:230|255:261|255:261|260:309,1,120,0|0,0:0|0:0,0:0:0:0:
277,319,84797,1,0,0:0:0:0:
438,288,84936,2,0,L|348:276,1,80,0|8,0:0|0:0,0:0:0:0:
167,220,85213,5,0,0:0:0:0:
199,384,85352,1,0,0:0:0:0:
271,223,85491,1,0,0:0:0:0:
129,305,85630,6,0,P|103:310|30:293,1,80,0|0,0:0|0:0,0:0:0:0:
102,148,85908,2,0,P|141:130|237:153,1,120,0|0,0:0|2:0,0:0:0:0:
215,138,86186,6,0,L|211:38,1,80,8|0,0:0|2:0,0:0:0:0:
127,21,86463,1,0,0:0:0:0:
306,87,86602,1,0,0:0:0:0:
215,138,86741,6,0,B|192:193|192:193|213:266,1,120,0|0,0:0|2:0,0:0:0:0:
208,251,87019,1,0,0:0:0:0:
328,372,87158,1,0,0:0:0:0:
328,372,87227,1,0,2:0:0:0:
328,372,87297,6,0,L|321:287,1,80,8|0,0:0|0:0,0:0:0:0:
404,176,87575,1,0,0:0:0:0:
236,336,87713,2,0,P|199:339|133:321,1,80,0|0,0:0|0:0,0:0:0:0:
288,186,87991,1,8,0:0:0:0:
353,280,88130,6,0,L|443:296,1,80,0|0,0:0|0:0,0:0:0:0:
236,336,88408,2,0,B|194:340|194:340|175:361|175:361|120:369,2,120,8|2|8,0:0|0:2|0:0,0:0:0:0:
288,186,88963,6,0,L|284:82,1,80,0|0,0:0|0:0,0:0:0:0:
136,16,89241,2,0,P|104:69|126:139,1,120,0|0,0:0|2:0,0:0:0:0:
128,143,89519,1,8,0:0:0:0:
210,248,89658,1,0,0:0:0:0:
191,84,89797,1,0,0:0:0:0:
78,216,89936,6,0,P|41:224|-6:220,1,80,0|0,0:0|0:0,0:0:0:0:
128,341,90213,1,8,0:0:0:0:
210,248,90352,2,0,P|249:245|288:253,1,80,0|0,3:0|0:0,0:0:0:0:
414,327,90630,5,8,0:0:0:0:
431,86,90908,1,8,0:0:0:0:
431,86,91047,1,8,0:0:0:0:
358,161,91186,6,0,L|497:182,1,120,0|0,0:0|2:0,0:0:0:0:
497,166,91463,2,0,B|481:204|481:204|495:263,1,80,0|0,3:0|0:0,0:0:0:0:
332,303,91741,5,8,0:0:0:0:
312,80,91880,1,0,0:0:0:0:
156,188,92019,1,0,0:0:0:0:
358,161,92158,5,0,0:0:0:0:
204,270,92297,1,0,0:0:0:0:
191,95,92436,1,0,0:0:0:0:
156,188,92575,6,0,P|119:196|58:192,1,80,0|0,0:0|0:0,0:0:0:0:
35,115,92852,1,8,0:0:0:0:
27,274,92991,2,0,L|35:105,1,160,0|0,0:0|0:0,0:0:0:0:
127,279,93408,6,0,L|135:372,1,80,0|0,0:0|0:0,0:0:0:0:
156,188,93686,1,0,0:0:0:0:
439,368,93963,6,0,P|402:307|298:299,1,160,8|0,0:0|0:0,0:0:0:0:
243,239,94380,2,0,P|250:197|249:126,1,80,0|0,0:0|0:0,0:0:0:0:
239,339,94658,1,0,0:0:0:0:
399,246,94797,2,0,P|406:288|405:359,1,80,0|0,0:0|0:0,0:0:0:0:
319,290,95075,5,8,0:0:0:0:
463,34,95352,1,0,0:0:0:0:
481,181,95491,1,0,0:0:0:0:
345,118,95630,6,0,P|385:118|445:106,1,80,0|0,0:0|0:0,0:0:0:0:
512,287,95908,2,0,P|472:280|432:280,1,80,0|0,0:0|0:0,0:0:0:0:
259,273,96186,1,8,0:0:0:0:
396,201,96325,1,0,0:0:0:0:
259,118,96463,2,0,P|257:83|270:14,1,80,0|0,0:0|0:0,0:0:0:0:
309,200,96741,5,0,0:0:0:0:
428,81,96880,1,8,0:0:0:0:
428,81,97019,2,0,L|341:91,1,80,0|0,3:0|0:0,0:0:0:0:
124,91,97297,5,8,0:0:0:0:
300,163,97436,1,8,0:0:0:0:
128,123,97575,5,8,0:0:0:0:
289,31,97713,1,8,0:0:0:0:
133,156,97852,6,0,L|144:267,1,97.5,4|0,0:0|2:0,0:0:0:0:
155,266,98130,2,0,P|207:255|245:259,1,65,0|0,0:0|0:0,0:0:0:0:
64,207,98408,2,0,P|31:205|0:196,1,65,8|0,0:0|0:0,0:0:0:0:
205,338,98686,1,0,0:0:0:0:
309,79,98963,5,0,0:0:0:0:
391,54,99102,1,8,0:0:0:0:
253,18,99241,2,0,P|269:73|233:154,1,130,0|8,0:0|0:0,0:0:0:0:
313,230,99658,2,0,P|361:222|388:228,2,65,0|0|0,0:0|0:0|0:0,0:0:0:0:
177,75,100075,5,0,0:0:0:0:
405,45,100352,1,0,0:0:0:0:
177,75,100630,5,8,0:0:0:0:
339,140,100769,2,0,B|308:135|287:126|287:126|269:134|244:139,1,97.5,0|0,0:0|0:0,0:0:0:0:
245,138,101047,1,0,0:0:0:0:
183,218,101186,2,0,L|114:208,1,65,0|0,0:0|0:0,0:0:0:0:
39,61,101463,2,0,L|103:51,1,65,0|0,0:0|0:0,0:0:0:0:
50,276,101741,2,0,B|27:211|27:211|49:123,1,130,8|0,0:0|0:0,0:0:0:0:
103,51,102158,6,0,L|39:61,1,65,0|0,0:0|0:0,0:0:0:0:
96,354,102575,2,0,P|145:304|214:304,1,130,0|8,0:0|0:0,0:0:0:0:
262,369,102991,1,0,0:0:0:0:
201,300,103130,2,0,L|206:217,1,65,0|0,0:0|0:0,0:0:0:0:
122,207,103408,5,0,0:0:0:0:
283,228,103547,1,8,0:0:0:0:
214,40,103686,5,0,0:0:0:0:
234,141,103825,1,0,0:0:0:0:
348,45,103963,5,8,0:0:0:0:
334,143,104102,1,0,0:0:0:0:
414,186,104241,6,0,L|501:192,1,65,0|0,0:0|0:0,0:0:0:0:
283,228,104519,5,0,0:0:0:0:
373,292,104658,1,0,0:0:0:0:
272,346,104797,2,0,P|216:337|183:342,1,65,0|0,0:0|0:0,0:0:0:0:
96,269,105075,2,0,P|156:256|195:202,1,130,8|0,0:0|0:0,0:0:0:0:
86,24,105491,6,0,L|76:98,1,65,0|0,0:0|0:0,0:0:0:0:
43,328,105769,2,0,P|41:267|27:175,1,130,8|0,0:0|0:0,0:0:0:0:
163,115,106186,5,8,0:0:0:0:
243,112,106324,1,8,0:0:0:0:
316,137,106463,1,8,0:0:0:0:
357,200,106602,1,8,0:0:0:0:
342,298,106741,6,0,P|282:294|233:301,1,97.5,0|0,0:0|0:0,0:0:0:0:
245,298,107019,1,0,0:0:0:0:
165,223,107158,2,0,L|174:154,1,65,0|8,0:0|0:0,0:0:0:0:
106,306,107436,2,0,L|115:375,1,65,0|0,0:0|0:0,0:0:0:0:
17,244,107713,1,0,0:0:0:0:
53,57,107852,5,0,0:0:0:0:
53,57,107991,2,0,B|51:105|45:154|45:154|66:135|96:117,1,130,8|0,0:0|0:0,0:0:0:0:
182,229,108408,2,0,P|136:223|99:225,1,65,8|0,0:0|0:0,0:0:0:0:
151,134,108686,5,0,0:0:0:0:
242,291,108825,2,0,P|274:290|306:285,1,65,0|0,0:0|0:0,0:0:0:0:
314,126,109241,5,0,0:0:0:0:
324,294,109519,5,8,0:0:0:0:
402,138,109658,2,0,P|414:62|436:-23,1,130,0|0,0:0|0:0,0:0:0:0:
477,182,110075,5,0,2:0:0:0:
314,126,110213,1,8,0:0:0:0:
426,10,110352,2,0,L|335:13,1,65,0|0,0:0|0:0,0:0:0:0:
277,32,110630,5,8,0:0:0:0:
255,188,110769,1,0,0:0:0:0:
149,62,110908,5,0,0:0:0:0:
231,191,111047,1,0,0:0:0:0:
55,200,111186,6,0,B|40:156|40:156|61:81,1,97.5,0|0,0:0|0:0,0:0:0:0:
45,92,111463,1,0,0:0:0:0:
6,289,111602,2,0,P|41:281|87:281,1,65,0|8,0:0|0:0,0:0:0:0:
138,154,111880,1,0,0:0:0:0:
252,245,112019,2,0,P|207:201|113:186,1,130,0|0,0:0|0:0,0:0:0:0:
184,31,112436,5,8,0:0:0:0:
229,113,112575,2,0,B|264:114|288:123|288:123|326:108|386:111,2,130,0|8|0,0:0|0:0|0:0,0:0:0:0:
184,31,113269,6,0,L|76:42,1,65,0|0,0:0|0:0,0:0:0:0:
336,197,113686,2,0,L|512:203,1,130,0|8,0:0|0:0,0:0:0:0:
408,280,114102,5,0,0:0:0:0:
356,110,114241,1,0,0:0:0:0:
320,213,114380,2,0,P|316:249|309:291,1,65,0|8,0:0|0:0,0:0:0:0:
356,357,114658,1,8,0:0:0:0:
231,351,114797,5,8,0:0:0:0:
201,235,114936,1,8,0:0:0:0:
83,270,115075,6,0,L|2:262,3,65,0|8|8|8,0:0|0:0|0:0|0:0,0:0:0:0:
83,270,115631,6,0,L|99:159,1,80,6|0,0:0|0:0,0:0:0:0:
215,15,115908,2,0,L|231:170,1,120,2|0,0:0|2:0,0:0:0:0:
221,167,116186,6,2,P|263:151|333:156,1,80,8|0,0:0|3:0,0:0:0:0:
141,97,116464,1,2,0:0:0:0:
281,240,116603,1,2,0:0:0:0:
388,141,116742,6,0,P|372:102|318:55,1,80,0|10,2:0|0:0,0:0:0:0:
281,240,117019,2,0,P|353:245|430:307,1,160,0|10,2:0|0:0,0:0:0:0:
422,295,117367,1,2,2:2:0:0:
422,295,117436,1,0,0:0:0:0:
479,190,117575,2,0,L|493:93,1,80,2|2,0:0|0:0,0:0:0:0:
325,17,117853,6,2,P|323:64|366:147,1,120,0|0,0:0|2:0,0:0:0:0:
367,148,118131,2,0,P|323:142|250:151,1,80,8|0,0:0|0:0,0:0:0:0:
122,241,118408,5,8,0:0:0:0:
165,152,118547,1,2,0:0:0:0:
225,294,118686,5,0,0:0:0:0:
165,127,118825,1,2,0:0:0:0:
108,257,118964,5,0,3:0:0:0:
251,201,119103,2,2,P|291:202|348:234,1,80,0|2,0:0|0:0,0:0:0:0:
443,283,119380,2,2,L|455:108,1,160,0|0,0:0|0:0,0:0:0:0:
327,217,119797,2,0,L|334:277,2,40,2|0|2,0:0|2:0|0:0,0:0:0:0:
264,92,120075,6,2,P|301:97|369:85,1,80,0|0,0:0|0:0,0:0:0:0:
209,248,120353,2,2,P|180:209|89:167,1,120,2|0,0:0|2:0,0:0:0:0:
95,175,120631,6,0,P|90:140|106:77,1,80,8|2,0:0|0:0,0:0:0:0:
182,33,120908,1,0,0:0:0:0:
222,176,121047,1,2,0:0:0:0:
323,50,121186,6,0,P|330:89|325:128,1,80,2|0,0:0|0:0,0:0:0:0:
209,272,121463,2,0,L|216:105,1,160,0|10,0:0|0:0,0:0:0:0:
208,89,121811,1,2,2:2:0:0:
208,89,121881,1,0,3:0:0:0:
33,171,122019,2,0,L|142:159,1,80,0|2,0:0|0:0,0:0:0:0:
305,286,122297,6,0,B|232:280|266:304|184:299,1,120,0|0,0:0|2:0,0:0:0:0:
122,241,122575,2,0,P|121:201|112:162,1,80,0|0,0:0|0:0,0:0:0:0:
39,377,122853,6,0,P|39:337|48:298,1,80,10|0,0:0|0:0,0:0:0:0:
214,193,123131,1,2,0:0:0:0:
28,126,123269,1,0,0:0:0:0:
110,76,123408,6,0,L|176:52,2,53.3333333333333,0|2|0,0:0|2:2|2:0,0:0:0:0:
112,162,123686,2,0,L|178:186,2,53.3333333333333,10|2|0,2:0|2:2|2:0,0:0:0:0:
241,118,123964,6,0,L|350:108,1,80,10|8,0:0|0:0,0:0:0:0:
442,73,124242,2,0,L|396:172,1,80,8|8,0:0|0:0,0:0:0:0:
380,269,124519,6,0,L|316:179,1,80,2|0,0:0|0:0,0:0:0:0:
193,56,124797,2,0,L|185:201,1,120,2|0,0:0|2:0,0:0:0:0:
186,175,125075,6,2,P|222:173|287:151,1,80,8|0,0:0|3:0,0:0:0:0:
336,76,125353,1,2,0:0:0:0:
316,246,125492,1,2,0:0:0:0:
473,180,125631,6,0,P|434:169|394:165,1,80,0|10,3:0|0:0,0:0:0:0:
264,161,125908,1,8,0:0:0:0:
87,342,126186,2,0,L|81:295,2,40,10|2|0,0:0|2:2|0:0,0:0:0:0:
212,362,126464,2,0,L|220:262,1,80,2|2,0:0|0:0,0:0:0:0:
13,208,126741,6,2,P|76:211|138:173,1,120,0|0,0:0|2:0,0:0:0:0:
142,168,127020,2,0,P|185:164|241:185,1,80,8|0,0:0|0:0,0:0:0:0:
65,117,127297,5,10,0:0:0:0:
177,252,127436,1,2,0:0:0:0:
150,77,127575,5,0,0:0:0:0:
158,270,127714,1,2,0:0:0:0:
237,114,127853,6,0,P|278:117|346:104,1,80,2|0,0:0|0:0,0:0:0:0:
400,93,128131,1,0,0:0:0:0:
301,193,128269,2,2,P|294:119|257:18,1,160,0|0,0:0|0:0,0:0:0:0:
189,88,128686,2,0,L|148:80,2,40,2|0|2,0:0|2:0|0:0,0:0:0:0:
369,84,128964,6,2,L|466:66,1,80,0|0,0:0|0:0,0:0:0:0:
334,254,129242,2,2,B|299:230|281:194|281:194|249:213|206:217,1,160,2|8,0:0|0:0,0:0:0:0:
206,216,129658,1,2,0:0:0:0:
282,337,129797,2,0,P|283:293|298:232,1,80,0|2,0:0|0:0,0:0:0:0:
127,83,130075,6,0,P|134:122|134:162,1,80,0|2,0:0|0:0,0:0:0:0:
134,273,130353,2,0,B|227:240|183:293|290:258,1,160,2|10,0:0|0:0,0:0:0:0:
289,258,130700,1,2,0:2:0:0:
289,258,130769,1,0,0:0:0:0:
268,373,130908,2,0,P|227:371|164:359,1,80,2|2,0:0|0:0,0:0:0:0:
48,215,131186,6,0,P|64:162|73:85,1,120,0|0,0:0|2:0,0:0:0:0:
62,76,131464,1,2,0:0:0:0:
185,175,131603,1,2,0:0:0:0:
185,175,131672,1,0,2:0:0:0:
185,175,131742,2,0,P|194:217|194:270,1,80,8|2,0:0|0:0,0:0:0:0:
48,214,132019,2,0,P|39:254|37:293,1,80,2|2,0:0|0:0,0:0:0:0:
140,375,132297,6,0,P|178:301|346:297,1,240,2|0,0:0|0:0,0:0:0:0:
436,186,132853,5,8,0:0:0:0:
360,159,132992,1,8,0:0:0:0:
282,178,133131,1,8,0:0:0:0:
229,238,133269,1,8,0:0:0:0:
322,280,133408,5,4,0:0:0:0:
383,15,133686,2,0,B|331:32|303:36|303:36|251:31|214:14,1,159.90000243988,0|8,0:0|0:0,0:0:0:0:
63,55,134102,1,0,0:0:0:0:
126,120,134241,2,0,P|179:99|229:100,1,79.9500012199402,0|0,0:0|0:0,0:0:0:0:
38,41,134519,6,0,P|40:105|28:169,1,119.92500182991,0|0,0:0|0:0,0:0:0:0:
16,167,134797,1,0,0:0:0:0:
177,202,134936,1,0,0:0:0:0:
11,251,135075,6,0,L|96:243,1,79.9500012199402,8|0,0:0|0:0,0:0:0:0:
268,187,135352,2,0,L|188:194,1,79.9500012199402,0|0,0:0|0:0,0:0:0:0:
289,276,135630,6,0,B|319:201|274:203|311:94,1,159.90000243988,0|0,0:0|0:0,0:0:0:0:
323,110,135977,1,0,0:0:0:0:
323,110,136047,1,0,0:0:0:0:
399,249,136186,2,0,P|453:241|496:244,1,79.9500012199402,8|0,0:0|0:0,0:0:0:0:
391,348,136463,1,0,0:0:0:0:
271,285,136602,1,0,0:0:0:0:
209,352,136741,6,0,P|134:335|74:341,1,119.92500182991,0|0,0:0|0:0,0:0:0:0:
61,345,137019,2,0,P|106:312|130:283,1,79.9500012199402,0|0,0:0|0:0,0:0:0:0:
81,119,137297,5,8,0:0:0:0:
60,226,137436,1,0,0:0:0:0:
35,28,137575,5,0,0:0:0:0:
56,135,137714,1,0,0:0:0:0:
35,28,137852,6,0,B|73:34|110:49|110:49|151:37|203:32,2,159.90000243988,0|0|8,0:0|0:0|0:0,0:0:0:0:
38,146,138547,1,0,0:0:0:0:
152,206,138686,2,0,P|151:158|163:102,1,79.9500012199402,0|0,0:0|0:0,0:0:0:0:
264,211,138963,6,0,P|227:251|182:322,1,119.92500182991,0|0,0:0|0:0,0:0:0:0:
243,370,139241,2,0,P|307:345|342:346,1,79.9500012199402,0|0,0:0|0:0,0:0:0:0:
456,300,139519,2,0,P|372:288|361:199,1,159.90000243988,8|0,0:0|0:0,0:0:0:0:
452,76,139936,1,0,0:0:0:0:
452,76,140075,6,0,B|407:92|407:92|351:79|351:79|288:95,1,159.90000243988,0|0,0:0|0:0,0:0:0:0:
59,35,140491,1,0,0:0:0:0:
59,35,140630,2,0,B|104:51|104:51|160:38|160:38|223:54,1,159.90000243988,8|0,0:0|0:0,0:0:0:0:
286,4,141047,1,0,0:0:0:0:
207,143,141186,5,0,0:0:0:0:
286,4,141325,2,0,B|319:46|319:46|319:103|291:166,1,159.90000243988,8|0,0:0|0:0,0:0:0:0:
184,236,141741,6,0,L|192:155,1,79.9500012199402,8|8,0:0|0:0,0:0:0:0:
99,47,142019,2,0,L|107:128,1,79.9500012199402,8|8,0:0|0:0,0:0:0:0:
12,351,142297,5,0,0:0:0:0:
97,141,142575,1,0,0:0:0:0:
12,351,142852,2,0,P|51:302|144:263,1,159.90000243988,8|0,0:0|0:0,0:0:0:0:
246,128,143269,5,0,0:0:0:0:
229,271,143408,2,0,P|168:281|128:273,1,79.9500012199402,0|0,0:0|0:0,0:0:0:0:
298,194,143686,2,0,P|359:184|399:192,1,79.9500012199402,0|0,0:0|0:0,0:0:0:0:
503,286,143963,2,0,B|461:347|429:356|429:356|415:318|426:287,1,159.90000243988,8|0,0:0|0:0,0:0:0:0:
422,300,144380,1,0,0:0:0:0:
489,123,144519,6,0,B|478:87|478:87|481:43,1,79.9500012199402,0|0,0:0|0:0,0:0:0:0:
423,202,144797,2,0,B|425:244|425:244|414:280,1,79.9500012199402,0|0,0:0|0:0,0:0:0:0:
364,43,145075,1,8,0:0:0:0:
251,129,145213,2,0,B|318:121|318:121|363:129|363:129|439:119,1,159.90000243988,0|0,0:0|0:0,0:0:0:0:
316,205,145630,5,0,0:0:0:0:
274,43,145769,1,0,0:0:0:0:
301,236,145908,2,0,P|268:173|209:168,1,119.92500182991,0|0,0:0|0:0,0:0:0:0:
208,178,146186,5,8,0:0:0:0:
133,33,146325,1,0,0:0:0:0:
46,172,146463,2,0,L|21:248,1,79.9500012199402,0|0,0:0|0:0,0:0:0:0:
3,356,146741,6,0,P|103:298|174:272,2,159.90000243988,0|0|8,0:0|0:0|0:0,0:0:0:0:
115,185,147436,2,0,P|153:200|213:210,1,79.9500012199402,0|0,0:0|0:0,0:0:0:0:
308,310,147713,2,0,P|270:295|210:285,1,79.9500012199402,0|0,0:0|0:0,0:0:0:0:
400,376,147991,6,0,P|421:341|416:284,1,79.9500012199402,0|0,0:0|0:0,0:0:0:0:
431,172,148269,1,0,0:0:0:0:
357,230,148408,2,0,B|316:129|382:148|344:14,1,199.875003049851,8|0,0:0|0:0,0:0:0:0:
272,15,148825,5,0,0:0:0:0:
272,15,148894,1,0,0:0:0:0:
272,15,148963,1,0,0:0:0:0:
240,207,149102,2,0,L|253:296,1,79.9500012199402,0|0,0:0|0:0,0:0:0:0:
227,107,149380,5,0,0:0:0:0:
159,176,149519,2,0,L|146:265,1,79.9500012199402,8|0,0:0|0:0,0:0:0:0:
106,338,149797,5,0,0:0:0:0:
33,280,149936,2,0,L|-4:196,1,79.9500012199402,0|0,0:0|0:0,0:0:0:0:
56,15,150213,2,0,B|82:45|94:81|94:81|94:122|57:168,1,159.90000243988,8|0,0:0|0:0,0:0:0:0:
5,90,150630,5,8,0:0:0:0:
206,92,150769,1,8,0:0:0:0:
56,176,150908,5,8,0:0:0:0:
149,12,151047,1,8,0:0:0:0:
154,181,151186,5,0,0:0:0:0:
