osu file format v14

[General]
AudioFilename: Cho-E - Amputator.mp3
AudioLeadIn: 0
PreviewTime: 79522
Countdown: 0
SampleSet: Normal
StackLeniency: 0.8
Mode: 0
LetterboxInBreaks: 1
WidescreenStoryboard: 1

[Editor]
DistanceSpacing: 1.1
BeatDivisor: 4
GridSize: 4
TimelineZoom: 1

[Metadata]
Title:Amputator
TitleUnicode:Amputator
Artist:r300k feat. Cho-E
ArtistUnicode:r300k feat. Cho-E
Creator:UndeadCapulet
Version:Hard Style
Source:TouchMix
Tags:TOMIX Android Gamevil skystar amamiya yuko korean video game
BeatmapID:2682716
BeatmapSetID:1292704

[Difficulty]
HPDrainRate:4
CircleSize:4
OverallDifficulty:6
ApproachRate:8
SliderMultiplier:2.4
SliderTickRate:1

[Events]
//Background and Video events
0,0,"amputator.png",0,0
//Break Periods
2,9163,25019
//Storyboard Layer 0 (Background)
//Storyboard Layer 1 (Fail)
//Storyboard Layer 2 (Pass)
//Storyboard Layer 3 (Foreground)
//Storyboard Layer 4 (Overlay)
//Storyboard Sound Samples

[TimingPoints]
75,555.555555555556,4,1,1,60,1,0
8825,-133.333333333333,4,1,1,60,0,0
8963,-133.333333333333,4,2,1,60,0,0
25769,-133.333333333333,4,1,1,60,0,0
26741,-100,4,1,1,60,0,0
44519,-133.333333333333,4,1,1,40,0,0
60630,-133.333333333333,4,2,1,40,0,0
61325,-133.333333333333,4,1,1,40,0,0
79519,-100,4,1,1,40,0,0
80075,-80,4,1,1,60,0,0
97852,-100,4,1,1,60,0,0
115630,-80,4,1,1,60,0,0
133408,-100,4,1,1,60,0,0

[Colours]
Combo1 : 255,0,0
Combo2 : 255,255,0
Combo3 : 176,39,205

[HitObjects]
370,108,8825,6,0,L|379:45,1,45.0000017166138,0|4,0:0|0:0,0:0:0:0:
391,94,25769,6,0,L|400:31,1,45.0000017166138,8|8,0:0|0:0,0:0:0:0:
422,76,26186,6,0,L|431:13,1,45.0000017166138,8|8,0:0|0:0,0:0:0:0:
455,50,26463,2,0,L|464:-13,1,45.0000017166138,8|8,0:0|0:0,0:0:0:0:
491,181,26741,6,0,P|456:179|336:173,1,120,4|0,0:0|0:0,0:0:0:0:
356,84,27158,2,0,P|299:106|245:130,1,120,0|0,0:0|0:0,0:0:0:0:
214,13,27575,2,0,P|173:72|116:136,1,120,0|0,0:0|0:0,0:0:0:0:
51,62,27991,2,0,P|60:122|66:182,1,120,0|0,0:0|0:0,0:0:0:0:
9,320,28408,6,0,L|77:273,1,60,8|0,0:0|0:0,0:0:0:0:
139,224,28686,2,0,L|174:176,1,60,0|0,0:0|0:0,0:0:0:0:
155,360,28963,6,0,P|216:288|261:238,1,120,0|0,0:0|0:0,0:0:0:0:
248,192,29380,2,0,P|329:155|405:136,1,120,0|0,0:0|0:0,0:0:0:0:
466,79,29797,2,0,P|392:71|316:55,1,120,0|0,0:0|0:0,0:0:0:0:
257,84,30213,2,0,P|200:46|152:10,1,120,0|0,0:0|0:0,0:0:0:0:
52,56,30630,5,8,0:0:0:0:
52,56,30769,2,0,P|117:70|133:78,2,60,0|0|0,0:0|0:0|0:0,0:0:0:0:
113,161,31186,6,0,B|83:190|83:190|67:229|55:313,1,120,0|0,0:0|0:0,0:0:0:0:
196,242,31602,2,0,P|153:287|107:344,1,120,0|0,0:0|0:0,0:0:0:0:
201,359,32019,2,0,P|254:332|310:309,1,120,0|0,0:0|0:0,0:0:0:0:
343,381,32436,2,0,P|391:345|444:317,1,120,0|0,0:0|0:0,0:0:0:0:
492,249,32852,6,0,L|506:191,1,60,8|0,0:0|0:0,0:0:0:0:
461,115,33130,2,0,L|487:61,1,60,0|0,0:0|0:0,0:0:0:0:
362,143,33408,6,0,B|373:170|373:170|440:260,1,120,0|0,0:0|0:0,0:0:0:0:
272,130,33825,2,0,B|271:75|278:36|278:36|279:10,1,120,0|0,0:0|0:0,0:0:0:0:
197,168,34241,1,0,0:0:0:0:
117,207,34380,2,0,B|140:235|140:235|113:262|67:297,2,120,0|8|0,0:0|0:0|0:0,0:0:0:0:
51,336,35075,5,8,0:0:0:0:
130,373,35213,1,8,0:0:0:0:
199,271,35352,5,8,0:0:0:0:
270,218,35491,1,8,0:0:0:0:
300,330,35630,6,0,P|379:336|451:335,1,120,0|0,0:0|0:0,0:0:0:0:
394,255,36047,2,0,P|450:234|504:205,1,120,0|0,0:0|0:0,0:0:0:0:
388,154,36463,2,0,P|429:111|472:68,1,120,0|0,0:0|0:0,0:0:0:0:
302,114,36880,2,0,P|317:55|335:0,1,120,0|0,0:0|0:0,0:0:0:0:
217,174,37297,6,0,L|188:122,1,60,8|0,0:0|0:0,0:0:0:0:
120,85,37575,2,0,L|115:26,1,60,0|0,0:0|0:0,0:0:0:0:
50,125,37852,6,0,P|33:182|17:240,1,120,0|0,0:0|0:0,0:0:0:0:
83,282,38269,2,0,P|45:329|4:372,1,120,0|0,0:0|0:0,0:0:0:0:
160,236,38686,2,0,P|218:220|276:208,1,120,0|0,0:0|0:0,0:0:0:0:
350,262,39102,2,0,P|406:282|460:308,1,120,0|0,0:0|0:0,0:0:0:0:
488,221,39519,5,8,0:0:0:0:
488,221,39658,2,0,P|487:176|489:151,2,60,0|0|0,0:0|0:0|0:0,0:0:0:0:
373,203,40075,6,0,B|372:178|372:178|392:106|426:55,1,120,0|0,0:0|0:0,0:0:0:0:
280,115,40491,2,0,P|317:71|362:21,1,120,0|0,0:0|0:0,0:0:0:0:
262,12,40908,2,0,P|211:43|162:78,1,120,0|0,0:0|0:0,0:0:0:0:
134,1,41325,2,0,P|75:5|16:16,1,120,0|0,0:0|0:0,0:0:0:0:
19,138,41741,6,0,L|78:197,1,60,8|0,0:0|0:0,0:0:0:0:
81,259,42019,2,0,L|139:271,1,60,8|0,0:0|0:0,0:0:0:0:
136,133,42297,6,0,B|145:100|145:100|183:55|238:10,1,120,0|0,0:0|0:0,0:0:0:0:
193,196,42713,2,0,B|208:250|234:284|234:284|241:305,1,120,0|0,0:0|0:0,0:0:0:0:
266,154,43130,1,0,0:0:0:0:
325,95,43269,2,0,B|356:84|356:84|338:137|344:186,2,120,0|8|0,0:0|0:0|0:0,0:0:0:0:
343,13,43963,5,8,0:0:0:0:
424,7,44102,1,8,0:0:0:0:
255,23,44241,5,8,0:0:0:0:
176,8,44380,1,8,0:0:0:0:
116,74,44519,6,0,P|163:66|274:46,1,135.000005149841,4|0,0:0|0:0,0:0:0:0:
249,51,45075,1,8,0:0:0:0:
158,150,45352,2,0,B|176:181|176:181|181:209|133:278,1,135.000005149841,0|2,0:0|0:2,0:0:0:0:
120,267,45908,2,0,P|162:239|200:220,1,90.0000034332277,0|8,0:0|0:0,0:0:0:0:
197,221,46325,1,0,0:0:0:0:
270,270,46602,1,0,0:0:0:0:
270,270,46741,6,0,P|280:204|294:135,1,135.000005149841,0|0,0:0|0:0,0:0:0:0:
287,115,47297,1,8,0:0:0:0:
322,199,47575,2,0,P|330:268|335:351,1,135.000005149841,0|2,0:0|0:2,0:0:0:0:
375,248,48130,2,0,B|387:177|387:177|399:141,1,90.0000034332277,0|8,0:0|0:0,0:0:0:0:
506,284,48825,5,0,0:0:0:0:
462,217,48963,6,0,P|455:167|453:70,1,135.000005149841,0|0,0:0|0:0,0:0:0:0:
461,65,49519,1,8,0:0:0:0:
307,11,49797,2,0,P|342:57|304:129,1,135.000005149841,0|2,0:0|0:2,0:0:0:0:
299,118,50352,2,0,P|344:134|393:159,1,90.0000034332277,0|8,0:0|0:0,0:0:0:0:
381,152,50769,1,0,0:0:0:0:
235,182,51047,1,0,0:0:0:0:
235,182,51186,6,0,P|177:198|96:218,1,135.000005149841,0|0,0:0|0:0,0:0:0:0:
67,210,51741,1,8,0:0:0:0:
182,268,52019,2,0,P|103:250|44:239,1,135.000005149841,0|2,0:0|0:2,0:0:0:0:
29,258,52575,2,0,P|85:278|128:300,1,90.0000034332277,0|8,0:0|0:0,0:0:0:0:
80,317,52991,2,0,P|65:330|42:358,2,45.0000017166138,0|0|0,0:0|0:0|0:0,0:0:0:0:
73,151,53408,6,0,P|59:81|41:6,1,135.000005149841,0|0,0:0|0:0,0:0:0:0:
24,8,53963,1,8,0:0:0:0:
134,57,54241,2,0,B|153:89|153:89|157:154|187:194,1,135.000005149841,0|2,0:0|0:2,0:0:0:0:
202,180,54797,2,0,P|153:131|132:111,1,90.0000034332277,0|8,0:0|0:0,0:0:0:0:
138,116,55213,1,0,0:0:0:0:
103,237,55491,1,0,0:0:0:0:
103,237,55630,6,0,P|176:255|264:272,1,135.000005149841,0|0,0:0|0:0,0:0:0:0:
251,251,56186,1,8,0:0:0:0:
142,329,56463,2,0,P|73:335|-5:338,1,135.000005149841,0|2,0:0|0:2,0:0:0:0:
155,354,57019,2,0,B|241:345|241:345|263:349,1,90.0000034332277,0|8,0:0|0:0,0:0:0:0:
96,234,57713,5,0,0:0:0:0:
173,254,57852,6,0,P|226:239|325:205,1,135.000005149841,0|0,0:0|0:0,0:0:0:0:
325,197,58408,1,8,0:0:0:0:
259,111,58686,2,0,B|229:138|201:147|201:147|175:110|176:62,1,135.000005149841,0|2,0:0|0:2,0:0:0:0:
186,72,59241,2,0,P|180:135|174:168,1,90.0000034332277,0|8,0:0|0:0,0:0:0:0:
175,161,59658,1,0,0:0:0:0:
70,202,59936,1,0,0:0:0:0:
70,202,60075,6,0,P|76:137|80:58,1,135.000005149841,0|0,0:0|0:0,0:0:0:0:
62,46,60630,1,8,0:0:0:0:
133,137,60908,2,0,B|156:73|176:20|176:20|186:10,1,135.000005149841,8|8,0:0|0:0,0:0:0:0:
253,146,61463,1,8,0:0:0:0:
278,172,61741,6,0,L|364:182,1,45.0000017166138,8|8,0:0|0:0,0:0:0:0:
311,209,62019,2,0,L|397:219,1,45.0000017166138,8|8,0:0|0:0,0:0:0:0:
439,234,62297,6,0,P|366:202|296:176,1,135.000005149841,4|0,0:0|0:0,0:0:0:0:
230,119,62852,1,8,0:0:0:0:
215,224,63130,2,0,B|206:251|206:251|158:269|96:251,1,135.000005149841,0|2,0:0|0:2,0:0:0:0:
51,144,63686,2,0,P|94:188|131:227,1,90.0000034332277,0|8,0:0|0:0,0:0:0:0:
49,58,64102,1,0,0:0:0:0:
113,17,64241,2,0,L|165:16,1,45.0000017166138,0|0,0:0|0:0,0:0:0:0:
49,58,64519,6,0,P|110:122|158:165,1,135.000005149841,0|0,0:0|0:0,0:0:0:0:
248,174,65075,1,8,0:0:0:0:
309,285,65352,2,0,P|269:229|214:173,1,135.000005149841,0|2,0:0|0:2,0:0:0:0:
386,302,65908,2,0,P|457:351|477:365,1,90.0000034332277,0|8,0:0|0:0,0:0:0:0:
284,105,66602,5,0,0:0:0:0:
309,22,66741,6,0,P|315:109|309:190,1,135.000005149841,0|0,0:0|0:0,0:0:0:0:
246,235,67297,1,8,0:0:0:0:
320,293,67575,2,0,B|368:288|368:288|417:244|436:212,1,135.000005149841,0|2,0:0|0:2,0:0:0:0:
488,313,68130,2,0,P|414:319|385:329,1,90.0000034332277,0|8,0:0|0:0,0:0:0:0:
297,372,68547,1,0,0:0:0:0:
216,361,68686,2,0,L|144:363,1,45.0000017166138,0|0,0:0|0:0,0:0:0:0:
297,372,68963,6,0,P|306:293|321:214,1,135.000005149841,0|0,0:0|0:0,0:0:0:0:
352,156,69519,1,8,0:0:0:0:
250,299,69797,2,0,P|230:185|224:136,1,135.000005149841,0|2,0:0|0:2,0:0:0:0:
184,233,70352,2,0,P|133:189|107:159,1,90.0000034332277,0|8,0:0|0:0,0:0:0:0:
21,87,71047,5,0,0:0:0:0:
51,213,71186,6,0,P|108:241|194:293,1,135.000005149841,0|0,0:0|0:0,0:0:0:0:
234,363,71741,1,8,0:0:0:0:
249,245,72019,2,0,B|254:218|254:218|279:199|299:157|299:157|300:104,1,135.000005149841,0|2,0:0|0:2,0:0:0:0:
218,21,72575,2,0,P|240:76|270:125,1,90.0000034332277,0|8,0:0|0:0,0:0:0:0:
120,20,72991,1,0,0:0:0:0:
37,21,73130,2,0,L|-24:26,1,45.0000017166138,0|0,0:0|0:0,0:0:0:0:
120,20,73408,6,0,P|109:93|96:159,1,135.000005149841,0|0,0:0|0:0,0:0:0:0:
118,257,73963,1,8,0:0:0:0:
83,372,74241,2,0,P|109:329|157:257,1,135.000005149841,0|2,0:0|0:2,0:0:0:0:
273,153,74797,2,0,P|255:212|242:250,1,90.0000034332277,0|8,0:0|0:0,0:0:0:0:
474,114,75491,5,0,0:0:0:0:
503,44,75630,6,0,P|453:63|365:104,1,135.000005149841,0|0,0:0|0:0,0:0:0:0:
345,184,76186,1,8,0:0:0:0:
406,261,76463,2,0,P|353:296|297:245,1,135.000005149841,0|2,0:0|0:2,0:0:0:0:
306,255,77019,2,0,P|316:314|317:359,1,90.0000034332277,0|8,0:0|0:0,0:0:0:0:
238,190,77436,1,0,0:0:0:0:
258,110,77575,2,0,L|254:52,1,45.0000017166138,0|0,0:0|0:0,0:0:0:0:
238,190,77852,6,0,P|148:192|102:200,1,135.000005149841,0|0,0:0|0:0,0:0:0:0:
32,254,78408,1,8,0:0:0:0:
11,381,78686,2,0,B|87:356|109:317|109:317|57:306|54:309,1,135.000005149841,0|8,0:0|0:0,0:0:0:0:
77,317,79241,1,0,0:0:0:0:
77,317,79519,6,0,L|81:236,1,60,8|8,0:0|0:0,0:0:0:0:
132,170,79797,2,0,L|134:86,1,60,8|8,0:0|0:0,0:0:0:0:
137,24,80075,6,0,B|195:136|195:136|236:174,2,150,4|0|8,0:0|0:0|0:0,0:0:0:0:
286,289,80908,1,0,0:0:0:0:
367,274,81047,2,0,L|448:284,1,75
383,195,81325,2,0,L|463:187,1,75,8|0,0:0|3:2,0:0:0:0:
343,124,81602,2,0,L|412:95,1,75,0|8,0:0|0:0,0:0:0:0:
291,42,81880,5,0,0:0:0:0:
219,79,82019,2,0,P|182:29|143:-10,1,75,0|0,0:0|0:0,0:0:0:0:
50,25,82297,6,0,B|63:147|63:147|55:215,2,150,0|0|8,0:0|3:0|0:0,0:0:0:0:
50,25,82991,1,0,0:0:0:0:
80,278,83269,1,0,0:0:0:0:
155,239,83408,2,0,L|329:264,2,150,0|0|8,0:0|0:0|0:0,0:0:0:0:
178,163,84102,5,0,0:0:0:0:
249,123,84241,2,0,P|252:80|253:38,1,75
343,148,84519,6,0,P|354:67|366:-14,1,150,0|0,0:0|0:0,0:0:0:0:
512,286,85075,2,0,L|508:202,1,75,8|0,0:0|0:0,0:0:0:0:
420,383,85352,1,0,0:0:0:0:
496,363,85491,2,0,P|381:341|320:329,1,150,0|0,0:0|0:0,0:0:0:0:
241,290,85908,2,0,L|336:250,1,75,0|0,0:0|0:0,0:0:0:0:
200,208,86186,2,0,L|287:147,1,75,8|0,0:0|2:0,0:0:0:0:
123,164,86463,5,0,0:0:0:0:
43,163,86602,1,0,0:0:0:0:
123,164,86741,6,0,B|131:75|131:31|131:31|166:9,1,150,0|0,0:0|0:0,0:0:0:0:
244,173,87158,2,0,B|237:127|225:95|225:95|235:64|244:13,1,150,0|0,0:0|0:0,0:0:0:0:
348,189,87575,1,0,0:0:0:0:
318,101,87713,2,0,B|321:61|321:61|322:17,1,75,0|0,0:0|0:0,0:0:0:0:
410,114,87991,2,0,B|404:75|404:75|425:7|425:7|468:46,1,150,8|0,0:0|0:0,0:0:0:0:
496,112,88408,5,8,0:0:0:0:
472,184,88547,1,8,0:0:0:0:
508,276,88686,5,8,0:0:0:0:
458,337,88825,1,8,0:0:0:0:
366,331,88963,6,0,B|344:251|344:251|355:144,2,150,0|0|8,0:0|0:0|0:0,0:0:0:0:
122,65,89797,1,0,0:0:0:0:
214,44,89936,2,0,L|289:21,1,75
187,134,90213,2,0,L|259:154,1,75,8|0,0:0|3:0,0:0:0:0:
144,204,90491,2,0,L|209:271,1,75,0|8,0:0|0:0,0:0:0:0:
260,378,90769,5,0,0:0:0:0:
263,304,90908,2,0,P|293:278|332:258,1,75,8|8,0:0|0:0,0:0:0:0:
382,206,91186,6,0,B|248:164|248:164|215:164,2,150,0|0|8,0:0|3:0|0:0,0:0:0:0:
382,206,91880,1,0,0:0:0:0:
88,23,92158,1,0,0:0:0:0:
167,23,92297,2,0,B|140:137|140:137|128:213,2,150,0|0|8,0:0|0:0|0:0,0:0:0:0:
251,20,92991,5,0,0:0:0:0:
301,88,93130,2,0,P|279:138|266:166,1,75,0|0,0:0|0:0,0:0:0:0:
432,56,93408,6,0,B|455:157|473:207,1,150,0|0,0:0|0:0,0:0:0:0:
230,15,93963,2,0,L|200:119,1,75,8|0,0:0|0:0,0:0:0:0:
129,38,94241,1,0,0:0:0:0:
54,0,94380,2,0,L|55:187,1,150,0|0,0:0|0:0,0:0:0:0:
204,206,94797,2,0,L|180:291,1,75,0|0,0:0|0:0,0:0:0:0:
98,257,95075,2,0,L|85:360,1,75,8|0,0:0|0:0,0:0:0:0:
187,365,95352,5,0,0:0:0:0:
277,348,95491,1,0,0:0:0:0:
187,365,95630,6,0,L|167:164,1,150,0|0,0:0|0:0,0:0:0:0:
102,163,96047,2,0,L|213:26,1,150,0|0,0:0|0:0,0:0:0:0:
342,10,96463,1,0,0:0:0:0:
276,52,96602,2,0,L|470:65,2,150,0|8|0,0:0|0:0|0:0,0:0:0:0:
325,139,97297,5,8,0:0:0:0:
398,172,97436,1,8,0:0:0:0:
297,232,97575,5,8,0:0:0:0:
216,261,97713,1,8,0:0:0:0:
270,341,97852,5,4,0:0:0:0:
204,181,98130,1,0,0:0:0:0:
89,308,98408,2,0,B|101:237|104:158|104:158|94:102,1,180,8|0,0:0|0:0,0:0:0:0:
51,62,98963,2,0,L|-17:68,1,60,0|8,0:0|0:0,0:0:0:0:
51,62,99241,1,0,0:0:0:0:
236,33,99519,1,8,0:0:0:0:
157,196,99797,2,0,L|233:213,1,60
241,156,100075,6,0,B|272:136|272:136|311:124|378:114,2,120,0|0|8,0:0|0:0|0:0,0:0:0:0:
235,236,100769,1,0,0:0:0:0:
421,70,101047,1,0,0:0:0:0:
421,70,101186,2,0,P|414:163|416:273,1,180,0|0,0:0|0:0,0:0:0:0:
434,267,101741,1,8,0:0:0:0:
383,339,101880,1,0,0:0:0:0:
303,307,102019,2,0,P|288:263|279:239,1,60,0|0,0:0|0:0,0:0:0:0:
235,359,102297,5,0,0:0:0:0:
66,355,102575,1,0,0:0:0:0:
235,359,102852,2,0,P|222:223|214:161,1,180,8|0,0:0|0:0,0:0:0:0:
193,46,103408,2,0,P|186:101|186:129,1,60,0|8,0:0|0:0,0:0:0:0:
193,46,103686,1,0,0:0:0:0:
426,15,103963,1,8,0:0:0:0:
286,39,104241,2,0,L|356:19,1,60,0|0,0:0|0:0,0:0:0:0:
430,101,104519,6,0,B|345:101|345:101|292:109,2,120,0|0|8,0:0|0:0|0:0,0:0:0:0:
486,166,105213,1,0,0:0:0:0:
462,318,105491,1,0,0:0:0:0:
403,269,105630,2,0,L|324:273,1,60,0|8,0:0|0:0,0:0:0:0:
32,343,106186,6,0,L|108:329,1,60,8|8,0:0|0:0,0:0:0:0:
97,295,106463,2,0,L|173:281,1,60,8|8,0:0|0:0,0:0:0:0:
181,259,106741,5,0,0:0:0:0:
40,164,107019,1,0,0:0:0:0:
198,110,107297,2,0,B|214:72|235:36|235:36|244:4|244:4|276:6|295:46,1,180,8|0,0:0|0:0,0:0:0:0:
366,149,107852,2,0,L|261:136,1,60,0|8,0:0|0:0,0:0:0:0:
366,149,108130,1,0,0:0:0:0:
107,156,108408,1,8,0:0:0:0:
328,243,108686,2,0,L|408:228,1,60,0|0,0:0|0:0,0:0:0:0:
366,333,108963,6,0,B|332:317|332:317|279:315|212:325,2,120,0|0|8,0:0|0:0|0:0,0:0:0:0:
381,352,109658,1,0,0:0:0:0:
408,148,109936,1,0,0:0:0:0:
408,148,110075,2,0,P|309:125|232:103,1,180,0|0,2:0|0:0,0:0:0:0:
224,78,110630,1,8,0:0:0:0:
150,111,110769,1,0,0:0:0:0:
76,70,110908,2,0,L|79:10,1,60,0|0,0:0|0:0,0:0:0:0:
8,131,111186,5,0,0:0:0:0:
54,295,111463,1,0,0:0:0:0:
8,131,111741,2,0,B|42:171|51:217|51:217|86:197|144:201,1,180,8|0,0:0|0:0,0:0:0:0:
279,240,112297,2,0,L|209:231,1,60,0|8,0:0|0:0,0:0:0:0:
279,240,112575,1,0,0:0:0:0:
9,291,112852,1,8,0:0:0:0:
310,321,113130,2,0,L|396:301,1,60,0|0,0:0|0:0,0:0:0:0:
444,331,113408,5,0,0:0:0:0:
499,194,113686,1,0,0:0:0:0:
440,52,113963,1,8,0:0:0:0:
398,34,114102,1,0,0:0:0:0:
142,12,114380,1,0,0:0:0:0:
90,84,114519,6,0,L|181:119,1,60,8|8,0:0|0:0,0:0:0:0:
97,101,114797,2,0,L|192:128,1,60,8|8,0:0|0:0,0:0:0:0:
107,118,115075,2,0,L|203:136,1,60,0|8,0:0|0:0,0:0:0:0:
118,135,115352,2,0,L|215:145,1,60,8|8,0:0|0:0,0:0:0:0:
150,202,115630,6,0,B|193:181|193:181|264:180|286:154,1,112.5,6|0,0:0|0:0,0:0:0:0:
252,163,115908,2,0,L|298:102,1,75,2|2,0:0|0:0,0:0:0:0:
280,25,116186,1,8,0:0:0:0:
331,274,116463,1,2,0:0:0:0:
366,193,116602,2,0,L|457:194,1,75,2|0,0:0|2:0,0:0:0:0:
379,109,116880,2,0,L|461:71,1,75,10|0,0:0|2:0,0:0:0:0:
346,32,117158,2,0,L|411:-22,1,75,0|10,0:0|0:0,0:0:0:0:
251,42,117436,5,0,0:0:0:0:
178,88,117575,2,0,P|158:34|141:0,1,75,2|2,0:0|0:0,0:0:0:0:
56,26,117852,6,0,B|71:78|71:78|74:168|65:233,2,150,0|8|8,0:0|0:0|0:0,0:0:0:0:
56,26,118547,1,2,0:0:0:0:
152,293,118825,1,0,0:0:0:0:
89,338,118963,2,0,P|65:312|-12:208,2,150,0|2|10,3:0|0:0|0:0,0:0:0:0:
203,351,119658,1,0,0:0:0:0:
165,270,119797,2,0,L|225:169,1,75,2|2,0:0|0:0,0:0:0:0:
225,327,120075,6,0,P|314:302|400:278,1,150,0|2,0:0|0:0,0:0:0:0:
197,75,120630,2,0,L|295:85,1,75,8|2,0:0|0:0,0:0:0:0:
173,229,120908,1,0,0:0:0:0:
100,179,121047,2,0,P|173:177|265:181,1,150,2|0,0:0|0:0,0:0:0:0:
398,197,121463,2,0,L|309:144,1,75,0|2,0:0|0:0,0:0:0:0:
512,218,121741,2,0,L|451:138,1,75,10|0,0:0|3:0,0:0:0:0:
491,336,122019,5,0,0:0:0:0:
414,309,122158,1,2,0:0:0:0:
491,336,122297,6,2,B|456:359|456:359|398:349|343:351,1,150,0|0,0:0|0:0,0:0:0:0:
393,215,122713,2,2,B|367:222|333:243|333:243|301:242|252:260,1,150,0|0,0:0|0:0,0:0:0:0:
361,103,123130,1,2,0:0:0:0:
292,160,123269,2,0,B|268:164|234:154|234:154|191:189,1,75,0|0,0:0|0:0,0:0:0:0:
366,2,123547,2,2,B|346:23|330:32|330:32|307:18|281:13|281:13|231:42|184:28,1,150,8|0,0:0|0:0,0:0:0:0:
102,54,123963,5,10,0:0:0:0:
162,108,124102,1,8,0:0:0:0:
125,187,124241,5,8,0:0:0:0:
186,238,124380,1,8,0:0:0:0:
211,324,124519,6,0,B|233:307|233:307|277:286|347:294,1,112.5,2|0,0:0|0:0,0:0:0:0:
303,279,124797,2,0,P|371:303|403:307,1,75,2|0,0:0|0:0,0:0:0:0:
474,272,125075,1,8,0:0:0:0:
257,76,125352,1,2,0:0:0:0:
185,125,125491,2,0,L|87:108,1,75,2|0,0:0|3:0,0:0:0:0:
183,208,125769,2,0,L|82:226,1,75,10|8,0:0|0:0,0:0:0:0:
231,268,126047,2,0,L|142:328,1,75,2|10,0:0|0:0,0:0:0:0:
283,344,126325,5,0,0:0:0:0:
333,287,126463,2,0,P|395:312|451:323,1,75,2|2,0:0|0:0,0:0:0:0:
310,145,126741,6,0,B|349:172|391:229|391:229|444:248,2,150,0|8|10,0:0|0:0|0:0,0:0:0:0:
310,145,127436,1,2,0:0:0:0:
168,340,127713,1,2,0:0:0:0:
86,358,127852,2,0,L|120:201,2,150,2|0|10,0:0|0:0|0:0,0:0:0:0:
194,244,128547,1,0,0:0:0:0:
248,187,128686,2,0,P|308:241|325:253,1,75,2|2,0:0|0:0,0:0:0:0:
177,149,128963,6,0,P|185:74|193:0,1,150,0|2,0:0|0:0,0:0:0:0:
445,191,129519,2,0,L|435:110,1,75,8|2,0:0|0:0,0:0:0:0:
318,272,129797,1,0,0:0:0:0:
361,335,129936,2,0,B|374:302|374:302|361:267|361:267|364:175,1,150,2|2,0:0|0:0,0:0:0:0:
263,85,130352,2,0,L|288:175,1,75,2|0,0:0|0:0,0:0:0:0:
194,31,130630,2,0,L|179:145,1,75,10|0,0:0|0:0,0:0:0:0:
39,17,130908,5,2,0:0:0:0:
112,44,131047,1,2,0:0:0:0:
39,17,131186,6,0,P|51:155|53:194,1,150,0|2,0:0|0:0,0:0:0:0:
156,162,131602,2,0,P|188:253|212:323,1,150,2|2,0:0|0:0,0:0:0:0:
342,322,132019,1,0,0:0:0:0:
274,359,132158,2,0,P|382:379|442:386,2,150,2|10|0,0:0|0:0|0:0,0:0:0:0:
264,254,132852,5,8,0:0:0:0:
288,175,132991,1,8,0:0:0:0:
366,185,133130,5,8,0:0:0:0:
391,111,133269,1,8,0:0:0:0:
473,113,133408,6,0,P|418:32|393:-3,1,120,4|0,0:0|0:0,0:0:0:0:
325,72,133825,2,0,P|224:33|178:19,1,120,0|0,0:0|0:0,0:0:0:0:
240,124,134241,2,0,P|283:174|316:227,1,120,0|0,0:0|0:0,0:0:0:0:
241,261,134658,2,0,P|251:359|249:410,1,120,0|0,0:0|0:0,0:0:0:0:
148,222,135075,6,0,L|171:154,1,60,8|0,0:0|0:0,0:0:0:0:
108,107,135352,2,0,L|160:48,1,60,0|0,0:0|0:0,0:0:0:0:
18,54,135630,6,0,P|53:141|70:182,1,120,0|0,0:0|0:0,0:0:0:0:
21,243,136047,2,0,P|73:302|116:352,1,120,0|0,0:0|0:0,0:0:0:0:
216,317,136463,2,0,P|166:259|132:215,1,120,0|0,0:0|0:0,0:0:0:0:
252,228,136880,2,0,P|332:273|407:304,1,120,0|0,0:0|0:0,0:0:0:0:
199,123,137297,5,8,0:0:0:0:
199,123,137436,2,0,L|223:62,2,60,0|0|0,0:0|0:0|0:0,0:0:0:0:
131,173,137852,6,0,B|166:168|166:168|236:169|293:174,1,120,0|0,0:0|0:0,0:0:0:0:
225,255,138269,2,0,P|311:279|385:301,1,120,0|0,0:0|0:0,0:0:0:0:
324,194,138686,2,0,P|429:187|475:185,1,120,0|0,0:0|0:0,0:0:0:0:
379,107,139102,2,0,P|456:92|498:79,1,120,0|0,0:0|0:0,0:0:0:0:
305,52,139519,6,0,L|196:40,1,60,8|0,0:0|0:0,0:0:0:0:
186,102,139797,2,0,L|99:90,1,60,0|0,0:0|0:0,0:0:0:0:
46,34,140075,6,0,L|27:192,1,120,0|0,0:0|0:0,0:0:0:0:
104,201,140491,2,0,L|56:335,1,120,0|0,0:0|0:0,0:0:0:0:
187,330,140908,1,0,0:0:0:0:
235,265,141047,2,0,B|230:220|203:180|203:180|249:193,2,120,0|8|0,0:0|0:0|0:0,0:0:0:0:
320,209,141741,5,8,0:0:0:0:
338,131,141880,1,8,0:0:0:0:
421,128,142019,5,8,0:0:0:0:
464,68,142158,1,8,0:0:0:0:
468,148,142297,6,0,P|443:260|441:289,1,120,0|0,0:0|0:0,0:0:0:0:
352,249,142713,2,0,P|380:329|396:370,1,120,0|0,0:0|0:0,0:0:0:0:
292,320,143130,2,0,P|254:224|240:174,1,120,0|0,0:0|0:0,0:0:0:0:
156,206,143547,2,0,P|178:124|198:54,1,120,0|0,0:0|0:0,0:0:0:0:
142,12,143963,6,0,L|95:67,1,60,8|0,0:0|0:0,0:0:0:0:
74,152,144241,2,0,L|0:208,1,60,0|0,0:0|0:0,0:0:0:0:
25,278,144519,6,0,P|87:273|165:275,1,120,0|0,0:0|0:0,0:0:0:0:
175,200,144936,2,0,P|261:214|318:225,1,120,0|0,0:0|0:0,0:0:0:0:
357,145,145352,2,0,P|261:127|204:115,1,120,0|0,0:0|0:0,0:0:0:0:
311,50,145769,2,0,P|383:55|460:72,1,120,0|0,0:0|0:0,0:0:0:0:
203,40,146186,5,8,0:0:0:0:
203,40,146325,2,0,L|132:22,2,60,0|0|0,0:0|0:0|0:0,0:0:0:0:
245,137,146741,6,0,B|216:141|216:141|168:124|94:122,1,120,0|0,0:0|0:0,0:0:0:0:
148,221,147158,2,0,P|35:238|1:254,1,120,0|0,0:0|0:0,0:0:0:0:
161,305,147575,2,0,P|241:275|291:262,1,120,0|0,0:0|0:0,0:0:0:0:
304,357,147991,2,0,P|375:309|456:275,1,120,0|0,0:0|0:0,0:0:0:0:
465,207,148408,6,0,L|409:152,1,60,8|0,0:0|0:0,0:0:0:0:
432,71,148686,2,0,L|371:41,1,60,0|0,0:0|0:0,0:0:0:0:
287,18,148963,6,0,L|302:156,1,120,0|0,0:0|0:0,0:0:0:0:
191,13,149380,2,0,L|176:154,1,120,0|0,0:0|0:0,0:0:0:0:
72,17,149797,1,0,0:0:0:0:
90,111,149936,2,0,B|83:128|83:128|64:104|64:104|15:120|5:177,2,120,0|8|0,0:0|0:0|0:0,0:0:0:0:
71,213,150630,5,8,0:0:0:0:
99,289,150769,1,8,0:0:0:0:
161,342,150908,1,8,0:0:0:0:
238,349,151047,1,8,0:0:0:0:
313,327,151186,1,0,0:0:0:0:
