osu file format v14

[General]
AudioFilename: Cho-E - Amputator.mp3
AudioLeadIn: 0
PreviewTime: 79522
Countdown: 0
SampleSet: Normal
StackLeniency: 0.8
Mode: 0
LetterboxInBreaks: 1
WidescreenStoryboard: 1

[Editor]
DistanceSpacing: 1.1
BeatDivisor: 4
GridSize: 4
TimelineZoom: 1

[Metadata]
Title:Amputator
TitleUnicode:Amputator
Artist:r300k feat. Cho-E
ArtistUnicode:r300k feat. Cho-E
Creator:UndeadCapulet
Version:Advanced Style
Source:TouchMix
Tags:TOMIX Android Gamevil skystar amamiya yuko korean video game
BeatmapID:2682719
BeatmapSetID:1292704

[Difficulty]
HPDrainRate:3
CircleSize:3
OverallDifficulty:4
ApproachRate:6.2
SliderMultiplier:2.1
SliderTickRate:1

[Events]
//Background and Video events
0,0,"amputator.png",0,0
//Break Periods
2,9163,24719
//Storyboard Layer 0 (Background)
//Storyboard Layer 1 (Fail)
//Storyboard Layer 2 (Pass)
//Storyboard Layer 3 (Foreground)
//Storyboard Layer 4 (Overlay)
//Storyboard Sound Samples

[TimingPoints]
75,555.555555555556,4,1,1,60,1,0
8963,-100,4,2,1,60,0,0
25769,-125,4,1,1,60,0,0
26741,-100,4,1,1,60,0,0
44519,-125,4,1,1,40,0,0
60630,-125,4,2,1,40,0,0
61325,-125,4,1,1,40,0,0
80075,-83.3333333333333,4,1,1,60,0,0
97852,-100,4,1,1,60,0,0
115630,-83.3333333333333,4,1,1,60,0,0
133408,-100,4,1,1,60,0,0

[Colours]
Combo1 : 255,0,0
Combo2 : 255,255,0
Combo3 : 176,39,205

[HitObjects]
356,105,8963,5,4,0:0:0:0:
373,97,25769,6,0,L|381:29,1,42,8|8,0:0|0:0,0:0:0:0:
463,26,26186,6,0,L|476:79,1,42,8|8,0:0|0:0,0:0:0:0:
463,114,26463,2,0,L|477:171,1,42,8|8,0:0|0:0,0:0:0:0:
443,192,26741,5,4,0:0:0:0:
360,251,27019,1,0,0:0:0:0:
284,183,27297,1,8,0:0:0:0:
218,251,27575,1,0,0:0:0:0:
218,251,27713,2,0,L|115:217,2,105,0|0|0,0:0|0:0|0:0,0:0:0:0:
208,296,28408,2,0,L|138:321,1,52.5,8|0,0:0|0:0,0:0:0:0:
131,337,28686,2,0,L|71:316,1,52.5,0|0,0:0|0:0,0:0:0:0:
40,330,28963,5,0,0:0:0:0:
58,230,29241,1,0,0:0:0:0:
17,143,29519,1,8,0:0:0:0:
30,112,29658,1,0,0:0:0:0:
100,41,29936,2,0,L|60:5,1,52.5,0|0,0:0|0:0,0:0:0:0:
156,112,30352,2,0,L|291:86,1,105,0|8,0:0|0:0,0:0:0:0:
295,117,30769,2,0,L|270:177,2,52.5,0|0|0,0:0|0:0|0:0,0:0:0:0:
337,77,31186,5,0,0:0:0:0:
434,11,31463,1,0,0:0:0:0:
412,129,31741,1,8,0:0:0:0:
508,159,32019,1,0,0:0:0:0:
478,202,32158,2,0,L|516:299,2,105,0|0|0,0:0|0:0|0:0,0:0:0:0:
433,222,32852,2,0,L|431:283,1,52.5,8|0,0:0|0:0,0:0:0:0:
447,303,33130,2,0,L|416:348,1,52.5,0|0,0:0|0:0,0:0:0:0:
429,380,33408,6,0,L|267:323,1,157.5,0|0,0:0|0:0,0:0:0:0:
240,292,33963,2,0,L|172:308,1,52.5,8|0,0:0|0:0,0:0:0:0:
135,282,34241,1,0,0:0:0:0:
101,326,34380,2,0,L|121:380,2,52.5,0|0|8,0:0|0:0|0:0,0:0:0:0:
72,56,35075,6,0,L|-5:26,1,52.5,8|8,0:0|0:0,0:0:0:0:
0,59,35352,2,0,L|36:122,1,52.5,8|8,0:0|0:0,0:0:0:0:
13,152,35630,5,0,0:0:0:0:
113,194,35908,1,0,0:0:0:0:
196,119,36186,1,8,0:0:0:0:
281,180,36463,1,0,0:0:0:0:
281,180,36602,2,0,L|382:124,2,105,0|0|0,0:0|0:0|0:0,0:0:0:0:
293,217,37297,2,0,L|362:216,1,52.5,8|0,0:0|0:0,0:0:0:0:
378,246,37575,2,0,L|462:219,1,52.5,0|0,0:0|0:0,0:0:0:0:
458,192,37852,5,0,0:0:0:0:
405,103,38130,1,0,0:0:0:0:
442,14,38408,1,8,0:0:0:0:
476,32,38547,1,0,0:0:0:0:
345,31,38825,2,0,L|312:-26,1,52.5,0|0,0:0|0:0,0:0:0:0:
320,122,39241,2,0,L|210:131,1,105,0|8,0:0|0:0,0:0:0:0:
184,81,39658,2,0,L|213:28,2,52.5,0|0|0,0:0|0:0|0:0,0:0:0:0:
133,85,40075,5,0,0:0:0:0:
22,73,40352,1,0,0:0:0:0:
87,160,40630,1,8,0:0:0:0:
0,185,40908,1,0,0:0:0:0:
24,223,41047,2,0,L|0:341,2,105,0|0|0,0:0|0:0|0:0,0:0:0:0:
64,263,41741,2,0,L|93:336,1,52.5,8|0,0:0|0:0,0:0:0:0:
136,301,42019,2,0,L|185:343,1,52.5,8|0,0:0|0:0,0:0:0:0:
148,384,42297,6,0,L|308:311,1,157.5,0|0,0:0|0:0,0:0:0:0:
326,304,42852,2,0,L|338:213,1,52.5,8|0,0:0|0:0,0:0:0:0:
296,221,43130,1,0,0:0:0:0:
311,169,43269,2,0,L|271:125,2,52.5,0|0|8,0:0|0:0|0:0,0:0:0:0:
458,338,43963,6,0,L|483:273,1,52.5,8|8,0:0|0:0,0:0:0:0:
499,230,44241,2,0,L|469:186,1,52.5,8|8,0:0|0:0,0:0:0:0:
473,124,44519,5,4,0:0:0:0:
293,359,45075,6,0,P|266:267|254:210,1,126,8|2,0:0|0:2,0:0:0:0:
314,158,45769,2,0,L|328:102,1,42,2|0,0:2|0:0,0:0:0:0:
258,22,46186,1,8,0:0:0:0:
258,22,46325,2,0,P|257:73|180:106,1,126,0|0,0:0|0:0,0:0:0:0:
6,35,47158,6,0,L|55:42,1,42,0|8,0:0|0:0,0:0:0:0:
100,186,47713,1,2,0:2:0:0:
100,186,47991,2,0,L|40:208,1,42,2|0,0:2|0:0,0:0:0:0:
23,306,48408,2,0,P|78:297|167:278,1,126,8|0,0:0|0:0,0:0:0:0:
177,307,48963,5,0,0:0:0:0:
332,314,49380,1,0,0:0:0:0:
332,314,49519,2,0,P|289:203|273:164,1,126,8|2,0:0|0:2,0:0:0:0:
296,106,50213,2,0,L|248:77,1,42,2|0,0:2|0:0,0:0:0:0:
359,24,50630,1,8,0:0:0:0:
359,24,50769,2,0,P|351:86|377:148,1,126,0|0,0:0|0:0,0:0:0:0:
497,331,51602,6,0,L|516:275,1,42,0|8,0:0|0:0,0:0:0:0:
312,310,52158,1,2,0:2:0:0:
312,310,52436,2,0,L|289:232,1,42,2|0,0:2|0:0,0:0:0:0:
215,358,52852,1,8,0:0:0:0:
54,285,53269,1,0,0:0:0:0:
83,246,53408,5,0,0:0:0:0:
44,77,53825,5,0,0:0:0:0:
36,100,53963,2,0,P|97:101|196:107,1,126,8|2,0:0|0:2,0:0:0:0:
243,36,54658,2,0,L|272:67,1,42,2|0,0:2|0:0,0:0:0:0:
346,154,55075,1,8,0:0:0:0:
346,154,55213,2,0,P|356:103|454:91,1,126,0|0,0:0|0:0,0:0:0:0:
492,256,56047,6,0,L|435:243,1,42,0|8,0:0|0:0,0:0:0:0:
298,364,56602,1,2,0:2:0:0:
298,364,56880,2,0,L|366:341,1,42,2|0,0:2|0:0,0:0:0:0:
207,354,57297,2,0,P|199:303|176:214,1,126,8|0,0:0|0:0,0:0:0:0:
148,219,57852,5,0,0:0:0:0:
56,64,58269,1,0,0:0:0:0:
56,64,58408,2,0,P|127:68|221:66,1,126,8|2,0:0|0:2,0:0:0:0:
280,126,59102,2,0,L|313:84,1,42,2|0,0:2|0:0,0:0:0:0:
355,199,59519,1,8,0:0:0:0:
355,199,59658,2,0,P|285:200|227:240,1,126,0|0,0:0|0:0,0:0:0:0:
358,365,60491,6,0,L|374:321,1,42,0|8,0:0|0:0,0:0:0:0:
173,356,61047,1,0,0:0:0:0:
114,278,61325,2,0,L|149:232,1,42,8|8,0:0|0:0,0:0:0:0:
108,154,61741,2,0,L|174:141,1,42,8|8,0:0|0:0,0:0:0:0:
161,87,62019,2,0,L|202:93,1,42,8|8,0:0|0:0,0:0:0:0:
239,59,62297,5,4,0:0:0:0:
274,290,62852,6,0,B|293:295|293:295|429:276,1,126,8|2,0:0|0:2,0:0:0:0:
425,181,63547,2,0,L|377:184,1,42,2|0,0:2|0:0,0:0:0:0:
316,115,63963,1,8,0:0:0:0:
316,115,64102,2,0,L|459:71,1,126,0|0,0:0|0:0,0:0:0:0:
230,64,64936,6,0,L|221:19,1,42,0|8,0:0|0:0,0:0:0:0:
161,124,65352,2,0,L|147:170,1,42,0|2,0:0|0:2,0:0:0:0:
82,215,65769,2,0,L|97:260,1,42,2|0,0:2|0:0,0:0:0:0:
145,320,66186,2,0,B|44:302|44:302|44:334,1,126,8|0,0:0|0:0,0:0:0:0:
63,355,66741,5,0,0:0:0:0:
279,347,67158,1,0,0:0:0:0:
279,347,67297,2,0,L|256:210,1,126,8|2,0:0|0:2,0:0:0:0:
349,186,67991,2,0,L|342:235,1,42,2|0,0:2|0:0,0:0:0:0:
389,312,68408,1,8,0:0:0:0:
389,312,68547,2,0,L|464:208,1,126,0|0,0:0|0:0,0:0:0:0:
305,360,69380,6,0,L|240:351,1,42,0|8,0:0|0:0,0:0:0:0:
206,263,69797,2,0,L|170:297,1,42,0|2,0:0|0:2,0:0:0:0:
110,217,70213,2,0,L|98:273,1,42,2|0,0:2|0:0,0:0:0:0:
58,328,70630,2,0,L|24:198,1,126,8|0,0:0|0:0,0:0:0:0:
23,172,71186,5,0,0:0:0:0:
96,30,71602,1,0,0:0:0:0:
96,30,71741,2,0,B|111:88|111:88|108:172,1,126,8|2,0:0|0:2,0:0:0:0:
200,187,72436,2,0,L|221:143,1,42,2|0,0:2|0:0,0:0:0:0:
281,246,72852,1,8,0:0:0:0:
281,246,72991,2,0,L|122:269,1,126,0|0,0:0|0:0,0:0:0:0:
371,159,73825,6,0,L|377:110,1,42,0|8,0:0|0:0,0:0:0:0:
444,218,74241,2,0,L|417:270,1,42,0|2,0:0|0:2,0:0:0:0:
403,336,74658,2,0,L|340:378,1,42,2|0,0:2|0:0,0:0:0:0:
282,374,75075,2,0,B|260:358|260:358|226:231,1,126,8|0,0:0|0:0,0:0:0:0:
243,235,75630,5,0,0:0:0:0:
161,95,76047,1,0,0:0:0:0:
161,95,76186,2,0,L|142:227,1,126,8|2,0:0|0:2,0:0:0:0:
83,277,76880,2,0,L|55:225,1,42,2|0,0:2|0:0,0:0:0:0:
72,376,77297,1,8,0:0:0:0:
72,376,77436,2,0,L|211:336,1,126,0|0,0:0|0:0,0:0:0:0:
369,220,78269,6,0,L|422:189,1,42,0|8,0:0|0:0,0:0:0:0:
313,143,78686,2,0,L|336:84,1,42,0|2,0:0|0:2,0:0:0:0:
217,158,79102,2,0,L|183:112,1,42,8|0,0:0|0:0,0:0:0:0:
143,219,79519,6,0,L|80:227,1,42,8|8,0:0|0:0,0:0:0:0:
88,261,79797,2,0,L|46:267,1,42,8|8,0:0|0:0,0:0:0:0:
13,255,80075,6,0,B|-4:200|-4:200|33:111,2,125.999996154785,4|0|8,0:0|0:0|0:0,0:0:0:0:
30,359,80908,1,0,0:0:0:0:
78,376,81047,2,0,L|147:248,2,125.999996154785,0|8|0,0:0|0:0|0:0,0:0:0:0:
135,368,81741,2,0,L|206:329,1,62.9999980773926,8|0,0:0|0:0,0:0:0:0:
240,354,82019,2,0,L|313:302,1,62.9999980773926,0|0,0:0|0:0,0:0:0:0:
340,338,82297,5,0,0:0:0:0:
314,230,82575,1,0,3:0:0:0:
372,152,82852,1,8,0:0:0:0:
355,107,82991,1,0,0:0:0:0:
433,221,83269,2,0,L|517:233,1,62.9999980773926,0|0,0:0|0:0,0:0:0:0:
366,285,83686,2,0,B|286:307|286:307|199:269,1,125.999996154785,0|8,0:0|0:0,0:0:0:0:
225,240,84102,2,0,L|236:166,2,62.9999980773926,0|0|0,0:0|0:0|0:0,0:0:0:0:
166,257,84519,5,0,0:0:0:0:
49,243,84797,1,0,0:0:0:0:
55,119,85075,1,8,0:0:0:0:
61,78,85213,2,0,L|125:105,1,62.9999980773926,0|0,0:0|0:0,0:0:0:0:
169,81,85491,2,0,L|151:233,1,125.999996154785,0|0,0:0|0:0,0:0:0:0:
196,234,85908,2,0,L|150:364,1,125.999996154785,0|8,0:0|0:0,0:0:0:0:
97,344,86325,2,0,L|64:282,2,62.9999980773926,0|0|0,2:0|0:0|0:0,0:0:0:0:
47,372,86741,6,0,B|-7:318|-7:318|13:187,1,188.999994232178,0|0,0:0|0:0,0:0:0:0:
47,160,87297,2,0,L|17:97,1,62.9999980773926,8|0,0:0|0:0,0:0:0:0:
157,88,87713,1,0,0:0:0:0:
134,46,87852,2,0,L|65:26,1,62.9999980773926,0|8,0:0|0:0,0:0:0:0:
277,272,88408,2,0,L|355:257,1,62.9999980773926,8|8,0:0|0:0,0:0:0:0:
376,291,88686,2,0,L|438:286,1,62.9999980773926,8|8,0:0|0:0,0:0:0:0:
480,233,88963,5,0,0:0:0:0:
397,150,89241,1,0,0:0:0:0:
413,45,89519,1,8,0:0:0:0:
304,14,89797,1,0,0:0:0:0:
274,54,89936,2,0,B|119:29,2,125.999996154785,0|8|0,0:0|0:0|0:0,0:0:0:0:
237,95,90630,2,0,L|164:123,1,62.9999980773926,8|0,0:0|0:0,0:0:0:0:
174,172,90908,2,0,L|111:246,1,62.9999980773926,8|8,0:0|0:0,0:0:0:0:
138,271,91186,5,0,0:0:0:0:
244,226,91463,1,0,3:0:0:0:
327,288,91741,1,8,0:0:0:0:
316,332,91880,1,0,0:0:0:0:
385,208,92158,2,0,L|446:178,1,62.9999980773926,0|0,0:0|0:0,0:0:0:0:
283,207,92575,2,0,B|255:151|255:151|264:46,1,125.999996154785,0|8,0:0|0:0,0:0:0:0:
299,48,92991,2,0,L|263:-8,2,62.9999980773926,0|0|0,0:0|0:0|0:0,0:0:0:0:
345,35,93408,5,0,0:0:0:0:
479,69,93686,1,0,0:0:0:0:
361,127,93963,1,8,0:0:0:0:
350,167,94102,2,0,L|423:168,1,62.9999980773926,0|0,0:0|0:0,0:0:0:0:
462,203,94380,2,0,L|345:270,1,125.999996154785,0|0,0:0|0:0,0:0:0:0:
379,311,94797,2,0,L|242:280,1,125.999996154785,0|8,0:0|0:0,0:0:0:0:
244,237,95213,2,0,L|146:256,2,62.9999980773926,0|0|0,0:0|0:0|0:0,0:0:0:0:
225,183,95630,6,0,B|135:138|135:138|96:224,1,188.999994232178,0|0,0:0|0:0,0:0:0:0:
64,259,96186,2,0,L|121:326,1,62.9999980773926,8|0,0:0|0:0,0:0:0:0:
19,161,96602,1,0,0:0:0:0:
7,114,96741,2,0,L|91:59,1,62.9999980773926,0|8,0:0|0:0,0:0:0:0:
256,25,97297,2,0,L|373:21,1,62.9999980773926,8|8,0:0|0:0,0:0:0:0:
362,51,97575,2,0,L|425:51,1,62.9999980773926,8|8,0:0|0:0,0:0:0:0:
477,24,97852,6,0,B|487:54|487:54|472:88|473:160,2,105,4|0|8,0:0|0:0|0:0,0:0:0:0:
391,227,98825,2,0,L|436:258,2,52.5,0|0|8,0:0|0:0|0:0,0:0:0:0:
351,268,99241,2,0,P|258:301|239:307,1,105,0|8,0:0|0:0,0:0:0:0:
152,214,99797,2,0,L|116:274,1,52.5,0|0,0:0|0:0,0:0:0:0:
157,299,100075,5,0,0:0:0:0:
82,362,100352,1,0,0:0:0:0:
2,318,100630,2,0,L|-2:265,1,52.5,8|0,0:0|0:0,0:0:0:0:
37,181,101047,2,0,L|49:124,2,52.5,0|0|0,0:0|0:0|0:0,0:0:0:0:
88,192,101463,2,0,P|124:137|158:94,1,105,0|8,0:0|0:0,0:0:0:0:
167,49,101880,2,0,L|124:10,2,52.5,0|0|0,0:0|0:0|0:0,0:0:0:0:
219,17,102297,6,0,B|220:49|237:87|237:87|282:121,2,105,0|0|8,0:0|0:0|0:0,0:0:0:0:
366,96,103269,2,0,L|389:41,2,52.5,0|0|8,0:0|0:0|0:0,0:0:0:0:
407,135,103686,2,0,P|397:193|392:245,1,105,0|8,0:0|0:0,0:0:0:0:
465,343,104241,2,0,L|393:365,1,52.5,0|0,0:0|0:0,0:0:0:0:
385,371,104519,5,0,0:0:0:0:
314,303,104797,1,0,0:0:0:0:
223,335,105075,2,0,L|166:365,1,52.5,8|0,0:0|0:0,0:0:0:0:
244,240,105491,2,0,L|278:182,1,52.5,0|0,0:0|0:0,0:0:0:0:
252,147,105769,1,8,0:0:0:0:
123,22,106186,6,0,L|100:100,1,52.5,8|8,0:0|0:0,0:0:0:0:
145,116,106463,2,0,L|113:174,1,52.5,8|8,0:0|0:0,0:0:0:0:
70,180,106741,6,0,B|44:167|44:167|25:123|27:71,2,105,0|0|8,0:0|0:0|0:0,0:0:0:0:
271,77,107713,2,0,L|260:18,2,52.5,0|0|8,0:0|0:0|0:0,0:0:0:0:
328,77,108130,2,0,P|310:140|295:194,1,105,0|8,0:0|0:0,0:0:0:0:
392,260,108686,2,0,L|406:320,1,52.5,0|0,0:0|0:0,0:0:0:0:
349,334,108963,5,0,0:0:0:0:
263,361,109241,1,0,0:0:0:0:
161,332,109519,2,0,L|155:262,1,52.5,8|0,0:0|0:0,0:0:0:0:
138,185,109936,2,0,L|195:136,2,52.5,0|0|8,0:0|2:0|0:0,0:0:0:0:
121,135,110352,2,0,L|165:38,1,105,0|8,0:0|0:0,0:0:0:0:
113,39,110769,2,0,L|89:-17,2,52.5,0|0|0,0:0|0:0|0:0,0:0:0:0:
63,51,111186,6,0,B|32:72|23:113|23:113|31:161,2,105,0|0|8,0:0|0:0|0:0,0:0:0:0:
66,228,112158,2,0,L|127:265,2,52.5,0|0|8,0:0|0:0|0:0,0:0:0:0:
15,232,112575,2,0,P|43:292|68:356,1,105,0|8,0:0|0:0,0:0:0:0:
131,384,113130,2,0,L|198:375,1,52.5,0|0,0:0|0:0,0:0:0:0:
172,329,113408,5,0,0:0:0:0:
201,242,113686,1,0,0:0:0:0:
146,160,113963,1,8,0:0:0:0:
163,64,114241,2,0,L|211:42,1,52.5,0|0,0:0|0:0,0:0:0:0:
255,13,114519,6,0,L|215:397,1,367.5,8|8,0:0|0:0,0:0:0:0:
275,376,115630,6,0,B|334:365|334:365|368:383|368:383|426:365,2,125.999996154785,6|2|8,0:0|0:0|0:0,0:0:0:0:
311,275,116463,1,2,0:0:0:0:
339,242,116602,2,0,L|293:112,2,125.999996154785,2|10|0,0:0|0:0|0:0,0:0:0:0:
397,228,117297,2,0,L|409:144,1,62.9999980773926,10|0,0:0|0:0,0:0:0:0:
447,159,117575,2,0,L|461:54,1,62.9999980773926,2|2,0:0|0:0,0:0:0:0:
439,40,117852,5,0,0:0:0:0:
331,36,118130,1,8,0:0:0:0:
280,128,118408,1,8,0:0:0:0:
312,162,118547,1,2,0:0:0:0:
187,84,118825,2,0,L|166:18,1,62.9999980773926,0|0,0:0|3:0,0:0:0:0:
119,165,119241,2,0,B|120:200|120:200|91:306,1,125.999996154785,2|10,0:0|0:0,0:0:0:0:
117,331,119658,2,0,L|205:348,2,62.9999980773926,0|2|2,0:0|0:0|0:0,0:0:0:0:
63,365,120075,5,0,0:0:0:0:
0,271,120352,1,2,0:0:0:0:
34,152,120630,1,8,0:0:0:0:
68,116,120769,2,0,L|31:50,1,62.9999980773926,2|0,0:0|0:0,0:0:0:0:
49,19,121047,2,0,L|206:69,1,125.999996154785,2|0,0:0|0:0,0:0:0:0:
178,105,121463,2,0,L|346:70,1,125.999996154785,0|10,0:0|0:0,0:0:0:0:
346,115,121880,2,0,L|395:50,2,62.9999980773926,0|0|2,3:0|0:0|0:0,0:0:0:0:
393,152,122297,6,0,B|352:269|352:269|385:365,1,188.999994232178,0|0,0:0|0:0,0:0:0:0:
427,321,122852,2,0,L|499:345,1,62.9999980773926,10|0,0:0|0:0,0:0:0:0:
486,221,123269,1,0,0:0:0:0:
472,186,123408,2,0,L|530:118,1,62.9999980773926,0|8,0:0|0:0,0:0:0:0:
211,14,123963,6,0,L|190:124,1,62.9999980773926,10|8,0:0|0:0,0:0:0:0:
237,121,124241,2,0,L|210:223,1,62.9999980773926,8|8,0:0|0:0,0:0:0:0:
233,233,124519,6,0,B|322:266|322:266|346:285,2,125.999996154785,2|2|8,0:0|0:0|0:0,0:0:0:0:
126,308,125352,1,2,0:0:0:0:
89,285,125491,2,0,L|-2:380,2,125.999996154785,2|10|2,0:0|0:0|0:0,0:0:0:0:
47,247,126186,2,0,L|53:161,1,62.9999980773926,10|0,0:0|0:0,0:0:0:0:
105,152,126463,2,0,L|84:70,1,62.9999980773926,2|2,0:0|0:0,0:0:0:0:
78,45,126741,5,0,0:0:0:0:
184,71,127019,1,8,0:0:0:0:
288,45,127297,1,10,0:0:0:0:
305,16,127436,1,2,0:0:0:0:
297,149,127713,2,0,L|295:217,1,62.9999980773926,2|2,0:0|0:0,0:0:0:0:
387,95,128130,2,0,B|430:88|430:88|532:113,1,125.999996154785,0|10,0:0|0:0,0:0:0:0:
479,163,128547,2,0,L|522:218,2,62.9999980773926,0|2|2,0:0|0:0|0:0,0:0:0:0:
454,217,128963,5,0,0:0:0:0:
392,319,129241,1,2,0:0:0:0:
277,294,129519,1,8,0:0:0:0:
242,257,129658,2,0,L|160:261,1,62.9999980773926,2|0,0:0|0:0,0:0:0:0:
136,227,129936,2,0,L|261:113,1,125.999996154785,2|2,0:0|0:0,0:0:0:0:
222,100,130352,2,0,L|68:147,1,125.999996154785,2|10,0:0|0:0,0:0:0:0:
69,86,130769,2,0,L|122:26,2,62.9999980773926,0|2|2,0:0|0:0|0:0,0:0:0:0:
13,89,131186,6,0,B|-11:177|-11:177|31:299,1,188.999994232178,0|2,0:0|0:0,0:0:0:0:
3,322,131741,2,0,L|91:351,1,62.9999980773926,8|2,0:0|0:0,0:0:0:0:
172,365,132158,1,0,0:0:0:0:
232,360,132297,2,0,L|288:308,1,62.9999980773926,0|10,0:0|0:0,0:0:0:0:
394,50,132852,6,0,L|317:13,1,62.9999980773926,8|8,0:0|0:0,0:0:0:0:
277,37,133130,2,0,L|188:16,1,62.9999980773926,8|8,0:0|0:0,0:0:0:0:
158,44,133408,5,4,0:0:0:0:
229,117,133686,1,0,0:0:0:0:
172,202,133963,1,8,0:0:0:0:
229,287,134241,1,0,0:0:0:0:
217,324,134380,2,0,L|328:360,2,105,0|0|0,0:0|0:0|0:0,0:0:0:0:
175,362,135075,2,0,L|116:340,1,52.5,8|0,0:0|0:0,0:0:0:0:
119,296,135352,2,0,L|59:260,1,52.5,0|0,0:0|0:0,0:0:0:0:
26,275,135630,5,0,0:0:0:0:
23,175,135908,1,0,0:0:0:0:
62,76,136186,1,8,0:0:0:0:
41,34,136325,1,0,0:0:0:0:
146,127,136602,2,0,L|132:217,1,52.5,0|0,0:0|0:0,0:0:0:0:
229,99,137019,2,0,B|272:-2,1,105,0|8,0:0|0:0,0:0:0:0:
321,6,137436,2,0,L|334:81,2,52.5,0|0|0,0:0|0:0|0:0,0:0:0:0:
386,1,137852,5,0,0:0:0:0:
512,79,138130,1,0,0:0:0:0:
408,152,138408,1,8,0:0:0:0:
483,233,138686,1,0,0:0:0:0:
445,273,138825,2,0,L|471:381,2,105,0|0|0,0:0|0:0|0:0,0:0:0:0:
396,278,139519,2,0,L|350:341,1,52.5,8|0,0:0|0:0,0:0:0:0:
320,309,139797,2,0,L|272:358,1,52.5,0|0,0:0|0:0,0:0:0:0:
231,321,140075,6,0,B|259:217|259:217|231:156,1,157.5,0|0,0:0|0:0,0:0:0:0:
240,129,140630,2,0,L|178:87,1,52.5,8|0,0:0|0:0,0:0:0:0:
97,51,141047,1,0,0:0:0:0:
58,83,141186,2,0,L|26:17,1,52.5,0|8,0:0|0:0,0:0:0:0:
110,231,141741,6,0,L|78:290,1,52.5,8|8,0:0|0:0,0:0:0:0:
115,310,142019,2,0,L|70:362,1,52.5,8|8,0:0|0:0,0:0:0:0:
105,378,142297,5,0,0:0:0:0:
202,330,142575,1,0,0:0:0:0:
303,353,142852,1,8,0:0:0:0:
394,329,143130,1,0,0:0:0:0:
426,349,143269,2,0,L|405:211,2,105,0|0|0,0:0|0:0|0:0,0:0:0:0:
472,327,143963,2,0,L|487:259,1,52.5,8|0,0:0|0:0,0:0:0:0:
510,254,144241,2,0,L|500:184,1,52.5,0|0,0:0|0:0,0:0:0:0:
468,153,144519,5,0,0:0:0:0:
444,55,144797,1,0,0:0:0:0:
350,39,145075,1,8,0:0:0:0:
310,10,145213,1,0,0:0:0:0:
314,131,145491,2,0,L|341:198,1,52.5,0|0,0:0|0:0,0:0:0:0:
220,126,145908,2,0,B|220:80|220:80|199:18,1,105,0|8,0:0|0:0,0:0:0:0:
154,40,146325,2,0,L|100:9,2,52.5,0|0|0,0:0|0:0|0:0,0:0:0:0:
130,72,146741,5,0,0:0:0:0:
17,135,147019,1,0,0:0:0:0:
130,178,147297,1,8,0:0:0:0:
56,273,147575,1,0,0:0:0:0:
101,292,147713,2,0,L|155:394,2,105,0|0|0,0:0|0:0|0:0,0:0:0:0:
145,289,148408,2,0,L|220:303,1,52.5,8|0,0:0|0:0,0:0:0:0:
235,332,148686,2,0,L|323:317,1,52.5,0|0,0:0|0:0,0:0:0:0:
323,348,148963,5,0,0:0:0:0:
417,302,149241,1,0,0:0:0:0:
432,201,149519,1,8,0:0:0:0:
460,176,149658,1,0,0:0:0:0:
391,99,149936,1,0,0:0:0:0:
411,58,150075,2,0,L|373:5,1,52.5,0|8,0:0|0:0,0:0:0:0:
147,24,150630,6,0,L|118:110,1,52.5,8|8,0:0|0:0,0:0:0:0:
85,117,150908,2,0,L|67:178,1,52.5,8|8,0:0|0:0,0:0:0:0:
23,206,151186,5,0,0:0:0:0:
