osu file format v14

[General]
AudioFilename: Energy Flower 3007.mp3
AudioLeadIn: 0
PreviewTime: 75463
Countdown: 0
SampleSet: Normal
StackLeniency: 0.7
Mode: 3
LetterboxInBreaks: 0
SpecialStyle: 0
WidescreenStoryboard: 0

[Editor]
Bookmarks: 17719,32155,46591,61027
DistanceSpacing: 0.8
BeatDivisor: 4
GridSize: 8
TimelineZoom: 1.5

[Metadata]
Title:Energy Flower 3007
TitleUnicode:Energy Flower 3007
Artist:r300k
ArtistUnicode:r300k
Creator:_underjoy
Version:3516
Source:EZ2ON
Tags:g2s melodic trance ez2dj 7th trax resistance nakoopa ryuminus jack ziemniax shoegazer
BeatmapID:992443
BeatmapSetID:454071

[Difficulty]
HPDrainRate:7
CircleSize:4
OverallDifficulty:7.5
ApproachRate:5
SliderMultiplier:1.4
SliderTickRate:1

[Events]
//Background and Video events
0,0,"abstract-fractal-art-petals-flower-sfondi-chrysanthemum-wallpaper.jpg",0,0
//Break Periods
//Storyboard Layer 0 (Background)
//Storyboard Layer 1 (Fail)
//Storyboard Layer 2 (Pass)
//Storyboard Layer 3 (Foreground)
//Storyboard Sound Samples
Sample,46591,0,"G4.wav",40
Sample,48395,0,"C6.wav",40
Sample,52004,0,"D#6.wav",40
Sample,53809,0,"D#6.wav",40
Sample,55613,0,"F6.wav",40
Sample,59222,0,"F6.wav",40

[TimingPoints]
3283,451.127819548872,4,1,1,40,1,0
75463,-100,4,1,1,20,0,1
104335,-100,4,1,1,20,0,0

[HitObjects]
64,192,3282,5,4,0:0:0:0:
448,192,3282,1,8,0:0:0:0:
448,192,3734,1,2,0:0:0:0:
192,192,3734,1,0,0:0:0:0:
64,192,3959,1,8,0:0:0:0:
448,192,4185,1,8,0:0:0:0:
64,192,4410,1,8,0:0:0:0:
320,192,4636,1,2,0:0:0:0:
448,192,4636,1,0,0:0:0:0:
192,192,4861,1,8,0:0:0:0:
192,192,5087,1,8,0:0:0:0:
64,192,5538,1,2,0:0:0:0:
320,192,5538,1,0,0:0:0:0:
448,192,5764,1,8,0:0:0:0:
192,192,5989,1,8,0:0:0:0:
448,192,6215,1,8,0:0:0:0:
64,192,6440,1,2,0:0:0:0:
192,192,6440,1,0,0:0:0:0:
320,192,6666,1,8,0:0:0:0:
320,192,6892,1,8,0:0:0:0:
64,192,7343,1,2,0:0:0:0:
448,192,7343,1,0,0:0:0:0:
320,192,7568,1,8,0:0:0:0:
192,192,7794,1,8,0:0:0:0:
320,192,8019,1,8,0:0:0:0:
64,192,8245,1,2,0:0:0:0:
448,192,8245,1,0,0:0:0:0:
192,192,8470,1,8,0:0:0:0:
320,192,8583,1,2,0:0:0:0:
192,192,8696,1,8,0:0:0:0:
192,192,9147,1,2,0:0:0:0:
448,192,9147,1,0,0:0:0:0:
192,192,9373,1,8,0:0:0:0:
448,192,9598,1,2,0:0:0:0:
64,192,9598,1,0,0:0:0:0:
448,192,9824,1,8,0:0:0:0:
320,192,10049,1,2,0:0:0:0:
64,192,10049,1,0,0:0:0:0:
192,192,10275,1,2,0:0:0:0:
320,192,10388,1,2,0:0:0:0:
64,192,10501,1,8,0:0:0:0:
192,192,10952,1,2,0:0:0:0:
320,192,10952,1,0,0:0:0:0:
64,192,11177,1,8,0:0:0:0:
448,192,11403,1,8,0:0:0:0:
64,192,11628,1,8,0:0:0:0:
320,192,11854,1,2,0:0:0:0:
448,192,11854,1,0,0:0:0:0:
64,192,12079,1,8,0:0:0:0:
64,192,12305,1,8,0:0:0:0:
320,192,12756,1,2,0:0:0:0:
192,192,12756,1,0,0:0:0:0:
448,192,12982,1,8,0:0:0:0:
64,192,13207,1,8,0:0:0:0:
448,192,13433,1,8,0:0:0:0:
64,192,13658,1,2,0:0:0:0:
192,192,13658,1,0,0:0:0:0:
448,192,13884,1,8,0:0:0:0:
448,192,14110,1,8,0:0:0:0:
192,192,14561,1,2,0:0:0:0:
320,192,14561,1,0,0:0:0:0:
64,192,14786,1,8,0:0:0:0:
320,192,15012,1,8,0:0:0:0:
192,192,15237,1,8,0:0:0:0:
448,192,15463,1,2,0:0:0:0:
64,192,15463,1,0,0:0:0:0:
320,192,15689,1,8,0:0:0:0:
320,192,15914,1,8,0:0:0:0:
64,192,16365,1,2,0:0:0:0:
192,192,16365,1,0,0:0:0:0:
320,192,16591,1,8,0:0:0:0:
64,192,16816,1,2,0:0:0:0:
448,192,16816,1,0,0:0:0:0:
192,192,17042,1,8,0:0:0:0:
320,192,17267,1,2,0:0:0:0:
448,192,17267,1,0,0:0:0:0:
192,192,17493,1,8,0:0:0:0:
64,192,17719,1,8,0:0:0:0:
448,192,17719,1,4,0:0:0:0:
320,192,17944,1,2,2:0:0:0:
64,192,18170,1,2,0:0:0:0:
320,192,18395,1,2,2:0:0:0:
64,192,18621,1,8,0:0:0:0:
448,192,18621,1,0,0:0:0:0:
192,192,18846,1,2,2:0:0:0:
448,192,19072,1,2,0:0:0:0:
192,192,19298,1,2,2:0:0:0:
448,192,19523,1,8,0:0:0:0:
64,192,19523,1,0,0:0:0:0:
320,192,19749,1,2,2:0:0:0:
192,192,19974,1,2,0:0:0:0:
320,192,20200,1,2,2:0:0:0:
64,192,20425,1,8,0:0:0:0:
448,192,20425,1,0,0:0:0:0:
192,192,20651,1,2,2:0:0:0:
320,192,20876,1,2,0:0:0:0:
192,192,21102,1,2,2:0:0:0:
448,192,21328,1,8,0:0:0:0:
320,192,21328,1,0,0:0:0:0:
64,192,21553,1,2,2:0:0:0:
192,192,21779,1,2,0:0:0:0:
320,192,22004,1,2,2:0:0:0:
64,192,22230,1,8,0:0:0:0:
192,192,22230,1,0,0:0:0:0:
448,192,22455,1,2,2:0:0:0:
320,192,22681,1,2,0:0:0:0:
192,192,22907,1,2,2:0:0:0:
64,192,23132,1,8,0:0:0:0:
448,192,23132,1,0,0:0:0:0:
320,192,23358,1,0,0:0:0:0:
64,192,23583,1,2,0:0:0:0:
192,192,23583,1,0,0:0:0:0:
320,192,23809,1,0,0:0:0:0:
448,192,24034,1,8,0:0:0:0:
64,192,24034,1,0,0:0:0:0:
192,192,24260,1,0,0:0:0:0:
320,192,24373,1,0,0:0:0:0:
192,192,24598,1,0,0:0:0:0:
320,192,24711,1,8,0:0:0:0:
64,192,24937,1,8,0:0:0:0:
448,192,24937,1,4,0:0:0:0:
320,192,25162,1,2,2:0:0:0:
64,192,25388,1,2,0:0:0:0:
320,192,25613,1,2,2:0:0:0:
64,192,25839,1,8,0:0:0:0:
448,192,25839,1,0,0:0:0:0:
192,192,26064,1,2,2:0:0:0:
448,192,26290,1,2,0:0:0:0:
192,192,26516,1,2,2:0:0:0:
320,192,26741,1,8,0:0:0:0:
64,192,26741,1,0,0:0:0:0:
448,192,26967,1,2,2:0:0:0:
192,192,27192,1,2,0:0:0:0:
320,192,27418,1,2,2:0:0:0:
448,192,27643,1,8,0:0:0:0:
192,192,27643,1,0,0:0:0:0:
64,192,27869,1,2,2:0:0:0:
192,192,28095,1,2,0:0:0:0:
320,192,28320,1,2,2:0:0:0:
64,192,28546,1,8,0:0:0:0:
448,192,28546,1,0,0:0:0:0:
192,192,28771,1,2,2:0:0:0:
320,192,28997,1,2,0:0:0:0:
448,192,29222,1,2,2:0:0:0:
64,192,29448,1,8,0:0:0:0:
192,192,29448,1,0,0:0:0:0:
448,192,29673,1,2,2:0:0:0:
320,192,29899,1,2,0:0:0:0:
192,192,30125,1,2,2:0:0:0:
64,192,30350,1,8,0:0:0:0:
448,192,30350,1,0,0:0:0:0:
320,192,30576,1,0,0:0:0:0:
64,192,30801,1,2,0:0:0:0:
192,192,30801,1,0,0:0:0:0:
448,192,31027,1,8,0:0:0:0:
448,192,31252,1,8,0:0:0:0:
192,192,31478,1,8,0:0:0:0:
320,192,31591,1,0,0:0:0:0:
192,192,31816,1,0,0:0:0:0:
320,192,31929,1,8,0:0:0:0:
64,192,32155,1,8,0:0:0:0:
192,192,32155,1,4,0:0:0:0:
448,192,32380,1,2,2:0:0:0:
64,192,32606,1,2,0:0:0:0:
320,192,32606,1,0,0:0:0:0:
192,192,32831,1,2,2:0:0:0:
192,192,33057,1,8,0:0:0:0:
448,192,33282,1,2,2:0:0:0:
64,192,33508,1,2,0:0:0:0:
320,192,33508,1,0,0:0:0:0:
192,192,33734,1,2,2:0:0:0:
448,192,33959,1,8,0:0:0:0:
64,192,34185,1,2,2:0:0:0:
192,192,34410,1,2,0:0:0:0:
448,192,34410,1,0,0:0:0:0:
320,192,34636,1,2,2:0:0:0:
320,192,34861,1,8,0:0:0:0:
64,192,35087,1,2,2:0:0:0:
192,192,35313,1,2,0:0:0:0:
448,192,35313,1,0,0:0:0:0:
320,192,35538,1,2,2:0:0:0:
64,192,35764,1,8,0:0:0:0:
448,192,35989,1,2,2:0:0:0:
192,192,36215,1,2,0:0:0:0:
320,192,36215,1,0,0:0:0:0:
64,192,36440,1,2,2:0:0:0:
64,192,36666,1,8,0:0:0:0:
448,192,36892,1,2,2:0:0:0:
192,192,37117,1,2,0:0:0:0:
320,192,37117,1,0,0:0:0:0:
64,192,37343,1,2,2:0:0:0:
448,192,37568,1,8,0:0:0:0:
192,192,37794,1,2,2:0:0:0:
64,192,38019,1,2,0:0:0:0:
448,192,38019,1,0,0:0:0:0:
320,192,38245,1,2,2:0:0:0:
64,192,38470,1,2,0:0:0:0:
448,192,38470,1,0,0:0:0:0:
192,192,38696,1,2,2:0:0:0:
448,192,38922,1,2,0:0:0:0:
64,192,38922,1,0,0:0:0:0:
320,192,39147,1,2,0:0:0:0:
64,192,39373,1,8,0:0:0:0:
192,192,39598,1,2,2:0:0:0:
320,192,39824,1,2,0:0:0:0:
448,192,39824,1,0,0:0:0:0:
64,192,40049,1,2,2:0:0:0:
64,192,40275,1,8,0:0:0:0:
448,192,40501,1,2,2:0:0:0:
320,192,40726,1,2,0:0:0:0:
192,192,40726,1,0,0:0:0:0:
64,192,40952,1,2,2:0:0:0:
448,192,41177,1,8,0:0:0:0:
320,192,41403,1,2,2:0:0:0:
192,192,41628,1,2,0:0:0:0:
64,192,41628,1,0,0:0:0:0:
448,192,41854,1,2,2:0:0:0:
448,192,42079,1,8,0:0:0:0:
64,192,42305,1,2,2:0:0:0:
192,192,42531,1,2,0:0:0:0:
320,192,42531,1,0,0:0:0:0:
448,192,42756,1,2,2:0:0:0:
64,192,42982,1,8,0:0:0:0:
320,192,43207,1,2,2:0:0:0:
192,192,43433,1,2,0:0:0:0:
448,192,43433,1,0,0:0:0:0:
64,192,43658,1,2,2:0:0:0:
448,192,43884,1,8,0:0:0:0:
320,192,44110,1,2,2:0:0:0:
192,192,44335,1,2,0:0:0:0:
64,192,44335,1,0,0:0:0:0:
448,192,44561,1,2,2:0:0:0:
320,192,44786,1,8,0:0:0:0:
448,192,45237,1,2,0:0:0:0:
64,192,45237,1,0,0:0:0:0:
64,192,45689,1,2,0:0:0:0:
448,192,45689,1,0,0:0:0:0:
64,192,46140,1,2,0:0:0:0:
448,192,46140,1,0,0:0:0:0:
192,192,46591,1,8,0:0:0:0:
320,192,46591,1,4,0:0:0:0:
448,192,47042,1,2,0:0:0:0:
64,192,47042,1,0,0:0:0:0:
320,192,47267,1,8,0:0:0:0:
192,192,47493,1,8,0:0:0:0:
320,192,47719,1,8,0:0:0:0:
64,192,47944,1,2,0:0:0:0:
448,192,47944,1,0,0:0:0:0:
192,192,48170,1,8,0:0:0:0:
192,192,48395,1,8,0:0:0:0:
64,192,48846,1,2,0:0:0:0:
320,192,48846,1,0,0:0:0:0:
448,192,49072,1,8,0:0:0:0:
64,192,49298,1,8,0:0:0:0:
192,192,49523,1,8,0:0:0:0:
320,192,49749,1,2,0:0:0:0:
64,192,49749,1,0,0:0:0:0:
448,192,49974,1,8,0:0:0:0:
192,192,50200,1,0,0:0:0:40:D6.wav
64,192,50651,1,2,0:0:0:0:
448,192,50651,1,0,0:0:0:0:
192,192,50876,1,8,0:0:0:0:
320,192,51102,1,8,0:0:0:0:
192,192,51328,1,8,0:0:0:0:
64,192,51553,1,2,0:0:0:0:
448,192,51553,1,0,0:0:0:0:
320,192,51779,1,8,0:0:0:0:
192,192,51892,1,2,0:0:0:0:
320,192,52004,1,8,0:0:0:0:
192,192,52455,1,2,0:0:0:0:
448,192,52455,1,0,0:0:0:0:
64,192,52681,1,8,0:0:0:0:
320,192,52907,1,2,0:0:0:0:
448,192,52907,1,0,0:0:0:0:
64,192,53132,1,8,0:0:0:0:
192,192,53358,1,2,0:0:0:0:
448,192,53358,1,0,0:0:0:0:
320,192,53583,1,2,0:0:0:0:
192,192,53696,1,2,0:0:0:0:
320,192,53809,1,8,0:0:0:0:
192,192,54260,1,2,0:0:0:0:
320,192,54260,1,0,0:0:0:0:
448,192,54486,1,8,0:0:0:0:
64,192,54711,1,8,0:0:0:0:
448,192,54937,1,8,0:0:0:0:
192,192,55162,1,2,0:0:0:0:
64,192,55162,1,0,0:0:0:0:
320,192,55388,1,8,0:0:0:0:
320,192,55613,1,8,0:0:0:0:
64,192,56064,1,2,0:0:0:0:
192,192,56064,1,0,0:0:0:0:
448,192,56290,1,8,0:0:0:0:
320,192,56516,1,8,0:0:0:0:
192,192,56741,1,8,0:0:0:0:
320,192,56967,1,2,0:0:0:0:
448,192,56967,1,0,0:0:0:0:
64,192,57192,1,8,0:0:0:0:
64,192,57418,1,0,0:0:0:40:D6.wav
448,192,57869,1,2,0:0:0:0:
192,192,57869,1,0,0:0:0:0:
64,192,58095,1,8,0:0:0:0:
320,192,58320,1,8,0:0:0:0:
192,192,58546,1,8,0:0:0:0:
64,192,58771,1,2,0:0:0:0:
448,192,58771,1,0,0:0:0:0:
320,192,58997,1,8,0:0:0:0:
192,192,59110,1,2,0:0:0:0:
320,192,59222,1,8,0:0:0:0:
64,192,59673,1,2,0:0:0:0:
448,192,59673,1,0,0:0:0:0:
320,192,59899,1,8,0:0:0:0:
64,192,60125,1,2,0:0:0:0:
448,192,60125,1,0,0:0:0:40:D6.wav
192,192,60350,1,8,0:0:0:0:
64,192,60576,1,2,0:0:0:0:
448,192,60576,1,0,0:0:0:0:
320,192,60801,1,8,0:0:0:0:
192,192,61027,1,8,0:0:0:0:
64,192,61027,1,4,0:0:0:0:
448,192,61478,1,2,0:0:0:0:
320,192,61478,1,0,0:0:0:0:
64,192,61929,1,8,0:0:0:0:
448,192,62380,1,2,0:0:0:0:
320,192,62380,1,0,0:0:0:0:
192,192,62606,1,8,0:0:0:0:
192,192,62831,1,8,0:0:0:0:
448,192,63282,1,2,0:0:0:0:
64,192,63282,1,0,0:0:0:0:
320,192,63734,1,8,0:0:0:0:
64,192,64185,1,2,0:0:0:0:
192,192,64185,1,0,0:0:0:0:
320,192,64410,1,8,0:0:0:0:
320,192,64636,1,8,0:0:0:0:
448,192,65087,1,2,0:0:0:0:
64,192,65087,1,0,0:0:0:0:
192,192,65313,1,8,0:0:0:0:
320,192,65538,1,8,0:0:0:0:
192,192,65764,1,8,0:0:0:0:
64,192,65989,1,2,0:0:0:0:
448,192,65989,1,0,0:0:0:0:
320,192,66215,1,8,0:0:0:0:
192,192,66328,1,2,0:0:0:0:
320,192,66440,1,8,0:0:0:0:
448,192,66892,1,2,0:0:0:0:
192,192,66892,1,0,0:0:0:0:
64,192,67117,1,8,0:0:0:0:
320,192,67343,1,2,0:0:0:0:
192,192,67343,1,0,0:0:0:0:
448,192,67568,1,8,0:0:0:0:
64,192,67794,1,2,0:0:0:0:
320,192,67794,1,0,0:0:0:0:
192,192,68019,1,2,0:0:0:0:
320,192,68132,1,2,0:0:0:0:
64,192,68245,1,8,0:0:0:0:
192,192,68696,1,2,0:0:0:0:
320,192,68696,1,0,0:0:0:0:
448,192,69147,1,8,0:0:0:0:
64,192,69598,1,2,0:0:0:0:
320,192,69598,1,0,0:0:0:0:
192,192,69824,1,8,0:0:0:0:
192,192,70049,1,8,0:0:0:0:
448,192,70501,1,2,0:0:0:0:
64,192,70501,1,0,0:0:0:0:
320,192,70952,1,8,0:0:0:0:
64,192,71403,1,2,0:0:0:0:
448,192,71403,1,0,0:0:0:0:
320,192,71628,1,8,0:0:0:0:
320,192,71854,1,8,0:0:0:0:
64,192,72305,1,2,0:0:0:0:
448,192,72305,1,0,0:0:0:0:
320,192,72531,1,8,0:0:0:0:
64,192,72756,1,8,0:0:0:0:
192,192,72982,1,8,0:0:0:0:
320,192,73207,1,2,0:0:0:0:
448,192,73207,1,0,0:0:0:0:
64,192,73433,1,8,0:0:0:0:
320,192,73658,1,8,0:0:0:0:
192,192,73884,1,8,0:0:0:0:
448,192,74110,1,8,0:0:0:0:
64,192,74110,1,0,0:0:0:0:
320,192,74335,1,0,0:0:0:0:
192,192,74561,1,8,0:0:0:0:
64,192,74561,1,0,0:0:0:0:
320,192,74786,1,8,0:0:0:0:
64,192,75012,1,8,0:0:0:0:
448,192,75012,1,0,0:0:0:0:
192,192,75237,1,8,0:0:0:0:
448,192,75463,1,8,0:0:0:0:
64,192,75463,1,4,0:0:0:0:
320,192,75689,1,2,2:0:0:0:
64,192,75914,1,2,0:0:0:0:
192,192,75914,1,0,0:0:0:0:
448,192,76140,1,2,2:0:0:0:
320,192,76252,1,0,0:0:0:0:
192,192,76365,1,8,0:0:0:0:
448,192,76591,1,2,2:0:0:0:
192,192,76816,1,2,0:0:0:0:
64,192,76816,1,0,0:0:0:0:
320,192,77042,1,2,2:0:0:0:
192,192,77155,1,0,0:0:0:0:
64,192,77267,1,8,0:0:0:0:
320,192,77493,1,2,2:0:0:0:
64,192,77719,1,2,0:0:0:0:
192,192,77719,1,0,0:0:0:0:
448,192,77944,1,2,2:0:0:0:
64,192,78170,1,8,0:0:0:0:
448,192,78395,1,2,2:0:0:0:
64,192,78621,1,2,0:0:0:0:
192,192,78621,1,0,0:0:0:0:
320,192,78846,1,2,2:0:0:0:
64,192,79072,1,8,0:0:0:0:
192,192,79298,1,2,2:0:0:0:
320,192,79523,1,2,0:0:0:0:
448,192,79523,1,0,0:0:0:0:
64,192,79749,1,2,2:0:0:0:
192,192,79861,1,0,0:0:0:0:
320,192,79974,1,8,0:0:0:0:
64,192,80200,1,2,2:0:0:0:
320,192,80425,1,2,0:0:0:0:
448,192,80425,1,0,0:0:0:0:
192,192,80651,1,2,2:0:0:0:
320,192,80764,1,0,0:0:0:0:
448,192,80876,1,8,0:0:0:0:
64,192,81102,1,2,2:0:0:0:
320,192,81328,1,2,0:0:0:0:
448,192,81328,1,0,0:0:0:0:
192,192,81553,1,2,2:0:0:0:
64,192,81779,1,8,0:0:0:0:
192,192,82004,1,2,2:0:0:0:
320,192,82230,1,2,0:0:0:0:
448,192,82230,1,0,0:0:0:0:
192,192,82455,1,2,2:0:0:0:
448,192,82681,1,8,0:0:0:0:
320,192,82907,1,2,2:0:0:0:
64,192,83132,1,2,0:0:0:0:
192,192,83132,1,0,0:0:0:0:
448,192,83358,1,2,2:0:0:0:
320,192,83470,1,0,0:0:0:0:
64,192,83583,1,8,0:0:0:0:
192,192,83809,1,2,2:0:0:0:
320,192,84034,1,2,0:0:0:0:
448,192,84034,1,0,0:0:0:0:
64,192,84260,1,2,2:0:0:0:
192,192,84373,1,0,0:0:0:0:
448,192,84486,1,8,0:0:0:0:
64,192,84711,1,2,2:0:0:0:
448,192,84937,1,2,0:0:0:0:
320,192,84937,1,0,0:0:0:0:
64,192,85162,1,2,2:0:0:0:
320,192,85388,1,8,0:0:0:0:
192,192,85613,1,2,2:0:0:0:
448,192,85839,1,2,0:0:0:0:
64,192,85839,1,0,0:0:0:0:
320,192,86064,1,2,2:0:0:0:
64,192,86290,1,8,0:0:0:0:
192,192,86516,1,2,2:0:0:0:
320,192,86741,1,2,0:0:0:0:
448,192,86741,1,0,0:0:0:0:
64,192,86967,1,2,2:0:0:0:
192,192,87079,1,0,0:0:0:0:
320,192,87192,1,8,0:0:0:0:
64,192,87418,1,2,2:0:0:0:
448,192,87643,1,2,0:0:0:0:
320,192,87643,1,0,0:0:0:0:
192,192,87869,1,2,2:0:0:0:
320,192,87982,1,0,0:0:0:0:
448,192,88095,1,8,0:0:0:0:
64,192,88320,1,2,2:0:0:0:
320,192,88546,1,2,0:0:0:0:
192,192,88546,1,0,0:0:0:0:
448,192,88771,1,2,2:0:0:0:
320,192,88884,1,0,0:0:0:0:
192,192,88997,1,8,0:0:0:0:
448,192,89222,1,2,2:0:0:0:
64,192,89448,1,2,0:0:0:0:
192,192,89448,1,0,0:0:0:0:
320,192,89673,1,2,2:0:0:0:
192,192,89786,1,0,0:0:0:0:
64,192,89899,1,8,0:0:0:0:
320,192,90125,1,2,2:0:0:0:
64,192,90350,1,2,0:0:0:0:
448,192,90350,1,0,0:0:0:0:
192,192,90576,1,2,2:0:0:0:
320,192,90689,1,0,0:0:0:0:
448,192,90801,1,8,0:0:0:0:
192,192,91027,1,2,2:0:0:0:
64,192,91252,1,2,0:0:0:0:
448,192,91252,1,0,0:0:0:0:
320,192,91478,1,2,2:0:0:0:
192,192,91591,1,0,0:0:0:0:
64,192,91704,1,8,0:0:0:0:
448,192,91929,1,2,2:0:0:0:
64,192,92155,1,2,0:0:0:0:
192,192,92155,1,0,0:0:0:0:
448,192,92380,1,2,2:0:0:0:
64,192,92606,1,8,0:0:0:0:
320,192,92831,1,2,2:0:0:0:
448,192,93057,1,2,0:0:0:0:
64,192,93057,1,0,0:0:0:0:
192,192,93282,1,2,2:0:0:0:
448,192,93508,1,8,0:0:0:0:
192,192,93734,1,2,2:0:0:0:
64,192,93959,1,2,0:0:0:0:
448,192,93959,1,0,0:0:0:0:
320,192,94185,1,2,2:0:0:0:
192,192,94298,1,0,0:0:0:0:
64,192,94410,1,8,0:0:0:0:
320,192,94636,1,2,2:0:0:0:
64,192,94861,1,2,0:0:0:0:
448,192,94861,1,0,0:0:0:0:
192,192,95087,1,2,2:0:0:0:
320,192,95200,1,0,0:0:0:0:
448,192,95313,1,8,0:0:0:0:
64,192,95538,1,2,2:0:0:0:
448,192,95764,1,2,0:0:0:0:
320,192,95764,1,0,0:0:0:0:
192,192,95989,1,2,2:0:0:0:
320,192,96215,1,8,0:0:0:0:
64,192,96440,1,2,2:0:0:0:
448,192,96666,1,2,0:0:0:0:
320,192,96666,1,0,0:0:0:0:
192,192,96892,1,2,2:0:0:0:
64,192,97117,1,8,0:0:0:0:
320,192,97343,1,2,2:0:0:0:
64,192,97568,1,2,0:0:0:0:
448,192,97568,1,0,0:0:0:0:
320,192,97794,1,2,2:0:0:0:
192,192,97907,1,0,0:0:0:0:
448,192,98019,1,8,0:0:0:0:
320,192,98245,1,2,2:0:0:0:
64,192,98470,1,2,0:0:0:0:
448,192,98470,1,0,0:0:0:0:
192,192,98696,1,2,2:0:0:0:
320,192,98809,1,0,0:0:0:0:
64,192,98922,1,8,0:0:0:0:
192,192,99147,1,2,2:0:0:0:
320,192,99373,1,2,0:0:0:0:
448,192,99373,1,0,0:0:0:0:
192,192,99598,1,2,2:0:0:0:
64,192,99824,1,8,0:0:0:0:
320,192,100049,1,2,2:0:0:0:
192,192,100275,1,2,0:0:0:0:
64,192,100275,1,0,0:0:0:0:
320,192,100501,1,2,2:0:0:0:
448,192,100726,1,8,0:0:0:0:
64,192,100952,1,2,2:0:0:0:
320,192,101177,1,2,0:0:0:0:
448,192,101177,1,0,0:0:0:0:
192,192,101403,1,2,2:0:0:0:
320,192,101516,1,0,0:0:0:0:
448,192,101628,1,8,0:0:0:0:
192,192,101854,1,2,2:0:0:0:
448,192,102079,1,2,0:0:0:0:
64,192,102079,1,0,0:0:0:0:
320,192,102305,1,2,2:0:0:0:
192,192,102418,1,0,0:0:0:0:
64,192,102531,1,8,0:0:0:0:
448,192,102756,1,8,0:0:0:0:
64,192,102982,1,0,0:0:0:0:
448,192,103207,1,0,0:0:0:0:
192,192,103433,1,0,0:0:0:0:
320,192,103658,1,8,0:0:0:0:
192,192,103884,1,8,0:0:0:0:
320,192,104110,1,8,0:0:0:0:
64,192,104335,1,8,0:0:0:0:
448,192,104335,1,0,0:0:0:0:
320,192,106140,1,8,0:0:0:0:
448,192,106140,1,4,0:0:0:0:
64,192,106591,1,2,0:0:0:0:
448,192,106591,1,0,0:0:0:0:
320,192,106816,1,8,0:0:0:0:
192,192,107042,1,8,0:0:0:0:
320,192,107267,1,8,0:0:0:0:
64,192,107493,1,2,0:0:0:0:
448,192,107493,1,0,0:0:0:0:
192,192,107719,1,8,0:0:0:0:
192,192,107944,1,8,0:0:0:0:
448,192,108395,1,2,0:0:0:0:
320,192,108395,1,0,0:0:0:0:
192,192,108621,1,8,0:0:0:0:
448,192,108846,1,8,0:0:0:0:
192,192,109072,1,8,0:0:0:0:
320,192,109298,1,2,0:0:0:0:
448,192,109298,1,0,0:0:0:0:
64,192,109523,1,8,0:0:0:0:
64,192,109749,1,8,0:0:0:0:
192,192,110200,1,2,0:0:0:0:
320,192,110200,1,0,0:0:0:0:
448,192,110425,1,8,0:0:0:0:
64,192,110651,1,8,0:0:0:0:
448,192,110876,1,8,0:0:0:0:
192,192,111102,1,2,0:0:0:0:
320,192,111102,1,0,0:0:0:0:
64,192,111328,1,8,0:0:0:0:
448,192,111440,1,2,0:0:0:0:
64,192,111553,1,8,0:0:0:0:
320,192,112004,1,2,0:0:0:0:
448,192,112004,1,0,0:0:0:0:
320,192,112230,1,8,0:0:0:0:
192,192,112455,1,2,0:0:0:0:
448,192,112455,1,0,0:0:0:0:
192,192,112681,1,8,0:0:0:0:
64,192,112907,1,2,0:0:0:0:
448,192,112907,1,0,0:0:0:0:
320,192,113132,1,2,0:0:0:0:
192,192,113245,1,2,0:0:0:0:
320,192,113358,1,8,0:0:0:0:
448,192,113358,1,4,0:0:0:0:
64,192,113809,1,2,0:0:0:0:
448,192,113809,1,0,0:0:0:0:
192,192,114034,1,8,0:0:0:0:
320,192,114260,1,8,0:0:0:0:
448,192,114486,1,8,0:0:0:0:
64,192,114711,1,2,0:0:0:0:
192,192,114711,1,0,0:0:0:0:
448,192,114937,1,8,0:0:0:0:
448,192,115162,1,8,0:0:0:0:
64,192,115613,1,2,0:0:0:0:
448,192,115613,1,0,0:0:0:0:
320,192,115839,1,8,0:0:0:0:
192,192,116064,1,8,0:0:0:0:
64,192,116290,1,8,0:0:0:0:
448,192,116516,1,2,0:0:0:0:
320,192,116516,1,0,0:0:0:0:
64,192,116741,1,8,0:0:0:0:
64,192,116967,1,8,0:0:0:0:
320,192,117418,1,2,0:0:0:0:
448,192,117418,1,0,0:0:0:0:
192,192,117643,1,8,0:0:0:0:
320,192,117869,1,8,0:0:0:0:
192,192,118095,1,8,0:0:0:0:
448,192,118320,1,2,0:0:0:0:
320,192,118320,1,0,0:0:0:0:
64,192,118546,1,8,0:0:0:0:
448,192,118658,1,2,0:0:0:0:
64,192,118771,1,8,0:0:0:0:
448,192,119222,1,2,0:0:0:0:
192,192,119222,1,0,0:0:0:0:
192,192,119448,1,8,0:0:0:0:
64,192,119673,1,2,0:0:0:0:
320,192,119673,1,0,0:0:0:0:
320,192,119899,1,8,0:0:0:0:
192,192,120125,1,2,0:0:0:0:
448,192,120125,1,0,0:0:0:0:
192,192,120350,1,8,0:0:0:0:
64,192,120576,1,8,0:0:0:0:
448,192,120576,1,4,0:0:0:0:
