osu file format v14

[General]
AudioFilename: Energy Flower 3007.mp3
AudioLeadIn: 0
PreviewTime: 75463
Countdown: 0
SampleSet: Normal
StackLeniency: 0.7
Mode: 3
LetterboxInBreaks: 0
SpecialStyle: 0
WidescreenStoryboard: 0

[Editor]
Bookmarks: 17719,32155,46591,61027
DistanceSpacing: 0.8
BeatDivisor: 4
GridSize: 8
TimelineZoom: 2.3

[Metadata]
Title:Energy Flower 3007
TitleUnicode:Energy Flower 3007
Artist:r300k
ArtistUnicode:r300k
Creator:_underjoy
Version:5332
Source:EZ2ON
Tags:g2s melodic trance ez2dj 7th trax resistance nakoopa ryuminus jack ziemniax shoegazer
BeatmapID:992414
BeatmapSetID:454071

[Difficulty]
HPDrainRate:8
CircleSize:4
OverallDifficulty:8.2
ApproachRate:5
SliderMultiplier:1.4
SliderTickRate:1

[Events]
//Background and Video events
0,0,"abstract-fractal-art-petals-flower-sfondi-chrysanthemum-wallpaper.jpg",0,0
//Break Periods
//Storyboard Layer 0 (Background)
//Storyboard Layer 1 (Fail)
//Storyboard Layer 2 (Pass)
//Storyboard Layer 3 (Foreground)
//Storyboard Sound Samples

[TimingPoints]
3283,451.127819548872,4,1,1,40,1,0
75463,-100,4,1,1,20,0,1
104335,-100,4,1,1,20,0,0

[HitObjects]
64,192,3282,5,4,0:0:0:0:
448,192,3282,1,8,0:0:0:0:
192,192,3621,1,0,0:0:0:0:
64,192,3734,1,2,0:0:0:0:
448,192,3734,1,0,0:0:0:0:
192,192,3959,1,8,0:0:0:0:
320,192,3959,1,0,0:0:0:0:
192,192,4185,1,8,0:0:0:0:
320,192,4185,1,0,0:0:0:0:
64,192,4410,1,8,0:0:0:0:
192,192,4410,1,0,0:0:0:0:
320,192,4523,1,0,0:0:0:0:
448,192,4636,1,2,0:0:0:0:
64,192,4636,1,0,0:0:0:0:
448,192,4861,1,8,0:0:0:0:
320,192,4861,1,0,0:0:0:0:
320,192,5087,1,8,0:0:0:0:
448,192,5087,1,0,0:0:0:0:
64,192,5425,1,0,0:0:0:0:
192,192,5538,1,2,0:0:0:0:
448,192,5538,1,0,0:0:0:0:
320,192,5764,1,8,0:0:0:0:
448,192,5764,1,0,0:0:0:0:
320,192,5989,1,8,0:0:0:0:
448,192,5989,1,0,0:0:0:0:
64,192,6215,1,8,0:0:0:0:
192,192,6215,1,0,0:0:0:0:
320,192,6328,1,0,0:0:0:0:
448,192,6440,1,2,0:0:0:0:
64,192,6440,1,0,0:0:0:0:
192,192,6666,1,8,0:0:0:0:
320,192,6666,1,0,0:0:0:0:
192,192,6892,1,8,0:0:0:0:
320,192,6892,1,0,0:0:0:0:
448,192,7230,1,0,0:0:0:0:
320,192,7343,1,2,0:0:0:0:
64,192,7343,1,0,0:0:0:0:
64,192,7568,1,8,0:0:0:0:
192,192,7568,1,0,0:0:0:0:
64,192,7794,1,8,0:0:0:0:
192,192,7794,1,0,0:0:0:0:
448,192,8019,1,8,0:0:0:0:
320,192,8019,1,0,0:0:0:0:
192,192,8132,1,0,0:0:0:0:
448,192,8245,1,2,0:0:0:0:
64,192,8245,1,0,0:0:0:0:
320,192,8470,1,8,0:0:0:0:
192,192,8470,1,0,0:0:0:0:
448,192,8583,1,2,0:0:0:0:
64,192,8583,1,0,0:0:0:0:
320,192,8696,1,8,0:0:0:0:
192,192,8696,1,0,0:0:0:0:
320,192,9034,1,0,0:0:0:0:
192,192,9147,1,2,0:0:0:0:
448,192,9147,1,0,0:0:0:0:
64,192,9373,1,8,0:0:0:0:
320,192,9373,1,0,0:0:0:0:
192,192,9486,1,0,0:0:0:0:
448,192,9598,1,2,0:0:0:0:
64,192,9598,1,0,0:0:0:0:
320,192,9598,1,0,0:0:0:0:
192,192,9824,1,8,0:0:0:0:
64,192,9824,1,0,0:0:0:0:
320,192,9937,1,0,0:0:0:0:
192,192,10049,1,2,0:0:0:0:
448,192,10049,1,0,0:0:0:0:
64,192,10275,1,2,0:0:0:0:
448,192,10275,1,0,0:0:0:0:
64,192,10388,1,2,0:0:0:0:
448,192,10388,1,0,0:0:0:0:
192,192,10501,1,8,0:0:0:0:
320,192,10501,1,0,0:0:0:0:
320,192,10839,1,0,0:0:0:0:
192,192,10952,1,2,0:0:0:0:
64,192,10952,1,0,0:0:0:0:
448,192,11177,1,8,0:0:0:0:
320,192,11177,1,0,0:0:0:0:
192,192,11290,1,0,0:0:0:0:
320,192,11403,1,8,0:0:0:0:
448,192,11403,1,0,0:0:0:0:
64,192,11628,1,8,0:0:0:0:
192,192,11628,1,0,0:0:0:0:
448,192,11741,1,0,0:0:0:0:
320,192,11854,1,2,0:0:0:0:
64,192,11854,1,0,0:0:0:0:
192,192,12079,1,8,0:0:0:0:
320,192,12079,1,0,0:0:0:0:
64,192,12192,1,0,0:0:0:0:
320,192,12305,1,8,0:0:0:0:
448,192,12305,1,0,0:0:0:0:
448,192,12531,1,0,0:0:0:0:
192,192,12643,1,0,0:0:0:0:
320,192,12756,1,2,0:0:0:0:
64,192,12756,1,0,0:0:0:0:
192,192,12982,1,8,0:0:0:0:
64,192,12982,1,0,0:0:0:0:
448,192,13095,1,0,0:0:0:0:
192,192,13207,1,8,0:0:0:0:
64,192,13207,1,0,0:0:0:0:
448,192,13433,1,8,0:0:0:0:
320,192,13433,1,0,0:0:0:0:
192,192,13546,1,0,0:0:0:0:
64,192,13658,1,2,0:0:0:0:
448,192,13658,1,0,0:0:0:0:
192,192,13884,1,8,0:0:0:0:
320,192,13884,1,0,0:0:0:0:
448,192,13997,1,0,0:0:0:0:
64,192,14110,1,8,0:0:0:0:
192,192,14110,1,0,0:0:0:0:
320,192,14335,1,0,0:0:0:0:
192,192,14448,1,0,0:0:0:0:
320,192,14561,1,2,0:0:0:0:
448,192,14561,1,0,0:0:0:0:
64,192,14786,1,8,0:0:0:0:
448,192,14786,1,0,0:0:0:0:
320,192,14899,1,0,0:0:0:0:
192,192,15012,1,8,0:0:0:0:
64,192,15012,1,0,0:0:0:0:
192,192,15237,1,8,0:0:0:0:
320,192,15237,1,0,0:0:0:0:
64,192,15350,1,0,0:0:0:0:
448,192,15463,1,2,0:0:0:0:
192,192,15463,1,0,0:0:0:0:
320,192,15689,1,8,0:0:0:0:
448,192,15689,1,0,0:0:0:0:
192,192,15801,1,0,0:0:0:0:
448,192,15914,1,8,0:0:0:0:
320,192,15914,1,0,0:0:0:0:
192,192,16140,1,0,0:0:0:0:
320,192,16252,1,0,0:0:0:0:
64,192,16365,1,2,0:0:0:0:
448,192,16365,1,0,0:0:0:0:
192,192,16478,1,0,0:0:0:0:
448,192,16591,1,8,0:0:0:0:
320,192,16704,1,0,0:0:0:0:
192,192,16816,1,2,0:0:0:0:
64,192,16816,1,0,0:0:0:0:
320,192,16929,1,0,0:0:0:0:
448,192,17042,1,8,0:0:0:0:
64,192,17155,1,0,0:0:0:0:
192,192,17267,1,2,0:0:0:0:
320,192,17267,1,0,0:0:0:0:
448,192,17380,1,0,0:0:0:0:
64,192,17493,1,8,0:0:0:0:
192,192,17549,1,8,0:0:0:0:
320,192,17606,1,8,0:0:0:0:
448,192,17662,1,8,0:0:0:0:
64,192,17719,1,8,0:0:0:0:
192,192,17719,1,4,0:0:0:0:
320,192,17831,1,0,0:0:0:0:
64,192,17944,1,2,2:0:0:0:
192,192,18057,1,0,0:0:0:0:
320,192,18170,1,2,0:0:0:0:
448,192,18170,1,0,0:0:0:0:
64,192,18282,1,0,0:0:0:0:
320,192,18395,1,2,2:0:0:0:
448,192,18508,1,0,0:0:0:0:
64,192,18621,1,8,0:0:0:0:
192,192,18621,1,0,0:0:0:0:
448,192,18734,1,0,0:0:0:0:
320,192,18846,1,2,2:0:0:0:
192,192,18959,1,0,0:0:0:0:
64,192,19072,1,2,0:0:0:0:
448,192,19072,1,0,0:0:0:0:
192,192,19185,1,0,0:0:0:0:
320,192,19298,1,2,2:0:0:0:
448,192,19410,1,0,0:0:0:0:
64,192,19523,1,8,0:0:0:0:
192,192,19523,1,0,0:0:0:0:
448,192,19636,1,0,0:0:0:0:
320,192,19749,1,2,2:0:0:0:
192,192,19861,1,0,0:0:0:0:
320,192,19974,1,2,0:0:0:0:
64,192,19974,1,0,0:0:0:0:
448,192,20087,1,0,0:0:0:0:
64,192,20200,1,2,2:0:0:0:
192,192,20313,1,0,0:0:0:0:
320,192,20425,1,8,0:0:0:0:
448,192,20425,1,0,0:0:0:0:
64,192,20538,1,0,0:0:0:0:
192,192,20651,1,2,2:0:0:0:
320,192,20764,1,0,0:0:0:0:
64,192,20876,1,2,0:0:0:0:
192,192,20876,1,0,0:0:0:0:
448,192,20989,1,0,0:0:0:0:
320,192,21102,1,2,2:0:0:0:
64,192,21215,1,0,0:0:0:0:
320,192,21328,1,8,0:0:0:0:
192,192,21328,1,0,0:0:0:0:
448,192,21440,1,0,0:0:0:0:
64,192,21553,1,2,2:0:0:0:
320,192,21666,1,0,0:0:0:0:
448,192,21779,1,2,0:0:0:0:
192,192,21779,1,0,0:0:0:0:
320,192,21892,1,0,0:0:0:0:
192,192,22004,1,2,2:0:0:0:
64,192,22117,1,0,0:0:0:0:
320,192,22230,1,8,0:0:0:0:
448,192,22230,1,0,0:0:0:0:
192,192,22343,1,0,0:0:0:0:
64,192,22455,1,2,2:0:0:0:
192,192,22568,1,0,0:0:0:0:
448,192,22681,1,2,0:0:0:0:
64,192,22681,1,0,0:0:0:0:
320,192,22794,1,0,0:0:0:0:
192,192,22907,1,2,2:0:0:0:
320,192,23019,1,0,0:0:0:0:
64,192,23132,1,8,0:0:0:0:
448,192,23132,1,0,0:0:0:0:
320,192,23358,1,0,0:0:0:0:
64,192,23583,1,2,0:0:0:0:
192,192,23583,1,0,0:0:0:0:
448,192,23583,1,0,0:0:0:0:
320,192,23809,1,0,0:0:0:0:
64,192,24034,1,8,0:0:0:0:
448,192,24034,1,0,0:0:0:0:
192,192,24260,1,0,0:0:0:0:
320,192,24373,1,0,0:0:0:0:
192,192,24598,1,0,0:0:0:0:
448,192,24711,1,8,0:0:0:0:
320,192,24767,1,8,0:0:0:0:
192,192,24824,1,8,0:0:0:0:
64,192,24880,1,8,0:0:0:0:
448,192,24937,1,8,0:0:0:0:
320,192,24937,1,4,0:0:0:0:
64,192,25049,1,0,0:0:0:0:
320,192,25162,1,2,2:0:0:0:
192,192,25275,1,0,0:0:0:0:
448,192,25388,1,2,0:0:0:0:
64,192,25388,1,0,0:0:0:0:
192,192,25501,1,0,0:0:0:0:
320,192,25613,1,2,2:0:0:0:
448,192,25726,1,0,0:0:0:0:
64,192,25839,1,8,0:0:0:0:
192,192,25839,1,0,0:0:0:0:
448,192,25952,1,0,0:0:0:0:
320,192,26064,1,2,2:0:0:0:
192,192,26177,1,0,0:0:0:0:
320,192,26290,1,2,0:0:0:0:
64,192,26290,1,0,0:0:0:0:
448,192,26403,1,0,0:0:0:0:
320,192,26516,1,2,2:0:0:0:
192,192,26628,1,0,0:0:0:0:
448,192,26741,1,8,0:0:0:0:
64,192,26741,1,0,0:0:0:0:
320,192,26854,1,0,0:0:0:0:
192,192,26967,1,2,2:0:0:0:
320,192,27079,1,0,0:0:0:0:
448,192,27192,1,2,0:0:0:0:
64,192,27192,1,0,0:0:0:0:
320,192,27305,1,0,0:0:0:0:
192,192,27418,1,2,2:0:0:0:
64,192,27531,1,0,0:0:0:0:
320,192,27643,1,8,0:0:0:0:
448,192,27643,1,0,0:0:0:0:
64,192,27756,1,0,0:0:0:0:
192,192,27869,1,2,2:0:0:0:
320,192,27982,1,0,0:0:0:0:
64,192,28095,1,2,0:0:0:0:
192,192,28095,1,0,0:0:0:0:
448,192,28207,1,0,0:0:0:0:
192,192,28320,1,2,2:0:0:0:
64,192,28433,1,0,0:0:0:0:
448,192,28546,1,8,0:0:0:0:
320,192,28546,1,0,0:0:0:0:
64,192,28658,1,0,0:0:0:0:
192,192,28771,1,2,2:0:0:0:
448,192,28884,1,0,0:0:0:0:
320,192,28997,1,2,0:0:0:0:
64,192,28997,1,0,0:0:0:0:
448,192,29110,1,0,0:0:0:0:
320,192,29222,1,2,2:0:0:0:
192,192,29335,1,0,0:0:0:0:
64,192,29448,1,8,0:0:0:0:
448,192,29448,1,0,0:0:0:0:
320,192,29561,1,0,0:0:0:0:
192,192,29673,1,2,2:0:0:0:
448,192,29786,1,0,0:0:0:0:
320,192,29899,1,2,0:0:0:0:
64,192,29899,1,0,0:0:0:0:
192,192,30012,1,0,0:0:0:0:
320,192,30125,1,2,2:0:0:0:
192,192,30237,1,0,0:0:0:0:
64,192,30350,1,8,0:0:0:0:
448,192,30350,1,0,0:0:0:0:
320,192,30576,1,0,0:0:0:0:
64,192,30801,1,2,0:0:0:0:
448,192,30801,1,0,0:0:0:0:
192,192,31027,1,8,0:0:0:0:
64,192,31027,1,0,0:0:0:0:
192,192,31252,1,8,0:0:0:0:
64,192,31252,1,0,0:0:0:0:
192,192,31478,1,8,0:0:0:0:
64,192,31478,1,0,0:0:0:0:
448,192,31591,1,0,0:0:0:0:
192,192,31816,1,0,0:0:0:0:
448,192,31929,1,8,0:0:0:0:
64,192,31986,1,8,0:0:0:0:
192,192,32042,1,8,0:0:0:0:
320,192,32098,1,8,0:0:0:0:
64,192,32155,1,8,0:0:0:0:
192,192,32155,1,4,0:0:0:0:
448,192,32155,1,0,0:0:0:0:
320,192,32267,1,0,0:0:0:0:
192,192,32380,1,2,2:0:0:0:
448,192,32606,1,2,0:0:0:0:
64,192,32606,1,0,0:0:0:0:
320,192,32719,1,0,0:0:0:0:
192,192,32831,1,2,2:0:0:0:
64,192,32831,1,8,0:0:0:0:
320,192,32944,1,0,0:0:0:0:
192,192,33057,1,8,0:0:0:0:
64,192,33057,1,0,0:0:0:0:
448,192,33170,1,0,0:0:0:0:
320,192,33282,1,2,2:0:0:0:
64,192,33282,1,8,0:0:0:0:
448,192,33395,1,0,0:0:0:0:
64,192,33508,1,2,0:0:0:0:
192,192,33508,1,0,0:0:0:0:
320,192,33621,1,0,0:0:0:0:
192,192,33734,1,2,2:0:0:0:
448,192,33734,1,8,0:0:0:0:
64,192,33846,1,0,0:0:0:0:
320,192,33959,1,8,0:0:0:0:
448,192,33959,1,0,0:0:0:0:
64,192,34072,1,0,0:0:0:0:
192,192,34185,1,2,2:0:0:0:
448,192,34410,1,2,0:0:0:0:
64,192,34410,1,0,0:0:0:0:
192,192,34523,1,0,0:0:0:0:
320,192,34636,1,2,2:0:0:0:
448,192,34636,1,8,0:0:0:0:
192,192,34749,1,0,0:0:0:0:
320,192,34861,1,8,0:0:0:0:
448,192,34861,1,0,0:0:0:0:
64,192,34974,1,0,0:0:0:0:
448,192,35087,1,2,2:0:0:0:
192,192,35087,1,8,0:0:0:0:
64,192,35200,1,0,0:0:0:0:
320,192,35313,1,2,0:0:0:0:
192,192,35313,1,0,0:0:0:0:
448,192,35425,1,0,0:0:0:0:
320,192,35538,1,2,2:0:0:0:
64,192,35538,1,8,0:0:0:0:
192,192,35651,1,0,0:0:0:0:
64,192,35764,1,8,0:0:0:0:
448,192,35764,1,0,0:0:0:0:
192,192,35876,1,0,0:0:0:0:
320,192,35989,1,2,2:0:0:0:
192,192,36215,1,2,0:0:0:0:
448,192,36215,1,0,0:0:0:0:
320,192,36328,1,0,0:0:0:0:
64,192,36440,1,2,2:0:0:0:
320,192,36553,1,0,0:0:0:0:
64,192,36666,1,8,0:0:0:0:
192,192,36666,1,0,0:0:0:0:
320,192,36779,1,0,0:0:0:0:
64,192,36892,1,2,2:0:0:0:
448,192,37004,1,0,0:0:0:0:
320,192,37117,1,2,0:0:0:0:
64,192,37117,1,0,0:0:0:0:
192,192,37230,1,0,0:0:0:0:
320,192,37343,1,2,2:0:0:0:
64,192,37455,1,0,0:0:0:0:
192,192,37568,1,8,0:0:0:0:
448,192,37568,1,0,0:0:0:0:
320,192,37681,1,0,0:0:0:0:
192,192,37794,1,2,2:0:0:0:
320,192,37907,1,0,0:0:0:0:
64,192,38019,1,2,0:0:0:0:
448,192,38019,1,0,0:0:0:0:
320,192,38132,1,0,0:0:0:0:
192,192,38245,1,2,2:0:0:0:
64,192,38358,1,0,0:0:0:0:
320,192,38470,1,2,0:0:0:0:
448,192,38470,1,0,0:0:0:0:
64,192,38583,1,0,0:0:0:0:
192,192,38696,1,2,2:0:0:0:
320,192,38809,1,0,0:0:0:0:
448,192,38922,1,2,0:0:0:0:
192,192,38922,1,0,0:0:0:0:
64,192,39034,1,0,0:0:0:0:
320,192,39147,1,2,0:0:0:0:
192,192,39260,1,2,0:0:0:0:
64,192,39373,1,8,0:0:0:0:
448,192,39373,1,0,0:0:0:0:
320,192,39486,1,0,0:0:0:0:
192,192,39598,1,2,2:0:0:0:
320,192,39711,1,0,0:0:0:0:
448,192,39824,1,2,0:0:0:0:
64,192,39824,1,0,0:0:0:0:
320,192,39937,1,0,0:0:0:0:
64,192,40049,1,2,2:0:0:0:
192,192,40049,1,8,0:0:0:0:
320,192,40162,1,0,0:0:0:0:
64,192,40275,1,8,0:0:0:0:
192,192,40275,1,0,0:0:0:0:
320,192,40388,1,0,0:0:0:0:
448,192,40501,1,2,2:0:0:0:
64,192,40501,1,8,0:0:0:0:
192,192,40613,1,0,0:0:0:0:
320,192,40726,1,2,0:0:0:0:
448,192,40726,1,0,0:0:0:0:
64,192,40839,1,0,0:0:0:0:
192,192,40952,1,2,2:0:0:0:
448,192,40952,1,0,0:0:0:0:
320,192,41064,1,0,0:0:0:0:
64,192,41177,1,8,0:0:0:0:
448,192,41177,1,0,0:0:0:0:
320,192,41290,1,0,0:0:0:0:
192,192,41403,1,2,2:0:0:0:
320,192,41516,1,0,0:0:0:0:
64,192,41628,1,2,0:0:0:0:
448,192,41628,1,0,0:0:0:0:
192,192,41741,1,0,0:0:0:0:
320,192,41854,1,2,2:0:0:0:
448,192,41967,1,0,0:0:0:0:
320,192,42079,1,8,0:0:0:0:
64,192,42079,1,0,0:0:0:0:
448,192,42192,1,0,0:0:0:0:
64,192,42305,1,2,2:0:0:0:
192,192,42305,1,8,0:0:0:0:
320,192,42418,1,0,0:0:0:0:
448,192,42531,1,2,0:0:0:0:
192,192,42531,1,0,0:0:0:0:
64,192,42643,1,0,0:0:0:0:
320,192,42756,1,2,2:0:0:0:
448,192,42756,1,8,0:0:0:0:
192,192,42869,1,0,0:0:0:0:
448,192,42982,1,8,0:0:0:0:
64,192,42982,1,0,0:0:0:0:
320,192,43095,1,0,0:0:0:0:
192,192,43207,1,2,2:0:0:0:
448,192,43320,1,0,0:0:0:0:
64,192,43433,1,2,0:0:0:0:
320,192,43433,1,0,0:0:0:0:
192,192,43546,1,0,0:0:0:0:
448,192,43658,1,2,2:0:0:0:
320,192,43771,1,0,0:0:0:0:
64,192,43884,1,8,0:0:0:0:
192,192,43884,1,0,0:0:0:0:
448,192,43997,1,0,0:0:0:0:
320,192,44110,1,2,2:0:0:0:
192,192,44222,1,0,0:0:0:0:
448,192,44335,1,2,0:0:0:0:
64,192,44335,1,0,0:0:0:0:
320,192,44448,1,0,0:0:0:0:
192,192,44561,1,2,2:0:0:0:
320,192,44673,1,0,0:0:0:0:
64,192,44786,1,8,0:0:0:0:
448,192,44786,1,0,0:0:0:0:
64,192,45237,1,2,0:0:0:0:
320,192,45237,1,0,0:0:0:0:
64,192,45689,1,2,0:0:0:0:
192,192,45689,1,0,0:0:0:0:
448,192,45689,1,0,0:0:0:0:
64,192,46140,1,2,0:0:0:0:
320,192,46140,1,0,0:0:0:0:
64,192,46365,1,8,0:0:0:0:
192,192,46422,1,8,0:0:0:0:
320,192,46478,1,8,0:0:0:0:
448,192,46534,1,8,0:0:0:0:
64,192,46591,1,8,0:0:0:0:
320,192,46591,1,4,0:0:0:0:
192,192,46591,1,0,0:0:0:40:G4.wav
192,192,47042,1,2,0:0:0:0:
448,192,47042,1,0,0:0:0:0:
448,192,47267,1,8,0:0:0:0:
320,192,47267,1,0,0:0:0:0:
448,192,47493,1,8,0:0:0:0:
320,192,47493,1,0,0:0:0:0:
448,192,47719,1,8,0:0:0:0:
320,192,47719,1,0,0:0:0:0:
192,192,47944,1,2,0:0:0:0:
448,192,47944,1,0,0:0:0:0:
320,192,48170,1,8,0:0:0:0:
192,192,48170,1,0,0:0:0:0:
448,192,48395,1,8,0:0:0:0:
64,192,48395,1,0,0:0:0:40:C6.wav
320,192,48846,1,2,0:0:0:0:
64,192,48846,1,0,0:0:0:0:
192,192,49072,1,8,0:0:0:0:
64,192,49072,1,0,0:0:0:0:
192,192,49298,1,8,0:0:0:0:
64,192,49298,1,0,0:0:0:0:
192,192,49523,1,8,0:0:0:0:
64,192,49523,1,0,0:0:0:0:
448,192,49749,1,2,0:0:0:0:
64,192,49749,1,0,0:0:0:0:
320,192,49974,1,8,0:0:0:0:
192,192,49974,1,0,0:0:0:0:
448,192,50200,1,0,0:0:0:40:D6.wav
64,192,50651,1,2,0:0:0:0:
320,192,50651,1,0,0:0:0:0:
448,192,50876,1,8,0:0:0:0:
320,192,50876,1,0,0:0:0:0:
192,192,51102,1,8,0:0:0:0:
64,192,51102,1,0,0:0:0:0:
448,192,51328,1,8,0:0:0:0:
320,192,51328,1,0,0:0:0:0:
64,192,51553,1,2,0:0:0:0:
320,192,51553,1,0,0:0:0:0:
192,192,51779,1,8,0:0:0:0:
64,192,51779,1,0,0:0:0:0:
448,192,51892,1,2,0:0:0:0:
320,192,51892,1,0,0:0:0:0:
192,192,52004,1,8,0:0:0:0:
64,192,52004,1,0,0:0:0:40:D#6.wav
192,192,52455,1,2,0:0:0:0:
448,192,52455,1,0,0:0:0:0:
320,192,52681,1,8,0:0:0:0:
192,192,52681,1,0,0:0:0:0:
320,192,52907,1,2,0:0:0:0:
64,192,52907,1,0,0:0:0:0:
320,192,53132,1,8,0:0:0:0:
192,192,53132,1,0,0:0:0:0:
192,192,53358,1,2,0:0:0:0:
448,192,53358,1,0,0:0:0:0:
64,192,53583,1,2,0:0:0:0:
448,192,53583,1,0,0:0:0:0:
64,192,53696,1,2,0:0:0:0:
448,192,53696,1,0,0:0:0:0:
192,192,53809,1,8,0:0:0:0:
320,192,53809,1,0,0:0:0:40:D#6.wav
64,192,54260,1,2,0:0:0:0:
320,192,54260,1,0,0:0:0:0:
192,192,54486,1,8,0:0:0:0:
320,192,54486,1,0,0:0:0:0:
192,192,54711,1,8,0:0:0:0:
320,192,54711,1,0,0:0:0:0:
192,192,54937,1,8,0:0:0:0:
320,192,54937,1,0,0:0:0:0:
64,192,55162,1,2,0:0:0:0:
448,192,55162,1,0,0:0:0:0:
192,192,55388,1,8,0:0:0:0:
320,192,55388,1,0,0:0:0:0:
448,192,55613,1,8,0:0:0:0:
320,192,55613,1,0,0:0:0:40:F6.wav
192,192,56064,1,2,0:0:0:0:
448,192,56064,1,0,0:0:0:0:
320,192,56290,1,8,0:0:0:0:
192,192,56290,1,0,0:0:0:0:
320,192,56516,1,8,0:0:0:0:
192,192,56516,1,0,0:0:0:0:
320,192,56741,1,8,0:0:0:0:
192,192,56741,1,0,0:0:0:0:
64,192,56967,1,2,0:0:0:0:
448,192,56967,1,0,0:0:0:0:
192,192,57192,1,8,0:0:0:0:
320,192,57192,1,0,0:0:0:0:
64,192,57418,1,0,0:0:0:40:D6.wav
192,192,57418,1,8,0:0:0:0:
64,192,57869,1,2,0:0:0:0:
320,192,57869,1,0,0:0:0:0:
192,192,58095,1,8,0:0:0:0:
64,192,58095,1,0,0:0:0:0:
448,192,58320,1,8,0:0:0:0:
320,192,58320,1,0,0:0:0:0:
192,192,58546,1,8,0:0:0:0:
64,192,58546,1,0,0:0:0:0:
64,192,58771,1,2,0:0:0:0:
320,192,58771,1,0,0:0:0:0:
192,192,58997,1,8,0:0:0:0:
448,192,58997,1,0,0:0:0:0:
320,192,59110,1,2,0:0:0:0:
64,192,59110,1,0,0:0:0:0:
448,192,59222,1,8,0:0:0:0:
192,192,59222,1,0,0:0:0:40:F6.wav
64,192,59673,1,2,0:0:0:0:
320,192,59673,1,0,0:0:0:0:
320,192,59899,1,8,0:0:0:0:
192,192,59899,1,0,0:0:0:0:
64,192,60125,1,2,0:0:0:0:
320,192,60125,1,0,0:0:0:40:D6.wav
192,192,60350,1,8,0:0:0:0:
320,192,60350,1,0,0:0:0:0:
64,192,60576,1,2,0:0:0:0:
320,192,60576,1,0,0:0:0:0:
448,192,60801,1,8,0:0:0:0:
320,192,60858,1,8,0:0:0:0:
192,192,60914,1,8,0:0:0:0:
64,192,60970,1,8,0:0:0:0:
192,192,61027,1,8,0:0:0:0:
448,192,61027,1,4,0:0:0:0:
320,192,61027,1,0,0:0:0:0:
320,192,61478,1,2,0:0:0:0:
448,192,61478,1,0,0:0:0:0:
64,192,61929,1,8,0:0:0:0:
192,192,61929,1,0,0:0:0:0:
448,192,62380,1,2,0:0:0:0:
192,192,62380,1,0,0:0:0:0:
192,192,62606,1,8,0:0:0:0:
320,192,62606,1,0,0:0:0:0:
192,192,62831,1,8,0:0:0:0:
320,192,62831,1,0,0:0:0:0:
64,192,63282,1,2,0:0:0:0:
448,192,63282,1,0,0:0:0:0:
64,192,63734,1,8,0:0:0:0:
192,192,63734,1,0,0:0:0:0:
64,192,64185,1,2,0:0:0:0:
448,192,64185,1,0,0:0:0:0:
192,192,64410,1,8,0:0:0:0:
320,192,64410,1,0,0:0:0:0:
320,192,64636,1,8,0:0:0:0:
448,192,64636,1,0,0:0:0:0:
64,192,65087,1,2,0:0:0:0:
320,192,65087,1,0,0:0:0:0:
64,192,65313,1,8,0:0:0:0:
192,192,65313,1,0,0:0:0:0:
64,192,65538,1,8,0:0:0:0:
192,192,65538,1,0,0:0:0:0:
320,192,65764,1,8,0:0:0:0:
448,192,65764,1,0,0:0:0:0:
192,192,65989,1,2,0:0:0:0:
448,192,65989,1,0,0:0:0:0:
192,192,66215,1,8,0:0:0:0:
320,192,66215,1,0,0:0:0:0:
64,192,66328,1,2,0:0:0:0:
448,192,66328,1,0,0:0:0:0:
320,192,66440,1,8,0:0:0:0:
192,192,66440,1,0,0:0:0:0:
448,192,66892,1,2,0:0:0:0:
64,192,66892,1,0,0:0:0:0:
320,192,67117,1,8,0:0:0:0:
192,192,67117,1,0,0:0:0:0:
64,192,67343,1,2,0:0:0:0:
192,192,67343,1,0,0:0:0:0:
448,192,67343,1,0,0:0:0:0:
192,192,67568,1,8,0:0:0:0:
320,192,67568,1,0,0:0:0:0:
64,192,67794,1,2,0:0:0:0:
448,192,67794,1,0,0:0:0:0:
64,192,68019,1,2,0:0:0:0:
448,192,68019,1,0,0:0:0:0:
64,192,68132,1,2,0:0:0:0:
448,192,68132,1,0,0:0:0:0:
192,192,68245,1,8,0:0:0:0:
320,192,68245,1,0,0:0:0:0:
64,192,68696,1,2,0:0:0:0:
448,192,68696,1,0,0:0:0:0:
320,192,69147,1,8,0:0:0:0:
448,192,69147,1,0,0:0:0:0:
64,192,69598,1,2,0:0:0:0:
448,192,69598,1,0,0:0:0:0:
192,192,69824,1,8,0:0:0:0:
64,192,69824,1,0,0:0:0:0:
320,192,70049,1,8,0:0:0:0:
448,192,70049,1,0,0:0:0:0:
64,192,70162,1,0,0:0:0:0:
192,192,70275,1,0,0:0:0:0:
320,192,70388,1,0,0:0:0:0:
448,192,70501,1,2,0:0:0:0:
64,192,70501,1,0,0:0:0:0:
320,192,70613,1,0,0:0:0:0:
64,192,70726,1,0,0:0:0:0:
320,192,70839,1,0,0:0:0:0:
192,192,70952,1,8,0:0:0:0:
64,192,70952,1,0,0:0:0:0:
448,192,71064,1,0,0:0:0:0:
320,192,71177,1,0,0:0:0:0:
192,192,71290,1,0,0:0:0:0:
64,192,71403,1,2,0:0:0:0:
448,192,71403,1,0,0:0:0:0:
192,192,71516,1,0,0:0:0:0:
448,192,71628,1,8,0:0:0:0:
320,192,71628,1,0,0:0:0:0:
192,192,71741,1,0,0:0:0:0:
448,192,71854,1,8,0:0:0:0:
320,192,71854,1,0,0:0:0:0:
64,192,71967,1,0,0:0:0:0:
192,192,72079,1,0,0:0:0:0:
320,192,72192,1,0,0:0:0:0:
64,192,72305,1,2,0:0:0:0:
448,192,72305,1,0,0:0:0:0:
192,192,72418,1,0,0:0:0:0:
320,192,72531,1,8,0:0:0:0:
448,192,72531,1,0,0:0:0:0:
192,192,72643,1,0,0:0:0:0:
320,192,72756,1,8,0:0:0:0:
64,192,72756,1,0,0:0:0:0:
448,192,72869,1,0,0:0:0:0:
320,192,72982,1,8,0:0:0:0:
192,192,72982,1,0,0:0:0:0:
64,192,73095,1,0,0:0:0:0:
448,192,73207,1,2,0:0:0:0:
192,192,73207,1,0,0:0:0:0:
320,192,73320,1,0,0:0:0:0:
192,192,73433,1,8,0:0:0:0:
64,192,73433,1,0,0:0:0:0:
320,192,73546,1,0,0:0:0:0:
64,192,73658,1,8,0:0:0:0:
448,192,73658,1,0,0:0:0:0:
192,192,73715,1,8,0:0:0:0:
320,192,73771,1,8,0:0:0:0:
448,192,73828,1,8,0:0:0:0:
64,192,73884,1,8,0:0:0:0:
320,192,73997,1,0,0:0:0:0:
192,192,74110,1,8,0:0:0:0:
64,192,74110,1,0,0:0:0:0:
448,192,74222,1,0,0:0:0:0:
64,192,74335,1,0,0:0:0:0:
448,192,74448,1,0,0:0:0:0:
192,192,74561,1,8,0:0:0:0:
320,192,74561,1,0,0:0:0:0:
64,192,74673,1,0,0:0:0:0:
448,192,74786,1,8,0:0:0:0:
320,192,74843,1,8,0:0:0:0:
192,192,74899,1,8,0:0:0:0:
64,192,74955,1,8,0:0:0:0:
320,192,75012,1,8,0:0:0:0:
448,192,75068,1,8,0:0:0:0:
64,192,75125,1,8,0:0:0:0:
192,192,75181,1,8,0:0:0:0:
448,192,75237,1,8,0:0:0:0:
320,192,75294,1,8,0:0:0:0:
192,192,75350,1,8,0:0:0:0:
64,192,75407,1,8,0:0:0:0:
320,192,75463,1,8,0:0:0:0:
448,192,75463,1,4,0:0:0:0:
64,192,75576,1,0,0:0:0:0:
192,192,75689,1,2,2:0:0:0:
320,192,75801,1,0,0:0:0:0:
64,192,75914,1,2,0:0:0:0:
192,192,75914,1,0,0:0:0:0:
320,192,76027,1,0,0:0:0:0:
448,192,76140,1,2,2:0:0:0:
192,192,76252,1,0,0:0:0:0:
320,192,76365,1,8,0:0:0:0:
64,192,76365,1,0,0:0:0:0:
448,192,76478,1,0,0:0:0:0:
320,192,76591,1,2,2:0:0:0:
192,192,76704,1,0,0:0:0:0:
448,192,76816,1,2,0:0:0:0:
64,192,76816,1,0,0:0:0:0:
192,192,76929,1,0,0:0:0:0:
320,192,77042,1,2,2:0:0:0:
448,192,77155,1,0,0:0:0:0:
64,192,77267,1,8,0:0:0:0:
192,192,77267,1,0,0:0:0:0:
320,192,77380,1,0,0:0:0:0:
64,192,77493,1,2,2:0:0:0:
320,192,77606,1,0,0:0:0:0:
192,192,77719,1,2,0:0:0:0:
448,192,77719,1,0,0:0:0:0:
192,192,77831,1,0,0:0:0:0:
448,192,77944,1,2,2:0:0:0:
448,192,78057,1,0,0:0:0:0:
64,192,78170,1,8,0:0:0:0:
192,192,78170,1,0,0:0:0:0:
320,192,78282,1,0,0:0:0:0:
448,192,78395,1,2,2:0:0:0:
448,192,78508,1,0,0:0:0:0:
320,192,78621,1,2,0:0:0:0:
192,192,78621,1,0,0:0:0:0:
64,192,78734,1,0,0:0:0:0:
64,192,78846,1,2,2:0:0:0:
64,192,78959,1,0,0:0:0:0:
448,192,79072,1,8,0:0:0:0:
320,192,79072,1,0,0:0:0:0:
192,192,79185,1,0,0:0:0:0:
64,192,79298,1,2,2:0:0:0:
192,192,79410,1,0,0:0:0:0:
448,192,79523,1,2,0:0:0:0:
320,192,79523,1,0,0:0:0:0:
192,192,79636,1,0,0:0:0:0:
448,192,79749,1,2,2:0:0:0:
320,192,79861,1,0,0:0:0:0:
64,192,79974,1,8,0:0:0:0:
448,192,79974,1,0,0:0:0:0:
192,192,80087,1,0,0:0:0:0:
320,192,80200,1,2,2:0:0:0:
192,192,80313,1,0,0:0:0:0:
64,192,80425,1,2,0:0:0:0:
320,192,80425,1,0,0:0:0:0:
192,192,80538,1,0,0:0:0:0:
448,192,80651,1,2,2:0:0:0:
320,192,80764,1,0,0:0:0:0:
64,192,80876,1,8,0:0:0:0:
192,192,80876,1,0,0:0:0:0:
448,192,80989,1,0,0:0:0:0:
192,192,81102,1,2,2:0:0:0:
320,192,81215,1,0,0:0:0:0:
64,192,81328,1,2,0:0:0:0:
448,192,81328,1,0,0:0:0:0:
320,192,81440,1,0,0:0:0:0:
64,192,81553,1,2,2:0:0:0:
64,192,81666,1,0,0:0:0:0:
448,192,81779,1,8,0:0:0:0:
320,192,81779,1,0,0:0:0:0:
192,192,81892,1,0,0:0:0:0:
64,192,82004,1,2,2:0:0:0:
64,192,82117,1,0,0:0:0:0:
320,192,82230,1,2,0:0:0:0:
192,192,82230,1,0,0:0:0:0:
448,192,82343,1,0,0:0:0:0:
448,192,82455,1,2,2:0:0:0:
448,192,82568,1,0,0:0:0:0:
64,192,82681,1,8,0:0:0:0:
192,192,82681,1,0,0:0:0:0:
320,192,82794,1,0,0:0:0:0:
448,192,82907,1,2,2:0:0:0:
192,192,83019,1,0,0:0:0:0:
64,192,83132,1,2,0:0:0:0:
320,192,83132,1,0,0:0:0:0:
448,192,83245,1,0,0:0:0:0:
320,192,83358,1,2,2:0:0:0:
448,192,83470,1,0,0:0:0:0:
64,192,83583,1,8,0:0:0:0:
192,192,83583,1,0,0:0:0:0:
320,192,83696,1,0,0:0:0:0:
192,192,83809,1,2,2:0:0:0:
320,192,83922,1,0,0:0:0:0:
448,192,84034,1,2,0:0:0:0:
64,192,84034,1,0,0:0:0:0:
192,192,84147,1,0,0:0:0:0:
64,192,84260,1,2,2:0:0:0:
192,192,84373,1,0,0:0:0:0:
448,192,84486,1,8,0:0:0:0:
320,192,84486,1,0,0:0:0:0:
64,192,84598,1,0,0:0:0:0:
192,192,84711,1,2,2:0:0:0:
320,192,84824,1,0,0:0:0:0:
64,192,84937,1,2,0:0:0:0:
448,192,84937,1,0,0:0:0:0:
320,192,85049,1,0,0:0:0:0:
320,192,85162,1,2,2:0:0:0:
320,192,85275,1,0,0:0:0:0:
64,192,85388,1,8,0:0:0:0:
192,192,85388,1,0,0:0:0:0:
448,192,85501,1,0,0:0:0:0:
320,192,85613,1,2,2:0:0:0:
192,192,85726,1,0,0:0:0:0:
64,192,85839,1,2,0:0:0:0:
448,192,85839,1,0,0:0:0:0:
192,192,85952,1,0,0:0:0:0:
320,192,86064,1,2,2:0:0:0:
192,192,86177,1,0,0:0:0:0:
64,192,86290,1,8,0:0:0:0:
448,192,86290,1,0,0:0:0:0:
320,192,86403,1,0,0:0:0:0:
192,192,86516,1,2,2:0:0:0:
448,192,86628,1,0,0:0:0:0:
320,192,86741,1,2,0:0:0:0:
192,192,86741,1,0,0:0:0:0:
64,192,86854,1,0,0:0:0:0:
192,192,86967,1,2,2:0:0:0:
64,192,87079,1,0,0:0:0:0:
320,192,87192,1,8,0:0:0:0:
448,192,87192,1,0,0:0:0:0:
192,192,87305,1,0,0:0:0:0:
320,192,87418,1,2,2:0:0:0:
192,192,87531,1,0,0:0:0:0:
64,192,87643,1,2,0:0:0:0:
448,192,87643,1,0,0:0:0:0:
320,192,87756,1,0,0:0:0:0:
448,192,87869,1,2,2:0:0:0:
320,192,87982,1,0,0:0:0:0:
192,192,88095,1,8,0:0:0:0:
64,192,88095,1,0,0:0:0:0:
448,192,88207,1,0,0:0:0:0:
320,192,88320,1,2,2:0:0:0:
192,192,88433,1,0,0:0:0:0:
448,192,88546,1,2,0:0:0:0:
64,192,88546,1,0,0:0:0:0:
192,192,88658,1,0,0:0:0:0:
192,192,88771,1,2,2:0:0:0:
192,192,88884,1,0,0:0:0:0:
448,192,88997,1,8,0:0:0:0:
320,192,88997,1,0,0:0:0:0:
64,192,89110,1,0,0:0:0:0:
192,192,89222,1,2,2:0:0:0:
320,192,89335,1,0,0:0:0:0:
448,192,89448,1,2,0:0:0:0:
64,192,89448,1,0,0:0:0:0:
320,192,89561,1,0,0:0:0:0:
320,192,89673,1,2,2:0:0:0:
320,192,89786,1,0,0:0:0:0:
64,192,89899,1,8,0:0:0:0:
448,192,89899,1,4,0:0:0:0:
320,192,90012,1,0,0:0:0:0:
192,192,90125,1,2,2:0:0:0:
448,192,90237,1,0,0:0:0:0:
64,192,90350,1,2,0:0:0:0:
320,192,90350,1,0,0:0:0:0:
448,192,90463,1,0,0:0:0:0:
192,192,90576,1,2,2:0:0:0:
64,192,90689,1,0,0:0:0:0:
448,192,90801,1,8,0:0:0:0:
320,192,90801,1,0,0:0:0:0:
192,192,90914,1,0,0:0:0:0:
320,192,91027,1,2,2:0:0:0:
64,192,91140,1,0,0:0:0:0:
448,192,91252,1,2,0:0:0:0:
192,192,91252,1,0,0:0:0:0:
64,192,91365,1,0,0:0:0:0:
192,192,91478,1,2,2:0:0:0:
320,192,91591,1,0,0:0:0:0:
448,192,91704,1,8,0:0:0:0:
64,192,91704,1,0,0:0:0:0:
192,192,91816,1,0,0:0:0:0:
448,192,91929,1,2,2:0:0:0:
192,192,92042,1,0,0:0:0:0:
320,192,92155,1,2,0:0:0:0:
448,192,92155,1,0,0:0:0:0:
448,192,92267,1,0,0:0:0:0:
192,192,92380,1,2,2:0:0:0:
192,192,92493,1,0,0:0:0:0:
448,192,92606,1,8,0:0:0:0:
320,192,92606,1,0,0:0:0:0:
64,192,92719,1,0,0:0:0:0:
320,192,92831,1,2,2:0:0:0:
320,192,92944,1,0,0:0:0:0:
64,192,93057,1,2,0:0:0:0:
448,192,93057,1,0,0:0:0:0:
192,192,93170,1,0,0:0:0:0:
192,192,93282,1,2,2:0:0:0:
192,192,93395,1,0,0:0:0:0:
64,192,93508,1,8,0:0:0:0:
448,192,93508,1,0,0:0:0:0:
320,192,93621,1,0,0:0:0:0:
448,192,93734,1,2,2:0:0:0:
64,192,93846,1,0,0:0:0:0:
192,192,93959,1,2,0:0:0:0:
448,192,93959,1,0,0:0:0:0:
64,192,94072,1,0,0:0:0:0:
320,192,94185,1,2,2:0:0:0:
192,192,94298,1,0,0:0:0:0:
448,192,94410,1,8,0:0:0:0:
64,192,94410,1,0,0:0:0:0:
320,192,94523,1,0,0:0:0:0:
192,192,94636,1,2,2:0:0:0:
448,192,94749,1,0,0:0:0:0:
320,192,94861,1,2,0:0:0:0:
64,192,94861,1,0,0:0:0:0:
448,192,94974,1,0,0:0:0:0:
64,192,95087,1,2,2:0:0:0:
320,192,95200,1,0,0:0:0:0:
448,192,95313,1,8,0:0:0:0:
192,192,95313,1,0,0:0:0:0:
64,192,95425,1,0,0:0:0:0:
320,192,95538,1,2,2:0:0:0:
192,192,95651,1,0,0:0:0:0:
448,192,95764,1,2,0:0:0:0:
64,192,95764,1,0,0:0:0:0:
192,192,95876,1,0,0:0:0:0:
320,192,95989,1,2,2:0:0:0:
320,192,96102,1,0,0:0:0:0:
64,192,96215,1,8,0:0:0:0:
192,192,96215,1,0,0:0:0:0:
448,192,96328,1,0,0:0:0:0:
192,192,96440,1,2,2:0:0:0:
192,192,96553,1,0,0:0:0:0:
64,192,96666,1,2,0:0:0:0:
448,192,96666,1,0,0:0:0:0:
320,192,96779,1,0,0:0:0:0:
320,192,96892,1,2,2:0:0:0:
320,192,97004,1,0,0:0:0:0:
448,192,97117,1,8,0:0:0:0:
64,192,97117,1,0,0:0:0:0:
192,192,97230,1,0,0:0:0:0:
320,192,97343,1,2,2:0:0:0:
64,192,97455,1,0,0:0:0:0:
192,192,97568,1,2,0:0:0:0:
448,192,97568,1,0,0:0:0:0:
64,192,97681,1,0,0:0:0:0:
320,192,97794,1,2,2:0:0:0:
64,192,97907,1,0,0:0:0:0:
448,192,98019,1,8,0:0:0:0:
192,192,98019,1,0,0:0:0:0:
320,192,98132,1,0,0:0:0:0:
192,192,98245,1,2,2:0:0:0:
448,192,98358,1,0,0:0:0:0:
320,192,98470,1,2,0:0:0:0:
64,192,98470,1,0,0:0:0:0:
448,192,98583,1,0,0:0:0:0:
320,192,98696,1,2,2:0:0:0:
64,192,98809,1,0,0:0:0:0:
320,192,98922,1,8,0:0:0:0:
192,192,98922,1,0,0:0:0:0:
448,192,99034,1,0,0:0:0:0:
64,192,99147,1,2,2:0:0:0:
448,192,99260,1,0,0:0:0:0:
192,192,99373,1,2,0:0:0:0:
64,192,99373,1,0,0:0:0:0:
448,192,99486,1,0,0:0:0:0:
448,192,99598,1,2,2:0:0:0:
448,192,99711,1,0,0:0:0:0:
64,192,99824,1,8,0:0:0:0:
192,192,99824,1,0,0:0:0:0:
320,192,99937,1,0,0:0:0:0:
64,192,100049,1,2,2:0:0:0:
448,192,100162,1,0,0:0:0:0:
320,192,100275,1,2,0:0:0:0:
64,192,100275,1,0,0:0:0:0:
448,192,100388,1,0,0:0:0:0:
192,192,100501,1,2,2:0:0:0:
64,192,100613,1,0,0:0:0:0:
320,192,100726,1,8,0:0:0:0:
448,192,100726,1,0,0:0:0:0:
192,192,100839,1,0,0:0:0:0:
448,192,100952,1,2,2:0:0:0:
64,192,101064,1,0,0:0:0:0:
320,192,101177,1,2,0:0:0:0:
448,192,101177,1,0,0:0:0:0:
64,192,101290,1,0,0:0:0:0:
64,192,101403,1,2,2:0:0:0:
64,192,101516,1,0,0:0:0:0:
320,192,101628,1,8,0:0:0:0:
448,192,101628,1,0,0:0:0:0:
192,192,101741,1,0,0:0:0:0:
64,192,101854,1,2,2:0:0:0:
448,192,101967,1,0,0:0:0:0:
64,192,102079,1,2,0:0:0:0:
192,192,102079,1,0,0:0:0:0:
448,192,102192,1,0,0:0:0:0:
448,192,102305,1,2,2:0:0:0:
448,192,102418,1,0,0:0:0:0:
192,192,102531,1,8,0:0:0:0:
64,192,102531,1,0,0:0:0:0:
320,192,102587,1,8,0:0:0:0:
448,192,102643,1,8,0:0:0:0:
64,192,102700,1,8,0:0:0:0:
192,192,102756,1,8,0:0:0:0:
320,192,102813,1,8,0:0:0:0:
448,192,102869,1,8,0:0:0:0:
64,192,102982,1,0,0:0:0:0:
192,192,103095,1,0,0:0:0:0:
448,192,103207,1,0,0:0:0:0:
64,192,103320,1,0,0:0:0:0:
320,192,103433,1,0,0:0:0:0:
192,192,103546,1,8,0:0:0:0:
448,192,103658,1,8,0:0:0:0:
320,192,103715,1,8,0:0:0:0:
192,192,103771,1,8,0:0:0:0:
64,192,103828,1,8,0:0:0:0:
448,192,103884,1,8,0:0:0:0:
320,192,103940,1,8,0:0:0:0:
192,192,103997,1,8,0:0:0:0:
64,192,104053,1,8,0:0:0:0:
320,192,104110,1,8,0:0:0:0:
448,192,104110,1,0,0:0:0:0:
192,192,104222,1,8,0:0:0:0:
448,192,104335,1,8,0:0:0:0:
64,192,104335,1,0,0:0:0:0:
64,192,106140,1,8,0:0:0:0:
448,192,106140,1,4,0:0:0:0:
192,192,106365,1,0,0:0:0:0:
320,192,106478,1,0,0:0:0:0:
192,192,106591,1,2,0:0:0:0:
448,192,106591,1,0,0:0:0:0:
320,192,106816,1,8,0:0:0:0:
448,192,106816,1,0,0:0:0:0:
64,192,106929,1,0,0:0:0:0:
320,192,107042,1,8,0:0:0:0:
448,192,107042,1,0,0:0:0:0:
64,192,107267,1,8,0:0:0:0:
192,192,107267,1,0,0:0:0:0:
320,192,107380,1,0,0:0:0:0:
448,192,107493,1,2,0:0:0:0:
64,192,107493,1,0,0:0:0:0:
192,192,107719,1,8,0:0:0:0:
320,192,107719,1,0,0:0:0:0:
448,192,107831,1,0,0:0:0:0:
192,192,107944,1,8,0:0:0:0:
320,192,107944,1,0,0:0:0:0:
192,192,108170,1,0,0:0:0:0:
320,192,108282,1,0,0:0:0:0:
64,192,108395,1,2,0:0:0:0:
448,192,108395,1,0,0:0:0:0:
320,192,108621,1,8,0:0:0:0:
448,192,108621,1,0,0:0:0:0:
64,192,108734,1,0,0:0:0:0:
192,192,108846,1,8,0:0:0:0:
320,192,108846,1,0,0:0:0:0:
320,192,109072,1,8,0:0:0:0:
448,192,109072,1,0,0:0:0:0:
192,192,109185,1,0,0:0:0:0:
64,192,109298,1,2,0:0:0:0:
448,192,109298,1,0,0:0:0:0:
192,192,109523,1,8,0:0:0:0:
320,192,109523,1,0,0:0:0:0:
64,192,109636,1,0,0:0:0:0:
320,192,109749,1,8,0:0:0:0:
448,192,109749,1,0,0:0:0:0:
64,192,109974,1,0,0:0:0:0:
192,192,110087,1,0,0:0:0:0:
448,192,110200,1,2,0:0:0:0:
64,192,110200,1,0,0:0:0:0:
192,192,110425,1,8,0:0:0:0:
320,192,110425,1,0,0:0:0:0:
64,192,110538,1,0,0:0:0:0:
320,192,110651,1,8,0:0:0:0:
192,192,110651,1,0,0:0:0:0:
448,192,110876,1,8,0:0:0:0:
320,192,110876,1,0,0:0:0:0:
192,192,110989,1,0,0:0:0:0:
64,192,111102,1,2,0:0:0:0:
448,192,111102,1,0,0:0:0:0:
320,192,111328,1,8,0:0:0:0:
192,192,111328,1,0,0:0:0:0:
64,192,111440,1,2,0:0:0:0:
448,192,111440,1,0,0:0:0:0:
192,192,111553,1,8,0:0:0:0:
320,192,111553,1,0,0:0:0:0:
64,192,111779,1,0,0:0:0:0:
192,192,111892,1,0,0:0:0:0:
320,192,112004,1,2,0:0:0:0:
64,192,112004,1,0,0:0:0:0:
192,192,112230,1,8,0:0:0:0:
64,192,112230,1,0,0:0:0:0:
320,192,112343,1,0,0:0:0:0:
448,192,112455,1,2,0:0:0:0:
192,192,112455,1,0,0:0:0:0:
448,192,112681,1,8,0:0:0:0:
320,192,112681,1,0,0:0:0:0:
192,192,112794,1,0,0:0:0:0:
64,192,112907,1,2,0:0:0:0:
320,192,112907,1,0,0:0:0:0:
64,192,113132,1,2,0:0:0:0:
192,192,113132,1,0,0:0:0:0:
448,192,113245,1,2,0:0:0:0:
320,192,113245,1,0,0:0:0:0:
64,192,113358,1,8,0:0:0:0:
192,192,113358,1,4,0:0:0:0:
448,192,113358,1,0,0:0:0:0:
320,192,113583,1,0,0:0:0:0:
192,192,113696,1,0,0:0:0:0:
64,192,113809,1,2,0:0:0:0:
448,192,113809,1,0,0:0:0:0:
320,192,114034,1,8,0:0:0:0:
448,192,114034,1,0,0:0:0:0:
192,192,114147,1,0,0:0:0:0:
320,192,114260,1,8,0:0:0:0:
448,192,114260,1,0,0:0:0:0:
64,192,114486,1,8,0:0:0:0:
192,192,114486,1,0,0:0:0:0:
320,192,114598,1,0,0:0:0:0:
448,192,114711,1,2,0:0:0:0:
64,192,114711,1,0,0:0:0:0:
192,192,114937,1,8,0:0:0:0:
320,192,114937,1,0,0:0:0:0:
448,192,115049,1,0,0:0:0:0:
64,192,115162,1,8,0:0:0:0:
192,192,115162,1,0,0:0:0:0:
320,192,115388,1,0,0:0:0:0:
192,192,115501,1,0,0:0:0:0:
64,192,115613,1,2,0:0:0:0:
448,192,115613,1,0,0:0:0:0:
192,192,115839,1,8,0:0:0:0:
64,192,115839,1,0,0:0:0:0:
320,192,115952,1,0,0:0:0:0:
64,192,116064,1,8,0:0:0:0:
192,192,116064,1,0,0:0:0:0:
320,192,116290,1,8,0:0:0:0:
448,192,116290,1,0,0:0:0:0:
192,192,116403,1,0,0:0:0:0:
64,192,116516,1,2,0:0:0:0:
448,192,116516,1,0,0:0:0:0:
192,192,116741,1,8,0:0:0:0:
320,192,116741,1,0,0:0:0:0:
64,192,116854,1,0,0:0:0:0:
320,192,116967,1,8,0:0:0:0:
448,192,116967,1,0,0:0:0:0:
64,192,117192,1,0,0:0:0:0:
192,192,117305,1,0,0:0:0:0:
320,192,117418,1,2,0:0:0:0:
64,192,117418,1,0,0:0:0:0:
192,192,117643,1,8,0:0:0:0:
320,192,117643,1,0,0:0:0:0:
448,192,117756,1,0,0:0:0:0:
192,192,117869,1,8,0:0:0:0:
320,192,117869,1,0,0:0:0:0:
448,192,118095,1,8,0:0:0:0:
320,192,118095,1,0,0:0:0:0:
192,192,118207,1,0,0:0:0:0:
64,192,118320,1,2,0:0:0:0:
448,192,118320,1,0,0:0:0:0:
192,192,118546,1,8,0:0:0:0:
320,192,118546,1,0,0:0:0:0:
64,192,118658,1,2,0:0:0:0:
448,192,118658,1,0,0:0:0:0:
192,192,118771,1,8,0:0:0:0:
320,192,118771,1,0,0:0:0:0:
64,192,118997,1,0,0:0:0:0:
192,192,119110,1,0,0:0:0:0:
448,192,119222,1,2,0:0:0:0:
64,192,119222,1,0,0:0:0:0:
192,192,119448,1,8,0:0:0:0:
64,192,119448,1,0,0:0:0:0:
320,192,119561,1,0,0:0:0:0:
64,192,119673,1,2,0:0:0:0:
448,192,119673,1,0,0:0:0:0:
320,192,119899,1,8,0:0:0:0:
448,192,119899,1,0,0:0:0:0:
192,192,120012,1,0,0:0:0:0:
64,192,120125,1,2,0:0:0:0:
448,192,120125,1,0,0:0:0:0:
64,192,120350,1,8,0:0:0:0:
448,192,120407,1,8,0:0:0:0:
320,192,120463,1,8,0:0:0:0:
192,192,120519,1,8,0:0:0:0:
64,192,120576,1,8,0:0:0:0:
448,192,120576,1,4,0:0:0:0:
320,192,120576,1,0,0:0:0:0:
