osu file format v14

[General]
AudioFilename: r300k - Energy Flower 3007.mp3
AudioLeadIn: 0
PreviewTime: 75463
Countdown: 0
SampleSet: None
StackLeniency: 0.7
Mode: 1
LetterboxInBreaks: 0
WidescreenStoryboard: 0

[Editor]
DistanceSpacing: 0.8
BeatDivisor: 4
GridSize: 32
TimelineZoom: 1.4

[Metadata]
Title:Energy Flower 3007
TitleUnicode:Energy Flower 3007
Artist:r300k
ArtistUnicode:r300k
Creator:Fantazy
Version:ino rewolF
Source:EZ2ON
Tags:g2s melodic trance ez2dj 7th trax resistance nakoopa ryuminus jack ziemniax shoegazer
BeatmapID:1599193
BeatmapSetID:760371

[Difficulty]
HPDrainRate:5
CircleSize:2
OverallDifficulty:5
ApproachRate:6
SliderMultiplier:1.4
SliderTickRate:1

[Events]
//Background and Video events
0,0,"EF.jpg",0,0
//Break Periods
//Storyboard Layer 0 (Background)
//Storyboard Layer 1 (Fail)
//Storyboard Layer 2 (Pass)
//Storyboard Layer 3 (Foreground)
//Storyboard Sound Samples

[TimingPoints]
3283,451.127819548872,4,1,0,100,1,0
17493,-97.0873786407767,4,1,0,100,0,0
17568,-94.3396226415094,4,1,0,100,0,0
17643,-91.743119266055,4,1,0,100,0,0
17719,-90.9090909090909,4,1,0,100,0,1
23132,-100,4,1,0,100,0,0
24711,-97.0873786407767,4,1,0,100,0,0
24786,-94.3396226415094,4,1,0,100,0,0
24861,-91.743119266055,4,1,0,100,0,0
24937,-90.9090909090909,4,1,0,100,0,1
30350,-100,4,1,0,100,0,0
32155,-90.9090909090909,4,1,0,100,0,0
73658,-97.0873786407767,4,1,0,100,0,0
73733,-94.3396226415094,4,1,0,100,0,0
73808,-91.743119266055,4,1,0,100,0,0
73884,-90.9090909090909,4,1,0,100,0,0
75012,-87.719298245614,4,1,0,100,0,0
75087,-86.9565217391304,4,1,0,100,0,0
75162,-86.2068965517241,4,1,0,100,0,0
75237,-85.4700854700855,4,1,0,100,0,0
75313,-84.7457627118644,4,1,0,100,0,0
75388,-84.0336134453781,4,1,0,100,0,0
75463,-83.3333333333333,4,1,0,100,0,1
104335,-83.3333333333333,4,1,0,100,0,0
106140,-100,4,1,0,100,0,0

[HitObjects]
256,192,1478,12,0,3170,0:0:0:0:
256,192,3282,5,12,0:0:0:0:
256,192,3621,1,8,0:0:0:0:
256,192,3734,1,0,0:0:0:0:
256,192,3959,1,8,0:0:0:0:
256,192,4185,1,8,0:0:0:0:
256,192,4410,1,8,0:0:0:0:
256,192,4636,1,0,0:0:0:0:
256,192,4861,1,8,0:0:0:0:
256,192,5087,1,8,0:0:0:0:
256,192,5425,1,8,0:0:0:0:
256,192,5538,1,0,0:0:0:0:
256,192,5763,1,8,0:0:0:0:
256,192,5989,1,8,0:0:0:0:
256,192,6214,1,8,0:0:0:0:
256,192,6440,1,0,0:0:0:0:
256,192,6665,1,0,0:0:0:0:
256,192,6891,1,8,0:0:0:0:
256,192,7230,1,8,0:0:0:0:
256,192,7343,1,0,0:0:0:0:
256,192,7568,1,8,0:0:0:0:
256,192,7794,1,8,0:0:0:0:
256,192,8019,1,8,0:0:0:0:
256,192,8245,1,0,0:0:0:0:
256,192,8470,1,8,0:0:0:0:
256,192,8583,1,0,0:0:0:0:
256,192,8696,1,8,0:0:0:0:
256,192,9034,1,8,0:0:0:0:
256,192,9147,1,0,0:0:0:0:
256,192,9373,1,0,0:0:0:0:
256,192,9598,1,0,0:0:0:0:
256,192,9823,1,8,0:0:0:0:
256,192,10049,1,0,0:0:0:0:
256,192,10274,1,0,0:0:0:0:
256,192,10388,1,0,0:0:0:0:
256,192,10500,1,8,0:0:0:0:
256,192,10839,1,8,0:0:0:0:
256,192,10952,1,0,0:0:0:0:
256,192,11177,1,8,0:0:0:0:
256,192,11290,1,0,0:0:0:0:
256,192,11403,1,8,0:0:0:0:
256,192,11628,1,8,0:0:0:0:
256,192,11741,1,8,0:0:0:0:
256,192,11854,1,0,0:0:0:0:
256,192,12079,1,0,0:0:0:0:
256,192,12192,1,0,0:0:0:0:
256,192,12305,1,8,0:0:0:0:
256,192,12643,1,8,0:0:0:0:
256,192,12756,1,0,0:0:0:0:
256,192,12982,1,0,0:0:0:0:
256,192,13095,1,0,0:0:0:0:
256,192,13207,1,8,0:0:0:0:
256,192,13433,1,8,0:0:0:0:
256,192,13546,1,0,0:0:0:0:
256,192,13658,1,8,0:0:0:0:
256,192,13884,1,0,0:0:0:0:
256,192,13997,1,8,0:0:0:0:
256,192,14110,1,8,0:0:0:0:
256,192,14448,1,8,0:0:0:0:
256,192,14561,1,0,0:0:0:0:
256,192,14786,1,8,0:0:0:0:
256,192,14899,1,0,0:0:0:0:
256,192,15012,1,8,0:0:0:0:
256,192,15237,1,0,0:0:0:0:
256,192,15350,1,8,0:0:0:0:
256,192,15463,1,8,0:0:0:0:
256,192,15689,1,8,0:0:0:0:
256,192,15801,1,8,0:0:0:0:
256,192,15914,1,8,0:0:0:0:
256,192,16140,1,8,0:0:0:0:
256,192,16252,1,8,0:0:0:0:
256,192,16365,1,0,0:0:0:0:
256,192,16478,1,8,0:0:0:0:
256,192,16591,1,0,0:0:0:0:
256,192,16704,1,0,0:0:0:0:
256,192,16816,1,8,0:0:0:0:
256,192,16929,1,0,0:0:0:0:
256,192,17042,1,8,0:0:0:0:
256,192,17155,1,8,0:0:0:0:
256,192,17267,1,0,0:0:0:0:
256,192,17380,1,8,0:0:0:0:
256,192,17493,1,0,0:0:0:0:
256,192,17568,1,0,0:0:0:0:
256,192,17643,1,0,0:0:0:0:
256,192,17719,1,12,0:0:0:0:
256,192,17944,1,8,0:0:0:0:
256,192,18057,1,0,0:0:0:0:
256,192,18170,1,8,0:0:0:0:
256,192,18282,1,0,0:0:0:0:
256,192,18395,1,8,0:0:0:0:
256,192,18621,1,0,0:0:0:0:
256,192,18734,1,8,0:0:0:0:
256,192,18846,1,8,0:0:0:0:
256,192,18959,1,0,0:0:0:0:
256,192,19185,1,0,0:0:0:0:
256,192,19298,1,0,0:0:0:0:
256,192,19523,1,0,0:0:0:0:
256,192,19636,1,8,0:0:0:0:
256,192,19861,1,0,0:0:0:0:
256,192,19974,1,8,0:0:0:0:
256,192,20087,1,0,0:0:0:0:
256,192,20200,1,8,0:0:0:0:
256,192,20425,1,0,0:0:0:0:
256,192,20538,1,8,0:0:0:0:
256,192,20764,1,8,0:0:0:0:
256,192,20876,1,0,0:0:0:0:
256,192,20989,1,0,0:0:0:0:
256,192,21102,1,8,0:0:0:0:
256,192,21328,1,0,0:0:0:0:
256,192,21440,1,8,0:0:0:0:
256,192,21666,1,0,0:0:0:0:
256,192,21779,1,0,0:0:0:0:
256,192,21892,1,0,0:0:0:0:
256,192,22004,1,8,0:0:0:0:
256,192,22230,1,0,0:0:0:0:
256,192,22343,1,8,0:0:0:0:
256,192,22568,1,0,0:0:0:0:
256,192,22794,1,0,0:0:0:0:
256,192,22907,1,8,0:0:0:0:
256,192,23132,1,8,0:0:0:0:
256,192,23358,1,8,0:0:0:0:
256,192,23583,1,0,0:0:0:0:
256,192,23809,1,8,0:0:0:0:
256,192,24034,1,0,0:0:0:0:
256,192,24260,1,8,0:0:0:0:
256,192,24373,1,0,0:0:0:0:
256,192,24598,1,8,0:0:0:0:
256,192,24711,1,0,0:0:0:0:
256,192,24786,1,0,0:0:0:0:
256,192,24861,1,0,0:0:0:0:
256,192,24937,1,8,0:0:0:0:
256,192,25049,1,0,0:0:0:0:
256,192,25162,1,0,0:0:0:0:
256,192,25275,1,8,0:0:0:0:
256,192,25388,1,0,0:0:0:0:
256,192,25501,1,0,0:0:0:0:
256,192,25613,1,8,0:0:0:0:
256,192,25839,1,8,0:0:0:0:
256,192,25952,1,0,0:0:0:0:
256,192,26064,1,0,0:0:0:0:
256,192,26177,1,8,0:0:0:0:
256,192,26290,1,0,0:0:0:0:
256,192,26403,1,8,0:0:0:0:
256,192,26516,1,0,0:0:0:0:
256,192,26741,1,0,0:0:0:0:
256,192,26854,1,8,0:0:0:0:
256,192,26967,1,8,0:0:0:0:
256,192,27079,1,0,0:0:0:0:
256,192,27192,1,8,0:0:0:0:
256,192,27305,1,0,0:0:0:0:
256,192,27418,1,8,0:0:0:0:
256,192,27643,1,8,0:0:0:0:
256,192,27756,1,8,0:0:0:0:
256,192,27869,1,0,0:0:0:0:
256,192,27982,1,0,0:0:0:0:
256,192,28095,1,8,0:0:0:0:
256,192,28207,1,0,0:0:0:0:
256,192,28320,1,0,0:0:0:0:
256,192,28546,1,0,0:0:0:0:
256,192,28658,1,0,0:0:0:0:
256,192,28771,1,8,0:0:0:0:
256,192,28884,1,0,0:0:0:0:
256,192,28997,1,0,0:0:0:0:
256,192,29110,1,0,0:0:0:0:
256,192,29222,1,8,0:0:0:0:
256,192,29448,1,8,0:0:0:0:
256,192,29561,1,0,0:0:0:0:
256,192,29673,1,0,0:0:0:0:
256,192,29786,1,8,0:0:0:0:
256,192,29899,1,8,0:0:0:0:
256,192,30012,1,0,0:0:0:0:
256,192,30125,1,0,0:0:0:0:
256,192,30350,1,0,0:0:0:0:
256,192,30576,1,0,0:0:0:0:
256,192,30801,1,8,0:0:0:0:
256,192,31027,1,0,0:0:0:0:
256,192,31252,1,0,0:0:0:0:
256,192,31478,1,8,0:0:0:0:
256,192,31591,1,0,0:0:0:0:
256,192,31816,1,8,0:0:0:0:
256,192,31929,1,0,0:0:0:0:
256,192,32004,1,0,0:0:0:0:
256,192,32079,1,0,0:0:0:0:
256,192,32155,1,8,0:0:0:0:
256,192,32380,1,8,0:0:0:0:
256,192,32606,1,0,0:0:0:0:
256,192,32831,1,8,0:0:0:0:
256,192,32944,1,8,0:0:0:0:
256,192,33057,1,0,0:0:0:0:
256,192,33170,1,8,0:0:0:0:
256,192,33395,1,8,0:0:0:0:
256,192,33508,1,0,0:0:0:0:
256,192,33583,1,0,0:0:0:0:
256,192,33658,1,0,0:0:0:0:
256,192,33734,1,8,0:0:0:0:
256,192,33846,1,8,0:0:0:0:
256,192,33959,1,0,0:0:0:0:
256,192,34072,1,8,0:0:0:0:
256,192,34185,1,0,0:0:0:0:
256,192,34410,1,0,0:0:0:0:
256,192,34636,1,8,0:0:0:0:
256,192,34749,1,8,0:0:0:0:
256,192,34861,1,0,0:0:0:0:
256,192,34974,1,8,0:0:0:0:
256,192,35200,1,8,0:0:0:0:
256,192,35313,1,0,0:0:0:0:
256,192,35388,1,0,0:0:0:0:
256,192,35463,1,0,0:0:0:0:
256,192,35538,1,8,0:0:0:0:
256,192,35651,1,8,0:0:0:0:
256,192,35764,1,0,0:0:0:0:
256,192,35876,1,8,0:0:0:0:
256,192,35989,1,0,0:0:0:0:
256,192,36215,1,8,0:0:0:0:
256,192,36440,1,0,0:0:0:0:
256,192,36553,1,8,0:0:0:0:
256,192,36666,1,0,0:0:0:0:
256,192,36779,1,8,0:0:0:0:
256,192,37004,1,8,0:0:0:0:
256,192,37117,1,0,0:0:0:0:
256,192,37192,1,0,0:0:0:0:
256,192,37267,1,0,0:0:0:0:
256,192,37343,1,8,0:0:0:0:
256,192,37455,1,8,0:0:0:0:
256,192,37568,1,0,0:0:0:0:
256,192,37794,1,8,0:0:0:0:
256,192,37907,1,0,0:0:0:0:
256,192,38132,1,0,0:0:0:0:
256,192,38245,1,8,0:0:0:0:
256,192,38470,1,0,0:0:0:0:
256,192,38583,1,8,0:0:0:0:
256,192,38696,1,8,0:0:0:0:
256,192,38809,1,0,0:0:0:0:
256,192,39034,1,8,0:0:0:0:
256,192,39147,1,0,0:0:0:0:
256,192,39373,1,0,0:0:0:0:
256,192,39486,1,8,0:0:0:0:
256,192,39711,1,0,0:0:0:0:
256,192,39937,1,0,0:0:0:0:
256,192,40049,1,8,0:0:0:0:
256,192,40275,1,0,0:0:0:0:
256,192,40388,1,8,0:0:0:0:
256,192,40501,1,8,0:0:0:0:
256,192,40613,1,0,0:0:0:0:
256,192,40839,1,8,0:0:0:0:
256,192,40952,1,8,0:0:0:0:
256,192,41064,1,8,0:0:0:0:
256,192,41177,1,0,0:0:0:0:
256,192,41290,1,8,0:0:0:0:
256,192,41516,1,0,0:0:0:0:
256,192,41741,1,0,0:0:0:0:
256,192,41854,1,8,0:0:0:0:
256,192,42079,1,0,0:0:0:0:
256,192,42192,1,8,0:0:0:0:
256,192,42305,1,8,0:0:0:0:
256,192,42418,1,0,0:0:0:0:
256,192,42643,1,8,0:0:0:0:
256,192,42869,1,8,0:0:0:0:
256,192,42982,1,0,0:0:0:0:
256,192,43095,1,8,0:0:0:0:
256,192,43320,1,0,0:0:0:0:
256,192,43546,1,0,0:0:0:0:
256,192,43658,1,8,0:0:0:0:
256,192,43884,1,0,0:0:0:0:
256,192,43997,1,8,0:0:0:0:
256,192,44110,1,8,0:0:0:0:
256,192,44222,1,0,0:0:0:0:
256,192,44448,1,8,0:0:0:0:
256,192,44673,1,0,0:0:0:0:
256,192,44786,1,8,0:0:0:0:
256,192,45237,1,8,0:0:0:0:
256,192,45463,1,0,0:0:0:0:
256,192,45689,1,8,0:0:0:0:
256,192,45914,1,0,0:0:0:0:
256,192,46027,1,0,0:0:0:0:
256,192,46140,1,8,0:0:0:0:
256,192,46365,1,0,0:0:0:0:
256,192,46440,1,0,0:0:0:0:
256,192,46516,1,0,0:0:0:0:
256,192,46591,1,8,0:0:0:0:
256,192,47042,1,0,0:0:0:0:
256,192,47267,1,8,0:0:0:0:
256,192,47493,1,8,0:0:0:0:
256,192,47719,1,8,0:0:0:0:
256,192,47944,1,0,0:0:0:0:
256,192,48170,1,8,0:0:0:0:
256,192,48395,1,0,0:0:0:0:
256,192,48846,1,0,0:0:0:0:
256,192,49072,1,8,0:0:0:0:
256,192,49298,1,8,0:0:0:0:
256,192,49523,1,8,0:0:0:0:
256,192,49749,1,0,0:0:0:0:
256,192,49974,1,8,0:0:0:0:
256,192,50200,1,0,0:0:0:0:
256,192,50651,1,0,0:0:0:0:
256,192,50876,1,8,0:0:0:0:
256,192,51102,1,8,0:0:0:0:
256,192,51328,1,8,0:0:0:0:
256,192,51553,1,0,0:0:0:0:
256,192,51779,1,8,0:0:0:0:
256,192,51892,1,0,0:0:0:0:
256,192,52004,1,0,0:0:0:0:
256,192,52455,1,0,0:0:0:0:
256,192,52681,1,8,0:0:0:0:
256,192,52907,1,0,0:0:0:0:
256,192,53132,1,8,0:0:0:0:
256,192,53358,1,0,0:0:0:0:
256,192,53583,1,0,0:0:0:0:
256,192,53696,1,0,0:0:0:0:
256,192,53809,1,0,0:0:0:0:
256,192,54260,1,0,0:0:0:0:
256,192,54486,1,8,0:0:0:0:
256,192,54711,1,8,0:0:0:0:
256,192,54937,1,8,0:0:0:0:
256,192,55162,1,0,0:0:0:0:
256,192,55388,1,8,0:0:0:0:
256,192,55613,1,0,0:0:0:0:
256,192,56064,1,0,0:0:0:0:
256,192,56290,1,8,0:0:0:0:
256,192,56516,1,8,0:0:0:0:
256,192,56741,1,8,0:0:0:0:
256,192,56967,1,0,0:0:0:0:
256,192,57192,1,8,0:0:0:0:
256,192,57418,1,2,0:0:0:0:
256,192,57869,1,0,0:0:0:0:
256,192,58095,1,8,0:0:0:0:
256,192,58320,1,8,0:0:0:0:
256,192,58546,1,8,0:0:0:0:
256,192,58771,1,0,0:0:0:0:
256,192,58997,1,8,0:0:0:0:
256,192,59110,1,0,0:0:0:0:
256,192,59222,1,0,0:0:0:0:
256,192,59673,1,0,0:0:0:0:
256,192,59899,1,8,0:0:0:0:
256,192,60125,1,0,0:0:0:0:
256,192,60350,1,8,0:0:0:0:
256,192,60576,1,0,0:0:0:0:
256,192,60801,1,8,0:0:0:0:
256,192,60876,1,8,0:0:0:0:
256,192,60952,1,8,0:0:0:0:
256,192,61027,1,4,0:0:0:0:
256,192,61478,1,8,0:0:0:0:
256,192,61929,1,0,0:0:0:0:
256,192,62380,1,8,0:0:0:0:
256,192,62606,1,0,0:0:0:0:
256,192,62831,1,8,0:0:0:0:
256,192,63282,1,0,0:0:0:0:
256,192,63734,1,8,0:0:0:0:
256,192,64185,1,0,0:0:0:0:
256,192,64410,1,8,0:0:0:0:
256,192,64636,1,0,0:0:0:0:
256,192,65087,1,0,0:0:0:0:
256,192,65313,1,8,0:0:0:0:
256,192,65538,1,8,0:0:0:0:
256,192,65764,1,8,0:0:0:0:
256,192,65989,1,0,0:0:0:0:
256,192,66215,1,8,0:0:0:0:
256,192,66328,1,0,0:0:0:0:
256,192,66440,1,8,0:0:0:0:
256,192,66892,1,0,0:0:0:0:
256,192,67117,1,8,0:0:0:0:
256,192,67343,1,0,0:0:0:0:
256,192,67568,1,8,0:0:0:0:
256,192,67794,1,0,0:0:0:0:
256,192,68019,1,0,0:0:0:0:
256,192,68132,1,8,0:0:0:0:
256,192,68245,1,0,0:0:0:0:
256,192,68696,1,0,0:0:0:0:
256,192,69147,1,8,0:0:0:0:
256,192,69598,1,0,0:0:0:0:
256,192,69824,1,8,0:0:0:0:
256,192,70049,1,8,0:0:0:0:
256,192,70501,1,0,0:0:0:0:
256,192,70952,1,8,0:0:0:0:
256,192,71403,1,0,0:0:0:0:
256,192,71628,1,0,0:0:0:0:
256,192,71854,1,8,0:0:0:0:
256,192,72305,1,0,0:0:0:0:
256,192,72756,1,8,0:0:0:0:
256,192,73207,1,0,0:0:0:0:
256,192,73658,1,8,0:0:0:0:
256,192,73734,1,8,0:0:0:0:
256,192,73809,1,8,0:0:0:0:
256,192,73884,1,0,0:0:0:0:
256,192,73997,1,8,0:0:0:0:
256,192,74110,1,0,0:0:0:0:
256,192,74222,1,0,0:0:0:0:
256,192,74335,1,8,0:0:0:0:
256,192,74448,1,0,0:0:0:0:
256,192,74561,1,8,0:0:0:0:
256,192,74673,1,8,0:0:0:0:
256,192,74786,1,0,0:0:0:0:
256,192,74899,1,8,0:0:0:0:
256,192,75012,5,0,0:0:0:0:
256,192,75087,1,0,0:0:0:0:
256,192,75162,1,0,0:0:0:0:
256,192,75237,1,0,0:0:0:0:
256,192,75313,1,0,0:0:0:0:
256,192,75388,1,0,0:0:0:0:
256,192,75463,1,8,0:0:0:0:
256,192,75576,1,8,0:0:0:0:
256,192,75689,1,0,0:0:0:0:
256,192,75801,1,8,0:0:0:0:
256,192,75914,1,8,0:0:0:0:
256,192,76027,1,0,0:0:0:0:
256,192,76140,1,0,0:0:0:0:
256,192,76252,1,0,0:0:0:0:
256,192,76365,1,8,0:0:0:0:
256,192,76478,1,8,0:0:0:0:
256,192,76591,1,0,0:0:0:0:
256,192,76704,1,8,0:0:0:0:
256,192,76816,1,8,0:0:0:0:
256,192,76929,1,0,0:0:0:0:
256,192,77042,1,0,0:0:0:0:
256,192,77155,1,0,0:0:0:0:
256,192,77267,1,8,0:0:0:0:
256,192,77343,1,8,0:0:0:0:
256,192,77418,1,8,0:0:0:0:
256,192,77492,1,0,0:0:0:0:
256,192,77606,1,0,0:0:0:0:
256,192,77718,1,8,0:0:0:0:
256,192,77794,1,8,0:0:0:0:
256,192,77869,1,8,0:0:0:0:
256,192,77944,1,0,0:0:0:0:
256,192,78056,1,0,0:0:0:0:
256,192,78169,1,8,0:0:0:0:
256,192,78282,1,0,0:0:0:0:
256,192,78394,1,0,0:0:0:0:
256,192,78507,1,0,0:0:0:0:
256,192,78620,1,8,0:0:0:0:
256,192,78734,1,8,0:0:0:0:
256,192,78846,1,0,0:0:0:0:
256,192,78922,1,0,0:0:0:0:
256,192,78997,1,0,0:0:0:0:
256,192,79072,1,8,0:0:0:0:
256,192,79185,1,8,0:0:0:0:
256,192,79298,1,8,0:0:0:0:
256,192,79410,1,8,0:0:0:0:
256,192,79523,1,0,0:0:0:0:
256,192,79636,1,8,0:0:0:0:
256,192,79749,1,0,0:0:0:0:
256,192,79861,1,0,0:0:0:0:
256,192,79974,1,8,0:0:0:0:
256,192,80087,1,0,0:0:0:0:
256,192,80200,1,8,0:0:0:0:
256,192,80313,1,8,0:0:0:0:
256,192,80425,1,0,0:0:0:0:
256,192,80538,1,8,0:0:0:0:
256,192,80651,1,0,0:0:0:0:
256,192,80764,1,0,0:0:0:0:
256,192,80876,1,8,0:0:0:0:
256,192,80989,1,8,0:0:0:0:
256,192,81102,1,0,0:0:0:0:
256,192,81215,1,0,0:0:0:0:
256,192,81328,1,8,0:0:0:0:
256,192,81440,1,8,0:0:0:0:
256,192,81553,1,0,0:0:0:0:
256,192,81666,1,0,0:0:0:0:
256,192,81779,1,8,0:0:0:0:
256,192,81892,1,0,0:0:0:0:
256,192,82004,1,0,0:0:0:0:
256,192,82117,1,0,0:0:0:0:
256,192,82230,1,8,0:0:0:0:
256,192,82305,1,8,0:0:0:0:
256,192,82380,1,8,0:0:0:0:
256,192,82455,1,0,0:0:0:0:
256,192,82531,1,0,0:0:0:0:
256,192,82606,1,0,0:0:0:0:
256,192,82681,1,8,0:0:0:0:
256,192,82794,1,8,0:0:0:0:
256,192,82907,1,0,0:0:0:0:
256,192,83019,1,0,0:0:0:0:
256,192,83132,1,0,0:0:0:0:
256,192,83245,1,8,0:0:0:0:
256,192,83358,1,0,0:0:0:0:
256,192,83470,1,0,0:0:0:0:
256,192,83583,1,8,0:0:0:0:
256,192,83696,1,8,0:0:0:0:
256,192,83809,1,0,0:0:0:0:
256,192,83922,1,0,0:0:0:0:
256,192,84034,1,0,0:0:0:0:
256,192,84147,1,8,0:0:0:0:
256,192,84260,1,0,0:0:0:0:
256,192,84373,1,0,0:0:0:0:
256,192,84486,1,8,0:0:0:0:
256,192,84598,1,8,0:0:0:0:
256,192,84711,1,0,0:0:0:0:
256,192,84786,1,0,0:0:0:0:
256,192,84861,1,0,0:0:0:0:
256,192,84937,1,8,0:0:0:0:
256,192,85049,1,8,0:0:0:0:
256,192,85162,1,0,0:0:0:0:
256,192,85237,1,0,0:0:0:0:
256,192,85313,1,0,0:0:0:0:
256,192,85388,1,8,0:0:0:0:
256,192,85501,1,8,0:0:0:0:
256,192,85613,1,0,0:0:0:0:
256,192,85726,1,8,0:0:0:0:
256,192,85839,1,8,0:0:0:0:
256,192,85952,1,0,0:0:0:0:
256,192,86064,1,0,0:0:0:0:
256,192,86177,1,0,0:0:0:0:
256,192,86290,1,8,0:0:0:0:
256,192,86403,1,8,0:0:0:0:
256,192,86516,1,0,0:0:0:0:
256,192,86628,1,8,0:0:0:0:
256,192,86741,1,8,0:0:0:0:
256,192,86854,1,0,0:0:0:0:
256,192,86967,1,8,0:0:0:0:
256,192,87079,1,0,0:0:0:0:
256,192,87192,1,8,0:0:0:0:
256,192,87305,1,8,0:0:0:0:
256,192,87418,1,0,0:0:0:0:
256,192,87531,1,8,0:0:0:0:
256,192,87643,1,8,0:0:0:0:
256,192,87756,1,0,0:0:0:0:
256,192,87869,1,8,0:0:0:0:
256,192,87982,1,0,0:0:0:0:
256,192,88095,1,8,0:0:0:0:
256,192,88170,1,8,0:0:0:0:
256,192,88245,1,8,0:0:0:0:
256,192,88320,1,0,0:0:0:0:
256,192,88433,1,8,0:0:0:0:
256,192,88546,1,0,0:0:0:0:
256,192,88621,1,8,0:0:0:0:
256,192,88696,1,8,0:0:0:0:
256,192,88771,1,0,0:0:0:0:
256,192,88884,1,0,0:0:0:0:
256,192,88997,1,8,0:0:0:0:
256,192,89072,1,8,0:0:0:0:
256,192,89147,1,8,0:0:0:0:
256,192,89222,1,0,0:0:0:0:
256,192,89335,1,8,0:0:0:0:
256,192,89448,1,0,0:0:0:0:
256,192,89523,1,8,0:0:0:0:
256,192,89598,1,8,0:0:0:0:
256,192,89673,1,0,0:0:0:0:
256,192,89786,1,0,0:0:0:0:
256,192,89899,1,8,0:0:0:0:
256,192,90012,1,8,0:0:0:0:
256,192,90125,1,0,0:0:0:0:
256,192,90237,1,8,0:0:0:0:
256,192,90350,1,8,0:0:0:0:
256,192,90463,1,0,0:0:0:0:
256,192,90576,1,0,0:0:0:0:
256,192,90688,1,0,0:0:0:0:
256,192,90801,1,8,0:0:0:0:
256,192,90914,1,8,0:0:0:0:
256,192,91027,1,0,0:0:0:0:
256,192,91140,1,8,0:0:0:0:
256,192,91252,1,8,0:0:0:0:
256,192,91365,1,0,0:0:0:0:
256,192,91478,1,0,0:0:0:0:
256,192,91591,1,0,0:0:0:0:
256,192,91703,1,8,0:0:0:0:
256,192,91779,1,8,0:0:0:0:
256,192,91854,1,8,0:0:0:0:
256,192,91928,1,0,0:0:0:0:
256,192,92042,1,0,0:0:0:0:
256,192,92154,1,8,0:0:0:0:
256,192,92230,1,8,0:0:0:0:
256,192,92305,1,8,0:0:0:0:
256,192,92380,1,0,0:0:0:0:
256,192,92492,1,0,0:0:0:0:
256,192,92605,1,8,0:0:0:0:
256,192,92718,1,0,0:0:0:0:
256,192,92830,1,0,0:0:0:0:
256,192,92943,1,0,0:0:0:0:
256,192,93056,1,8,0:0:0:0:
256,192,93170,1,8,0:0:0:0:
256,192,93282,1,0,0:0:0:0:
256,192,93358,1,0,0:0:0:0:
256,192,93433,1,0,0:0:0:0:
256,192,93508,1,8,0:0:0:0:
256,192,93621,1,8,0:0:0:0:
256,192,93734,1,8,0:0:0:0:
256,192,93846,1,8,0:0:0:0:
256,192,93959,1,0,0:0:0:0:
256,192,94072,1,8,0:0:0:0:
256,192,94185,1,0,0:0:0:0:
256,192,94297,1,0,0:0:0:0:
256,192,94410,1,8,0:0:0:0:
256,192,94523,1,0,0:0:0:0:
256,192,94636,1,8,0:0:0:0:
256,192,94749,1,8,0:0:0:0:
256,192,94861,1,0,0:0:0:0:
256,192,94974,1,8,0:0:0:0:
256,192,95087,1,0,0:0:0:0:
256,192,95200,1,0,0:0:0:0:
256,192,95312,1,8,0:0:0:0:
256,192,95425,1,8,0:0:0:0:
256,192,95538,1,0,0:0:0:0:
256,192,95651,1,0,0:0:0:0:
256,192,95764,1,8,0:0:0:0:
256,192,95876,1,8,0:0:0:0:
256,192,95989,1,0,0:0:0:0:
256,192,96102,1,0,0:0:0:0:
256,192,96215,1,8,0:0:0:0:
256,192,96328,1,0,0:0:0:0:
256,192,96440,1,0,0:0:0:0:
256,192,96553,1,0,0:0:0:0:
256,192,96666,1,8,0:0:0:0:
256,192,96741,1,8,0:0:0:0:
256,192,96816,1,8,0:0:0:0:
256,192,96891,1,0,0:0:0:0:
256,192,96967,1,0,0:0:0:0:
256,192,97042,1,0,0:0:0:0:
256,192,97117,1,8,0:0:0:0:
256,192,97230,1,8,0:0:0:0:
256,192,97343,1,0,0:0:0:0:
256,192,97455,1,0,0:0:0:0:
256,192,97568,1,0,0:0:0:0:
256,192,97681,1,8,0:0:0:0:
256,192,97794,1,0,0:0:0:0:
256,192,97906,1,0,0:0:0:0:
256,192,98019,1,8,0:0:0:0:
256,192,98132,1,8,0:0:0:0:
256,192,98245,1,0,0:0:0:0:
256,192,98358,1,0,0:0:0:0:
256,192,98470,1,0,0:0:0:0:
256,192,98583,1,8,0:0:0:0:
256,192,98696,1,0,0:0:0:0:
256,192,98809,1,0,0:0:0:0:
256,192,98922,1,8,0:0:0:0:
256,192,99034,1,8,0:0:0:0:
256,192,99147,1,0,0:0:0:0:
256,192,99222,1,0,0:0:0:0:
256,192,99297,1,0,0:0:0:0:
256,192,99373,1,8,0:0:0:0:
256,192,99485,1,8,0:0:0:0:
256,192,99598,1,0,0:0:0:0:
256,192,99673,1,0,0:0:0:0:
256,192,99749,1,0,0:0:0:0:
256,192,99824,1,8,0:0:0:0:
256,192,99937,1,8,0:0:0:0:
256,192,100049,1,0,0:0:0:0:
256,192,100162,1,8,0:0:0:0:
256,192,100275,1,8,0:0:0:0:
256,192,100388,1,0,0:0:0:0:
256,192,100500,1,0,0:0:0:0:
256,192,100613,1,0,0:0:0:0:
256,192,100726,1,8,0:0:0:0:
256,192,100839,1,8,0:0:0:0:
256,192,100952,1,0,0:0:0:0:
256,192,101064,1,8,0:0:0:0:
256,192,101177,1,8,0:0:0:0:
256,192,101290,1,0,0:0:0:0:
256,192,101403,1,8,0:0:0:0:
256,192,101515,1,0,0:0:0:0:
256,192,101628,1,8,0:0:0:0:
256,192,101741,1,8,0:0:0:0:
256,192,101854,1,0,0:0:0:0:
256,192,101967,1,8,0:0:0:0:
256,192,102079,1,8,0:0:0:0:
256,192,102192,1,0,0:0:0:0:
256,192,102305,1,8,0:0:0:0:
256,192,102418,1,0,0:0:0:0:
256,192,102531,1,8,0:0:0:0:
256,192,102606,1,8,0:0:0:0:
256,192,102681,1,8,0:0:0:0:
256,192,102756,1,0,0:0:0:0:
256,192,102869,1,8,0:0:0:0:
256,192,102982,1,0,0:0:0:0:
256,192,103057,1,8,0:0:0:0:
256,192,103132,1,8,0:0:0:0:
256,192,103207,1,0,0:0:0:0:
256,192,103320,1,0,0:0:0:0:
256,192,103433,1,8,0:0:0:0:
256,192,103508,1,8,0:0:0:0:
256,192,103583,1,8,0:0:0:0:
256,192,103658,1,0,0:0:0:0:
256,192,103771,1,8,0:0:0:0:
256,192,103884,1,0,0:0:0:0:
256,192,103959,1,8,0:0:0:0:
256,192,104034,1,8,0:0:0:0:
256,192,104109,5,0,0:0:0:0:
256,192,104222,1,0,0:0:0:0:
256,192,104335,1,12,0:0:0:0:
256,192,105237,8,0,106027,0:0:0:0:
256,192,106140,5,8,0:0:0:0:
256,192,106479,1,8,0:0:0:0:
256,192,106592,1,0,0:0:0:0:
256,192,106816,1,8,0:0:0:0:
256,192,107043,1,8,0:0:0:0:
256,192,107268,1,8,0:0:0:0:
256,192,107380,1,8,0:0:0:0:
256,192,107494,1,0,0:0:0:0:
256,192,107719,1,0,0:0:0:0:
256,192,107831,1,8,0:0:0:0:
256,192,107945,1,8,0:0:0:0:
256,192,108282,1,8,0:0:0:0:
256,192,108395,1,0,0:0:0:0:
256,192,108621,1,8,0:0:0:0:
256,192,108847,1,8,0:0:0:0:
256,192,109072,1,8,0:0:0:0:
256,192,109185,1,8,0:0:0:0:
256,192,109298,1,0,0:0:0:0:
256,192,109523,1,0,0:0:0:0:
256,192,109636,1,0,0:0:0:0:
256,192,109749,1,8,0:0:0:0:
256,192,110088,1,8,0:0:0:0:
256,192,110200,1,0,0:0:0:0:
256,192,110426,1,8,0:0:0:0:
256,192,110652,1,0,0:0:0:0:
256,192,110876,1,0,0:0:0:0:
256,192,110989,1,8,0:0:0:0:
256,192,111103,1,0,0:0:0:0:
256,192,111328,1,0,0:0:0:0:
256,192,111441,1,0,0:0:0:0:
256,192,111554,1,8,0:0:0:0:
256,192,111892,1,8,0:0:0:0:
256,192,112005,1,0,0:0:0:0:
256,192,112230,1,0,0:0:0:0:
256,192,112343,1,8,0:0:0:0:
256,192,112456,1,0,0:0:0:0:
256,192,112681,1,8,0:0:0:0:
256,192,112794,1,0,0:0:0:0:
256,192,112907,1,0,0:0:0:0:
256,192,113132,1,0,0:0:0:0:
256,192,113246,1,0,0:0:0:0:
256,192,113358,1,8,0:0:0:0:
256,192,113697,1,8,0:0:0:0:
256,192,113810,1,0,0:0:0:0:
256,192,114034,1,8,0:0:0:0:
256,192,114147,1,0,0:0:0:0:
256,192,114261,1,8,0:0:0:0:
256,192,114486,1,8,0:0:0:0:
256,192,114599,1,8,0:0:0:0:
256,192,114711,1,0,0:0:0:0:
256,192,114824,1,8,0:0:0:0:
256,192,114937,1,0,0:0:0:0:
256,192,115050,1,0,0:0:0:0:
256,192,115163,1,8,0:0:0:0:
256,192,115501,1,8,0:0:0:0:
256,192,115614,1,0,0:0:0:0:
256,192,115840,1,0,0:0:0:0:
256,192,115953,1,0,0:0:0:0:
256,192,116065,1,8,0:0:0:0:
256,192,116291,1,8,0:0:0:0:
256,192,116403,1,0,0:0:0:0:
256,192,116516,1,8,0:0:0:0:
256,192,116628,1,0,0:0:0:0:
256,192,116742,1,0,0:0:0:0:
256,192,116855,1,8,0:0:0:0:
256,192,116968,1,8,0:0:0:0:
256,192,117306,1,8,0:0:0:0:
256,192,117419,1,0,0:0:0:0:
256,192,117644,1,8,0:0:0:0:
256,192,117756,1,0,0:0:0:0:
256,192,117870,1,8,0:0:0:0:
256,192,118095,1,8,0:0:0:0:
256,192,118208,1,0,0:0:0:0:
256,192,118320,1,8,0:0:0:0:
256,192,118433,1,8,0:0:0:0:
256,192,118547,1,0,0:0:0:0:
256,192,118658,1,8,0:0:0:0:
256,192,118772,1,0,0:0:0:0:
256,192,119110,1,8,0:0:0:0:
256,192,119222,1,0,0:0:0:0:
256,192,119448,1,8,0:0:0:0:
256,192,119561,1,0,0:0:0:0:
256,192,119673,1,0,0:0:0:0:
256,192,119786,1,0,0:0:0:0:
256,192,119899,1,8,0:0:0:0:
256,192,120012,1,8,0:0:0:0:
256,192,120125,1,0,0:0:0:0:
256,192,120237,1,8,0:0:0:0:
256,192,120350,1,0,0:0:0:0:
256,192,120425,1,0,0:0:0:0:
256,192,120501,1,0,0:0:0:0:
256,192,120576,1,12,0:0:0:0:
