osu file format v14

[General]
AudioFilename: audio.mp3
AudioLeadIn: 0
PreviewTime:1220
Countdown: 0
SampleSet: Soft
StackLeniency: 0.6
Mode: 0
LetterboxInBreaks: 0
WidescreenStoryboard: 1

[Editor]
DistanceSpacing: 1
BeatDivisor: 4
GridSize: 16
TimelineZoom: 2.3

[Metadata]
Title:Supernova
TitleUnicode:スーパーノヴァ
Artist:r-906 feat. Otomachi Una
ArtistUnicode:r-906 feat. 音街ウナ
Creator:Ryuusei Aika
Version:Astrolis' Extra
Source:
Tags:Robinia Dubturt Kowari Astrolis l1ght_u light_u -Hitomi Japanese Rock Megpoid GUMI メグッポイド グミ Vocaloid ボーカロイド ボカロ Fushi 中村涼真 Nakamura Ryoma Una-Chance!2 Chance! 超新星
BeatmapID:4009934
BeatmapSetID:1895206

[Difficulty]
HPDrainRate:5
CircleSize:3.8
OverallDifficulty:8.8
ApproachRate:9.2
SliderMultiplier:1.6
SliderTickRate:1

[Events]
//Background and Video events
0,0,"bg.jpg",0,0
//Break Periods
2,119889,132588
//Storyboard Layer 0 (Background)
//Storyboard Layer 1 (Fail)
//Storyboard Layer 2 (Pass)
//Storyboard Layer 3 (Foreground)
//Storyboard Layer 4 (Overlay)
//Storyboard Sound Samples

[TimingPoints]
1220,306.122448979592,4,2,1,40,1,0
1220,-153.846153846154,4,2,1,40,0,0
6117,-153.846153846154,4,2,1,30,0,0
6424,-153.846153846154,4,2,1,40,0,0
10709,-153.846153846154,4,2,1,50,0,0
11015,-100,4,2,1,60,0,0
20811,-133.333333333333,4,2,1,50,0,0
25709,-117.647058823529,4,2,1,50,0,0
30301,-117.647058823529,4,2,1,60,0,0
30607,-117.647058823529,4,2,1,50,0,0
40403,-100,4,2,1,60,0,0
50199,-117.647058823529,4,2,1,60,0,0
69791,-200,4,2,1,60,0,0
69944,-200,4,2,1,45,0,0
71015,-125,4,2,1,40,0,0
71168,-125,4,2,1,44,0,0
71322,-125,4,2,1,48,0,0
71475,-125,4,2,1,52,0,0
71628,-125,4,2,1,56,0,0
71781,-125,4,2,1,60,0,0
71934,-125,4,2,1,64,0,0
72087,-125,4,2,1,68,0,0
72240,-100,4,2,1,70,0,0
74077,-333.333333333333,4,2,1,50,0,0
74689,-80,4,2,3,70,0,0
74995,-80,4,2,1,80,0,0
93668,-80,4,2,3,60,0,0
93745,-80,4,2,1,80,0,0
94281,-90.9090909090909,4,2,1,70,0,0
113873,-166.666666666667,4,2,1,50,0,0
118771,-111.111111111111,4,2,1,60,0,0
119689,-111.111111111111,4,2,99,60,0,0
119995,-111.111111111111,4,2,1,50,0,0
120301,-111.111111111111,4,2,99,50,0,0
120607,-111.111111111111,4,2,1,50,0,0
120913,-111.111111111111,4,2,99,50,0,0
121220,-111.111111111111,4,2,1,50,0,0
121526,-111.111111111111,4,2,99,50,0,0
121832,-111.111111111111,4,2,1,50,0,0
122138,-111.111111111111,4,2,99,50,0,0
122444,-111.111111111111,4,2,1,50,0,0
122750,-111.111111111111,4,2,99,50,0,0
123056,-111.111111111111,4,2,1,50,0,0
123362,-111.111111111111,4,2,99,50,0,0
123668,-111.111111111111,4,2,1,50,0,0
123974,-111.111111111111,4,2,99,50,0,0
124280,-111.111111111111,4,2,1,50,0,0
124586,-111.111111111111,4,2,99,50,0,0
124893,-111.111111111111,4,2,1,50,0,0
125199,-111.111111111111,4,2,99,50,0,0
125505,-111.111111111111,4,2,1,50,0,0
125811,-111.111111111111,4,2,99,50,0,0
126117,-111.111111111111,4,2,1,50,0,0
126423,-111.111111111111,4,2,99,50,0,0
126729,-111.111111111111,4,2,1,50,0,0
127035,-111.111111111111,4,2,99,50,0,0
127342,-111.111111111111,4,2,1,50,0,0
127648,-111.111111111111,4,2,99,50,0,0
127954,-111.111111111111,4,2,1,50,0,0
128260,-111.111111111111,4,2,99,50,0,0
128566,-111.111111111111,4,2,1,50,0,0
128872,-111.111111111111,4,2,99,50,0,0
129178,-111.111111111111,4,2,1,50,0,0
129484,-111.111111111111,4,2,99,50,0,0
129791,-111.111111111111,4,2,1,50,0,0
130097,-111.111111111111,4,2,99,50,0,0
130403,-111.111111111111,4,2,1,50,0,0
130709,-111.111111111111,4,2,99,50,0,0
131015,-111.111111111111,4,2,1,50,0,0
131321,-111.111111111111,4,2,99,50,0,0
131627,-111.111111111111,4,2,1,50,0,0
131933,-111.111111111111,4,2,99,50,0,0
132240,-111.111111111111,4,2,1,50,0,0
132546,-111.111111111111,4,2,99,50,0,0
132852,-111.111111111111,4,2,1,50,0,0
133464,-125,4,2,1,60,0,0
140811,-250,4,2,1,60,0,0
143260,-80,4,2,3,70,0,0
143566,-80,4,2,1,80,0,0
162239,-80,4,2,3,60,0,0
162316,-80,4,2,1,80,0,0
162852,-80,4,2,1,70,0,0
187342,-200,4,2,1,70,0,0

[Colours]
Combo1 : 128,128,255
Combo2 : 128,0,255

[HitObjects]
507,293,1220,6,0,P|483:293|391:297,1,103.999995239258,2|2,3:2|0:2,0:0:0:0:
334,256,1679,1,2,0:0:0:0:
352,371,1832,2,0,P|321:347|320:328,2,51.999997619629,2|2|2,3:2|0:0|3:2,0:0:0:0:
403,296,2291,1,0,3:0:0:0:
215,376,2597,5,2,3:2:0:0:
215,376,2750,2,0,P|207:332|201:308,1,51.999997619629,2|2,3:2|0:2,0:0:0:0:
279,207,3056,2,0,P|273:232|269:258,1,51.999997619629,2|2,3:2|0:2,0:0:0:0:
389,127,3362,2,0,P|369:183|356:237,1,103.999995239258,2|2,3:2|3:2,0:0:0:0:
389,127,3975,6,0,P|357:103|364:40,1,103.999995239258,2|2,3:2|3:2,0:0:0:0:
444,58,4434,1,2,0:2:0:0:
484,185,4587,2,0,P|497:134|497:117,1,51.999997619629,2|2,0:2|3:2,0:0:0:0:
484,185,5046,6,0,P|487:232|482:251,2,51.999997619629,2|2|2,3:2|3:2|0:2,0:0:0:0:
444,58,5505,1,2,3:2:0:0:
360,43,5658,1,2,0:2:0:0:
360,43,5735,1,2,0:2:0:0:
360,43,5811,1,2,3:2:0:0:
312,110,5964,1,2,0:0:0:0:
175,21,6117,6,0,B|185:107|213:59|220:177,1,155.999992858887,6|2,3:2|0:0,0:0:0:0:
174,104,6730,1,2,3:2:0:0:
97,23,6883,2,0,P|97:66|96:93,2,51.999997619629,2|2|0,0:0|3:2|3:0,0:0:0:0:
71,205,7495,5,2,3:2:0:0:
71,205,7648,2,0,P|34:221|14:216,1,51.999997619629,2|2,3:2|0:2,0:0:0:0:
23,136,7954,1,2,3:2:0:0:
90,78,8107,1,2,0:2:0:0:
174,104,8260,2,0,P|217:110|294:124,1,103.999995239258,2|2,3:2|3:2,0:0:0:0:
494,155,9179,5,2,3:2:0:0:
240,3,9791,6,0,P|225:28|231:59,1,51.999997619629,2|2,0:0|0:0,0:0:0:0:
368,35,10097,2,0,P|368:60|354:82,1,51.999997619629,2|0,3:2|0:0,0:0:0:0:
253,230,10403,5,2,3:2:0:0:
137,166,10556,1,0,1:0:0:0:
115,323,10709,2,0,P|150:308|193:291,1,77.9999964294435,8|0,0:0|0:0,0:0:0:0:
99,314,11015,6,0,P|169:324|262:338,1,160,6|10,1:0|0:0,0:0:0:0:
378,378,11475,1,0,0:0:0:0:
455,255,11628,1,2,1:2:0:0:
341,301,11781,1,2,1:2:0:0:
377,101,11934,1,8,0:0:0:0:
341,301,12087,6,0,P|356:268|275:163,1,160,2|0,1:2|1:0,0:0:0:0:
164,124,12546,2,0,P|180:178|185:218,1,80,8|2,0:0|0:0,0:0:0:0:
215,26,12852,1,2,1:2:0:0:
288,84,13005,1,2,1:2:0:0:
491,14,13158,2,0,P|431:19|350:28,1,120,10|0,0:0|0:0,0:0:0:0:
363,22,13464,6,0,P|371:71|380:118,1,80,2|0,1:2|0:0,0:0:0:0:
512,145,13771,2,0,B|424:180|486:202|377:252,1,160,10|2,0:0|1:2,0:0:0:0:
245,291,14230,1,2,1:2:0:0:
333,173,14383,1,10,0:0:0:0:
380,355,14536,6,0,P|482:300|517:262,1,160,2|0,1:2|1:0,0:0:0:0:
333,173,14995,2,0,P|301:200|309:255,1,80,8|2,0:0|0:0,0:0:0:0:
181,371,15301,1,2,1:2:0:0:
144,279,15454,1,2,1:2:0:0:
114,185,15607,2,0,P|122:130|132:50,1,120,10|0,0:0|0:0,0:0:0:0:
135,57,15913,6,0,P|87:22|24:84,1,160,6|10,1:0|0:0,0:0:0:0:
168,132,16373,1,0,0:0:0:0:
231,22,16526,1,2,1:2:0:0:
276,105,16679,1,2,1:2:0:0:
394,8,16832,1,8,0:0:0:0:
512,112,16985,6,0,P|433:129|328:155,1,160,2|0,1:2|1:0,0:0:0:0:
296,260,17444,2,0,P|255:242|198:231,1,80,8|2,0:0|0:0,0:0:0:0:
119,372,17750,1,2,1:2:0:0:
15,322,17903,1,2,1:2:0:0:
38,197,18056,2,0,P|95:166|136:202,1,120,10|0,0:0|0:0,0:0:0:0:
143,199,18362,6,0,P|162:145|169:95,1,80,2|0,1:2|0:0,0:0:0:0:
122,351,18668,2,0,P|191:359|295:378,1,160,10|2,0:0|1:2,0:0:0:0:
394,235,19128,1,2,1:2:0:0:
296,260,19281,1,10,0:0:0:0:
240,102,19434,6,0,P|145:108|72:113,1,160,2|0,1:2|1:0,0:0:0:0:
17,297,19893,2,0,P|68:289|91:252,1,80,8|2,0:0|0:0,0:0:0:0:
4,174,20199,1,2,1:2:0:0:
143,199,20352,1,2,1:2:0:0:
3,39,20505,2,0,P|89:32|145:24,1,120,10|0,0:0|0:0,0:0:0:0:
129,37,20811,6,0,B|196:56|158:83|243:109,2,120.000004577637,4|2|2,1:0|1:2|1:2,0:0:0:0:
248,23,21730,1,2,1:2:0:0:
320,113,22036,6,0,B|313:167|304:241,2,120.000004577637,0|2|2,1:0|1:2|1:2,0:0:0:0:
248,23,22954,1,2,1:2:0:0:
419,75,23260,6,0,P|467:71|492:-2,2,120.000004577637,2|2|2,1:2|1:2|1:2,0:0:0:0:
248,23,24179,1,2,1:2:0:0:
396,152,24485,6,0,P|462:169|512:179,1,120.000004577637,0|2,1:0|1:2,0:0:0:0:
419,75,24944,1,8,3:0:0:0:
339,90,25097,1,4,3:0:0:0:
481,282,25250,5,2,3:0:0:0:
408,239,25403,1,2,1:2:0:0:
506,95,25556,1,8,3:0:0:0:
506,95,25633,1,8,3:0:0:0:
506,95,25709,6,0,P|508:59|428:-8,1,136.000002593994,4|2,1:0|1:2,0:0:0:0:
216,117,26168,1,10,0:0:0:0:
284,53,26322,2,0,P|348:62|441:79,1,136.000002593994,2|2,1:2|1:2,0:0:0:0:
243,200,26934,5,0,1:0:0:0:
212,188,27240,1,0,1:0:0:0:
273,214,27546,1,0,1:0:0:0:
208,149,27852,1,0,1:0:0:0:
267,258,28158,1,0,1:0:0:0:
259,116,28464,1,0,1:0:0:0:
224,286,28771,1,0,1:0:0:0:
337,126,29077,1,0,1:0:0:0:
154,246,29383,1,0,1:0:0:0:
388,217,29689,1,0,1:0:0:0:
156,148,29995,1,0,1:0:0:0:
97,86,30148,5,0,1:0:0:0:
139,15,30301,5,10,0:0:0:0:
225,20,30454,5,10,0:0:0:0:
225,20,30531,5,10,0:0:0:0:
225,20,30607,6,0,P|258:52|225:141,1,136.000002593994,4|10,1:0|1:2,0:0:0:0:
156,148,31066,1,0,0:0:0:0:
29,246,31220,1,2,1:2:0:0:
63,166,31373,2,0,P|50:104|43:7,1,136.000002593994,2|8,1:2|1:2,0:0:0:0:
225,20,31832,6,0,P|202:44|169:50,1,68.0000012969971,4|4,1:3|1:3,0:0:0:0:
139,31,32061,1,0,0:0:0:0:
139,31,32138,1,8,3:2:0:0:
305,58,32291,2,0,L|313:13,2,34.0000006484985,4|4|4,3:0|3:0|1:3,0:0:0:0:
358,144,32597,2,0,P|304:156|274:165,1,68.0000012969971,4|8,1:3|1:2,0:0:0:0:
260,254,32903,6,0,P|207:279|118:338,1,136.000002593994,8|8,3:0|1:3,0:0:0:0:
54,376,33362,2,0,P|44:332|41:301,1,68.0000012969971,10|4,1:2|3:0,0:0:0:0:
67,277,33592,1,4,3:0:0:0:
67,277,33668,1,4,1:3:0:0:
218,318,33822,1,4,1:3:0:0:
107,199,33975,1,4,1:3:0:0:
179,147,34128,1,8,1:2:0:0:
264,243,34281,6,0,P|299:241|372:315,1,136.000002593994,8|8,3:0|1:2,0:0:0:0:
434,378,34740,1,0,1:0:0:0:
434,378,34816,1,8,0:0:0:0:
434,378,34893,1,4,1:3:0:0:
505,288,35046,1,4,1:3:0:0:
372,180,35199,2,0,B|427:167|424:213|492:199,1,102.000001945496,10|0,1:2|0:0,0:0:0:0:
480,208,35505,6,0,P|491:132|500:62,1,136.000002593994,4|10,1:0|1:2,0:0:0:0:
422,15,35964,1,0,0:0:0:0:
359,101,36117,2,0,P|321:89|285:53,2,68.0000012969971,2|2|10,1:2|1:2|1:2,0:0:0:0:
257,6,36577,6,0,P|256:73|236:158,2,136.000002593994,8|4|4,1:2|1:3|3:0,0:0:0:0:
227,0,37265,1,4,3:0:0:0:
227,0,37342,1,4,1:3:0:0:
147,121,37495,2,0,P|116:143|88:143,1,68.0000012969971,4|8,1:3|1:2,0:0:0:0:
1,196,37801,1,8,3:0:0:0:
54,0,37954,5,4,1:3:0:0:
54,0,38260,2,0,P|41:52|28:95,1,68.0000012969971,10|4,1:2|3:0,0:0:0:0:
17,95,38490,1,4,3:0:0:0:
17,95,38566,1,4,1:3:0:0:
127,44,38720,1,4,1:3:0:0:
224,133,38873,2,0,P|206:184|182:284,1,136.000002593994,4|8,1:3|3:0,0:0:0:0:
17,374,39332,6,0,P|28:324|125:304,1,136.000002593994,4|0,1:3|1:0,0:0:0:0:
131,325,39714,1,8,0:0:0:0:
131,325,39791,1,4,1:3:0:0:
24,279,39944,1,4,1:3:0:0:
225,374,40097,2,0,P|282:363|349:351,1,102.000001945496,10|0,1:2|0:0,0:0:0:0:
332,365,40403,6,0,P|378:352|361:250,1,160,6|10,1:0|0:0,0:0:0:0:
213,237,40862,1,0,0:0:0:0:
313,144,41015,2,0,P|322:93|325:44,2,80,2|2|8,1:2|1:2|0:0,0:0:0:0:
288,274,41475,6,0,B|204:282|233:335|134:351,1,160,2|0,1:2|1:0,0:0:0:0:
81,195,41934,2,0,P|89:246|93:281,1,80,8|2,0:0|0:0,0:0:0:0:
180,155,42240,1,2,1:2:0:0:
182,64,42393,1,2,1:2:0:0:
0,96,42546,2,0,P|63:89|85:24,1,120,10|0,0:0|0:0,0:0:0:0:
80,33,42852,6,0,P|72:87|68:143,1,80,2|0,1:2|0:0,0:0:0:0:
92,274,43158,2,0,P|112:298|205:226,1,160,10|2,0:0|1:2,0:0:0:0:
180,155,43617,1,2,1:2:0:0:
73,190,43771,1,10,0:0:0:0:
14,337,43924,6,0,P|68:321|172:380,1,160,2|0,1:2|1:0,0:0:0:0:
302,379,44383,2,0,P|325:345|333:302,1,80,8|2,0:0|0:0,0:0:0:0:
263,163,44689,1,2,1:2:0:0:
208,253,44842,1,2,1:2:0:0:
414,203,44995,2,0,P|401:151|345:125,1,120,10|0,0:0|0:0,0:0:0:0:
345,137,45301,6,0,P|418:155|506:179,1,160,6|10,1:0|0:0,0:0:0:0:
327,225,45760,1,0,0:0:0:0:
451,327,45913,2,0,P|484:296|489:249,2,80,2|2|8,1:2|1:2|0:0,0:0:0:0:
273,381,46373,6,0,P|248:363|212:221,1,160,2|0,1:2|1:0,0:0:0:0:
345,137,46832,2,0,P|351:85|364:37,1,80,8|2,0:0|0:0,0:0:0:0:
165,121,47138,1,2,1:2:0:0:
257,167,47291,1,2,1:2:0:0:
218,17,47444,2,0,P|136:33|69:48,1,120,10|0,0:0|0:0,0:0:0:0:
100,54,47750,6,0,P|41:49|10:49,1,80,2|0,1:2|0:0,0:0:0:0:
126,270,48056,2,0,P|155:222|163:112,1,160,10|2,0:0|1:2,0:0:0:0:
26,204,48515,1,2,1:2:0:0:
20,48,48668,1,10,0:0:0:0:
218,17,48822,6,0,P|314:26|396:34,1,160,6|0,1:2|1:0,0:0:0:0:
495,130,49281,1,8,0:0:0:0:
346,190,49434,1,6,0:0:0:0:
492,12,49587,1,2,1:2:0:0:
346,190,49740,1,2,1:2:0:0:
262,97,49893,1,10,0:0:0:0:
398,125,50046,1,0,0:0:0:0:
320,269,50199,6,0,P|322:324|410:358,1,136.000002593994,4|10,1:0|0:0,0:0:0:0:
499,362,50658,2,0,P|511:315|512:301,2,34.0000006484985,2|0|2,0:0|0:0|1:2,0:0:0:0:
434,300,50964,1,2,1:2:0:0:
293,362,51117,1,4,3:0:0:0:
230,300,51271,1,8,0:0:0:0:
346,190,51424,5,2,0:0:0:0:
290,249,51577,2,0,P|216:265|126:288,1,136.000002593994,2|4,1:2|3:0,0:0:0:0:
129,258,51959,1,0,0:0:0:0:
129,258,52036,1,2,1:2:0:0:
89,365,52189,2,0,P|139:375|165:383,1,68.0000012969971,2|8,1:2|0:0,0:0:0:0:
21,306,52495,6,0,P|3:288|9:228,1,68.0000012969971,2|0,0:0|1:2,0:0:0:0:
56,119,52801,1,4,3:0:0:0:
109,176,52954,2,0,P|151:167|194:152,1,68.0000012969971,8|8,0:0|0:0,0:0:0:0:
197,134,53184,1,8,0:0:0:0:
197,134,53260,2,0,P|230:99|226:79,1,68.0000012969971,2|2,1:2|1:2,0:0:0:0:
133,81,53566,1,4,3:0:0:0:
44,91,53720,1,8,0:0:0:0:
203,0,53873,6,0,P|239:7|288:17,1,68.0000012969971,10|0,3:0|1:0,0:0:0:0:
319,144,54179,2,0,P|329:128|385:106,1,68.0000012969971,10|4,0:0|3:0,0:0:0:0:
402,128,54408,1,4,3:0:0:0:
402,128,54485,1,2,1:2:0:0:
426,216,54638,1,2,1:2:0:0:
238,287,54791,2,0,P|244:221|246:167,1,102.000001945496,12|0,0:0|0:0,0:0:0:0:
253,183,55097,6,0,P|305:191|338:266,1,136.000002593994,4|10,1:0|0:0,0:0:0:0:
402,351,55556,1,2,0:0:0:0:
402,351,55633,1,0,0:0:0:0:
402,351,55709,1,2,1:2:0:0:
309,377,55862,1,2,1:2:0:0:
176,344,56015,2,0,P|136:355|79:358,1,68.0000012969971,4|8,3:0|0:0,0:0:0:0:
2,241,56322,6,0,P|34:231|68:226,1,68.0000012969971,2|2,0:0|1:2,0:0:0:0:
138,111,56628,2,0,P|202:125|228:125,1,68.0000012969971,10|4,0:0|3:0,0:0:0:0:
241,118,56857,1,0,0:0:0:0:
241,118,56934,1,2,1:2:0:0:
348,164,57087,2,0,P|376:132|374:90,1,68.0000012969971,2|8,1:2|0:0,0:0:0:0:
194,20,57393,6,0,P|274:33|335:42,2,136.000002593994,2|4|8,0:0|3:0|0:0,0:0:0:0:
157,42,58082,1,8,0:0:0:0:
157,42,58158,1,2,1:2:0:0:
136,142,58311,2,0,P|97:154|-13:161,1,136.000002593994,2|8,1:2|0:0,0:0:0:0:
8,17,58771,6,0,P|47:25|64:72,1,68.0000012969971,10|0,3:0|1:0,0:0:0:0:
136,142,59077,2,0,P|179:167|194:204,1,68.0000012969971,10|4,0:0|3:0,0:0:0:0:
179,222,59306,1,4,3:0:0:0:
179,222,59383,1,2,1:2:0:0:
90,257,59536,1,2,1:2:0:0:
288,162,59689,2,0,B|347:165|330:197|384:209,1,102.000001945496,12|0,0:0|0:0,0:0:0:0:
381,217,59995,6,0,P|427:216|448:298,1,136.000002593994,4|10,1:0|0:0,0:0:0:0:
501,379,60454,1,2,0:0:0:0:
335,384,60607,2,0,P|357:377|411:369,1,68.0000012969971,2|2,1:2|1:2,0:0:0:0:
246,276,60913,1,4,3:0:0:0:
327,294,61066,1,8,0:0:0:0:
176,375,61220,6,0,P|160:337|171:289,2,68.0000012969971,2|2|10,0:0|1:2|0:0,0:0:0:0:
261,356,61679,1,4,3:0:0:0:
261,356,61755,1,0,0:0:0:0:
261,356,61832,1,2,1:2:0:0:
182,234,61985,2,0,P|174:190|169:148,1,68.0000012969971,2|8,1:2|0:0,0:0:0:0:
273,131,62291,6,0,P|281:87|286:45,1,68.0000012969971,2|0,0:0|1:2,0:0:0:0:
113,8,62597,1,4,3:0:0:0:
178,59,62750,2,0,P|132:92|103:84,1,68.0000012969971,8|8,0:0|0:0,0:0:0:0:
78,83,62980,1,8,0:0:0:0:
78,83,63056,2,0,P|26:89|31:181,1,136.000002593994,2|4,1:2|3:0,0:0:0:0:
95,213,63515,1,8,0:0:0:0:
31,384,63668,6,0,P|21:336|12:224,1,136.000002593994,10|10,3:0|0:0,0:0:0:0:
144,347,64128,1,4,3:0:0:0:
144,347,64204,1,4,3:0:0:0:
144,347,64281,2,0,P|150:297|155:265,1,68.0000012969971,2|2,1:2|1:2,0:0:0:0:
279,384,64587,2,0,P|272:314|261:257,1,102.000001945496,12|0,0:0|0:0,0:0:0:0:
250,276,64893,6,0,B|250:197|282:222|280:127,1,136.000002593994,4|10,1:0|0:0,0:0:0:0:
238,6,65352,1,2,0:0:0:0:
192,83,65505,2,0,P|242:54|344:57,1,136.000002593994,2|4,1:2|3:0,0:0:0:0:
377,172,65964,6,0,P|405:157|428:109,1,68.0000012969971,8|2,0:0|0:0,0:0:0:0:
457,0,66271,2,0,P|422:17|415:116,1,136.000002593994,2|4,1:2|3:0,0:0:0:0:
424,127,66653,1,0,0:0:0:0:
424,127,66730,1,2,1:2:0:0:
511,158,66883,1,2,1:2:0:0:
397,250,67036,2,0,P|431:239|469:236,1,68.0000012969971,8|2,0:0|0:0,0:0:0:0:
306,219,67342,5,0,1:2:0:0:
306,219,67495,1,4,3:0:0:0:
411,373,67648,2,0,P|372:381|333:355,1,68.0000012969971,8|8,0:0|0:0,0:0:0:0:
330,350,67878,1,8,0:0:0:0:
331,350,67954,1,2,1:2:0:0:
381,273,68107,1,2,1:2:0:0:
306,219,68260,1,4,3:0:0:0:
361,88,68413,6,0,P|293:104|219:114,1,136.000002593994,8|0,0:0|1:0,0:0:0:0:
114,205,68873,2,0,P|72:192|53:155,1,68.0000012969971,10|4,0:0|3:0,0:0:0:0:
63,137,69102,1,4,3:0:0:0:
63,137,69179,1,2,1:2:0:0:
129,58,69332,1,2,1:2:0:0:
209,213,69485,2,0,P|224:156|227:96,1,102.000001945496,12|0,0:0|0:0,0:0:0:0:
242,110,69791,6,0,P|266:94|218:1,1,160,4|2,1:0|0:0,0:0:0:0:
164,64,70556,2,0,L|139:60,2,20,2|0|2,0:0|0:0|0:0,0:0:0:0:
68,47,70862,1,2,0:0:0:0:
244,111,71015,5,8,0:0:0:0:
356,0,71168,1,8,0:0:0:0:
424,96,71322,1,8,0:0:0:0:
338,111,71475,1,8,0:0:0:0:
449,17,71628,1,8,0:0:0:0:
244,111,71781,1,8,0:0:0:0:
505,162,71934,1,8,0:0:0:0:
244,111,72087,1,8,0:0:0:0:
240,367,72240,6,0,P|167:358|144:355,1,80,4|0,1:0|1:0,0:0:0:0:
0,167,72546,2,0,P|39:161|79:157,1,80,8|0,0:2|1:0,0:0:0:0:
266,253,72852,2,0,P|275:180|278:157,1,80,8|0,0:2|1:0,0:0:0:0:
466,13,73158,2,0,P|472:52|476:92,1,80,8|0,0:2|1:0,0:0:0:0:
491,323,73464,5,12,0:0:0:0:
482,312,74077,2,0,L|486:279,3,23.9999992675781,0|0|0|0,3:0|3:0|3:0|3:0,0:0:0:0:
483,42,74689,6,0,P|422:29|395:110,1,150,4|0,1:0|0:0,0:0:0:0:
380,112,74995,2,0,P|391:175|431:182,1,100,10|0,0:0|0:0,0:0:0:0:
229,1,75301,2,0,P|328:12|394:19,1,150,2|0,1:2|0:0,0:0:0:0:
388,9,75607,1,8,0:0:0:0:
281,133,75760,1,2,1:2:0:0:
131,23,75913,6,0,P|138:84|147:136,1,100,2|0,0:0|1:0,0:0:0:0:
179,271,76220,1,8,0:0:0:0:
0,202,76373,2,0,P|18:130|36:49,1,150,2|0,0:0|0:0,0:0:0:0:
42,51,76679,2,0,P|53:106|64:154,1,100,2|8,1:2|0:0,0:0:0:0:
111,365,76985,1,2,0:0:0:0:
174,191,77138,6,0,B|264:160|237:231|352:201,1,150,2|0,1:2|0:0,0:0:0:0:
327,211,77444,2,0,P|294:251|296:302,1,100,10|0,0:0|0:0,0:0:0:0:
438,162,77750,2,0,P|394:86|327:82,1,150,2|0,1:2|0:0,0:0:0:0:
333,88,78056,1,10,0:0:0:0:
420,248,78209,1,2,1:2:0:0:
467,8,78362,6,0,P|384:80|326:97,1,150,2|0,0:0|0:0,0:0:0:0:
333,88,78668,1,10,0:0:0:0:
139,24,78822,2,0,P|175:25|201:95,1,100,2|2,0:0|1:2,0:0:0:0:
337,218,79128,2,0,P|318:248|244:236,1,100,2|8,1:2|0:0,0:0:0:0:
0,136,79434,1,2,0:0:0:0:
262,159,79587,6,0,P|164:179|100:198,1,150,6|0,1:2|0:0,0:0:0:0:
104,199,79893,2,0,P|49:217|5:236,1,100,8|0,0:0|0:0,0:0:0:0:
175,384,80199,2,0,P|186:327|192:279,1,100,2|2,1:2|1:2,0:0:0:0:
353,316,80505,2,0,P|346:266|336:217,1,100,10|0,0:0|1:0,0:0:0:0:
262,35,80811,6,0,P|205:27|183:117,1,150,2|0,0:0|0:0,0:0:0:0:
182,108,81117,2,0,P|180:58|166:-12,1,100,8|0,0:0|0:2,0:0:0:0:
425,84,81424,2,0,P|416:133|414:183,1,100,2|2,1:2|1:2,0:0:0:0:
284,275,81730,2,0,P|282:225|273:175,1,100,8|0,0:0|0:0,0:0:0:0:
304,3,82036,6,0,B|406:25|341:56|439:89,1,150,2|0,1:2|0:0,0:0:0:0:
434,94,82342,2,0,P|477:70|475:22,1,100,10|0,0:0|0:0,0:0:0:0:
283,189,82648,2,0,P|298:119|298:77,1,100,2|2,1:2|1:2,0:0:0:0:
391,283,82954,1,8,0:0:0:0:
512,196,83107,1,2,1:2:0:0:
346,23,83260,6,0,B|238:34|309:68|194:85,1,150,2|0,0:0|0:0,0:0:0:0:
200,83,83566,1,8,0:0:0:0:
391,283,83720,2,0,P|394:218|394:154,1,100,2|2,0:0|1:2,0:0:0:0:
229,379,84026,2,0,P|226:314|226:250,1,100,2|10,1:2|0:0,0:0:0:0:
83,118,84332,1,0,0:0:0:0:
23,286,84485,6,0,P|113:260|130:194,1,150,4|0,1:0|0:0,0:0:0:0:
134,207,84791,2,0,P|78:202|28:194,1,100,10|0,0:0|0:0,0:0:0:0:
229,379,85097,2,0,P|247:270|256:203,1,150,2|0,1:2|0:0,0:0:0:0:
255,217,85403,1,8,0:0:0:0:
167,108,85556,1,2,1:2:0:0:
315,5,85709,6,0,P|381:11|396:95,1,150,2|0,0:0|1:0,0:0:0:0:
398,94,86015,1,8,0:0:0:0:
486,319,86168,2,0,P|495:220|495:170,1,150,2|0,0:0|0:0,0:0:0:0:
494,159,86475,2,0,P|442:154|413:221,1,100,2|8,1:2|0:0,0:0:0:0:
406,378,86781,1,2,0:0:0:0:
277,135,86934,6,0,P|297:222|310:322,1,150,2|0,1:2|0:0,0:0:0:0:
308,296,87240,2,0,P|320:255|342:185,1,100,10|0,0:0|0:0,0:0:0:0:
391,89,87470,1,0,0:0:0:0:
391,89,87546,2,0,P|347:110|268:37,1,150,2|0,1:2|0:0,0:0:0:0:
271,43,87852,1,10,0:0:0:0:
429,12,88005,1,2,1:2:0:0:
277,135,88158,6,0,P|203:139|107:151,1,150,2|0,0:0|0:0,0:0:0:0:
116,158,88464,1,10,0:0:0:0:
5,7,88617,2,0,P|30:62|97:50,1,100,2|2,0:0|1:2,0:0:0:0:
287,17,88924,2,0,P|219:22|176:26,1,100,2|8,1:2|0:0,0:0:0:0:
221,232,89230,1,2,0:0:0:0:
22,264,89383,6,0,P|38:218|121:156,1,150,6|0,1:2|0:0,0:0:0:0:
130,156,89689,2,0,P|118:212|130:268,1,100,8|0,0:0|0:0,0:0:0:0:
302,384,89995,2,0,P|308:334|296:286,1,100,2|2,1:2|1:2,0:0:0:0:
226,134,90301,2,0,P|214:182|220:231,1,100,10|0,0:0|1:0,0:0:0:0:
401,378,90607,6,0,P|461:364|494:281,1,150,2|0,0:0|0:0,0:0:0:0:
499,276,90913,2,0,P|495:213|440:189,1,100,8|0,0:0|0:2,0:0:0:0:
324,90,91220,2,0,P|392:102|443:113,1,100,2|2,1:2|1:2,0:0:0:0:
396,277,91526,2,0,P|346:286|297:295,1,100,8|0,0:0|0:0,0:0:0:0:
16,305,91832,6,0,B|108:317|49:358|171:376,1,150,2|0,1:2|0:0,0:0:0:0:
159,377,92138,2,0,P|161:319|153:248,1,100,10|0,0:0|0:0,0:0:0:0:
30,127,92444,2,0,P|79:157|144:186,1,100,2|2,1:2|1:2,0:0:0:0:
375,137,92750,1,8,0:0:0:0:
262,226,92903,1,2,1:2:0:0:
133,67,93056,6,0,P|161:23|254:36,1,150,2|0,0:0|0:0,0:0:0:0:
253,45,93362,1,8,0:0:0:0:
199,141,93515,1,2,0:0:0:0:
25,137,93668,2,0,B|5:123|5:123|31:-8,1,150,4|0,1:0|0:0,0:0:0:0:
75,0,93975,2,0,B|101:16|101:16|110:94,1,100,10|0,0:0|0:0,0:0:0:0:
8,326,94281,6,0,P|88:235|139:233,1,176.000005371094,4|8,1:0|0:0,0:0:0:0:
186,310,94740,1,0,0:0:0:0:
337,99,94893,2,0,P|272:109|239:225,1,176.000005371094,2|10,1:2|0:2,0:0:0:0:
186,310,95352,1,2,1:2:0:0:
217,46,95505,6,0,P|286:95|344:114,1,132.00000402832,2|0,0:0|0:0,0:0:0:0:
337,99,95811,1,10,0:0:0:0:
295,15,95964,1,2,0:0:0:0:
388,186,96117,1,2,1:2:0:0:
428,95,96271,1,2,1:2:0:0:
317,253,96424,1,10,0:0:0:0:
191,130,96577,1,2,0:0:0:0:
110,239,96730,6,0,P|62:239|8:210,1,88.000002685547,2|2,1:2|0:0,0:0:0:0:
16,1,97036,2,0,P|64:1|147:67,1,132.00000402832,10|0,0:0|0:0,0:0:0:0:
131,60,97342,1,2,1:2:0:0:
12,117,97495,1,2,1:2:0:0:
111,154,97648,1,8,0:0:0:0:
223,32,97801,1,2,1:2:0:0:
283,95,97954,5,0,0:0:0:0:
440,34,98107,1,2,1:2:0:0:
396,204,98260,1,8,0:0:0:0:
373,116,98413,2,0,P|450:128|508:141,1,132.00000402832,2|0,0:0|0:0,0:0:0:0:
507,154,98720,1,2,1:2:0:0:
320,268,98873,2,0,P|300:242|307:179,1,88.000002685547,10|2,0:0|0:0,0:0:0:0:
464,249,99179,5,2,1:2:0:0:
412,342,99332,1,2,0:0:0:0:
424,349,99408,1,2,0:0:0:0:
433,355,99485,1,10,0:0:0:0:
464,249,99638,1,2,0:0:0:0:
310,373,99791,5,2,1:2:0:0:
291,355,99867,1,2,0:2:0:0:
269,340,99944,1,2,1:2:0:0:
153,284,100097,1,10,0:0:0:0:
326,152,100250,5,2,1:2:0:0:
301,189,100327,1,2,0:2:0:0:
255,214,100403,1,2,0:2:0:0:
153,284,100556,1,2,1:2:0:0:
1,99,100709,5,10,0:2:0:0:
44,96,100785,1,2,0:2:0:0:
85,112,100862,1,2,0:2:0:0:
114,144,100938,1,0,0:0:0:0:
127,186,101015,1,2,1:2:0:0:
153,284,101168,5,2,1:2:0:0:
1,99,101322,1,10,0:2:0:0:
8,315,101475,1,2,0:0:0:0:
183,86,101628,6,0,P|274:86|346:60,1,132.00000402832,4|0,1:0|0:0,0:0:0:0:
314,85,101934,2,0,P|359:97|388:-3,1,176.000005371094,10|2,0:0|1:2,0:0:0:0:
251,11,102393,1,2,1:2:0:0:
307,177,102546,1,10,0:0:0:0:
409,105,102699,1,2,1:2:0:0:
183,86,102852,6,0,P|136:85|40:139,1,132.00000402832
52,128,103158,2,0,P|6:108|16:52,1,88.000002685547,10|10,0:0|0:0,0:0:0:0:
115,11,103464,1,2,1:2:0:0:
142,175,103617,1,2,1:2:0:0:
256,101,103771,6,0,B|214:118|214:118|197:164|197:164|158:181,1,132.00000402832,10|2,0:0|0:2,0:0:0:0:
142,175,104077,6,0,P|169:200|174:219,1,44.0000013427735,2|2,1:2|0:2,0:0:0:0:
101,262,104230,2,0,P|180:258|222:335,1,176.000005371094,2|2,0:2|0:2,0:0:0:0:
404,370,104689,5,2,1:2:0:0:
398,352,104765,1,2,0:2:0:0:
395,337,104842,1,2,1:2:0:0:
330,264,104995,2,0,B|336:207|336:207|341:203|341:203|349:128,1,132.00000402832,10|2,0:0|0:2,0:0:0:0:
351,124,105301,5,2,0:2:0:0:
453,210,105454,1,2,1:2:0:0:
330,264,105607,2,0,B|272:281|272:281|258:179,1,132.00000402832,10|2,0:0|0:2,0:0:0:0:
211,144,105913,5,2,1:2:0:0:
214,130,105990,1,2,0:2:0:0:
216,119,106066,1,2,1:2:0:0:
288,5,106220,2,0,B|346:17|346:17|352:34|352:34|421:47,1,132.00000402832,8|2,0:0|0:2,0:0:0:0:
412,58,106526,6,0,B|438:55|438:55|452:16,1,44.0000013427735,2|2,1:2|0:2,0:0:0:0:
336,62,106679,2,0,P|391:117|413:211,1,176.000005371094,2|2,0:2|0:2,0:0:0:0:
285,380,107138,5,2,1:2:0:0:
295,366,107214,1,2,0:2:0:0:
311,356,107291,1,2,1:2:0:0:
512,352,107444,2,0,B|468:345|468:345|440:306|440:306|401:299,1,132.00000402832,8|2,0:0|0:2,0:0:0:0:
384,295,107750,5,2,0:2:0:0:
259,263,107903,1,2,1:2:0:0:
169,376,108056,2,0,B|123:370|123:370|95:339|95:339|31:362,1,132.00000402832,10|2,0:0|0:2,0:0:0:0:
14,288,108362,5,2,1:2:0:0:
16,276,108439,1,2,0:2:0:0:
18,263,108515,1,2,1:2:0:0:
167,113,108668,2,0,B|209:163|209:163|179:249,1,132.00000402832,10|8,0:0|0:0,0:0:0:0:
177,236,108975,6,0,P|37:216|170:43,1,440.000013427735,4|2,1:0|1:2,0:0:0:0:
306,240,109893,6,0,B|315:225|315:225|308:184,1,44.0000013427735,8|0,0:0|0:0,0:0:0:0:
283,193,110046,2,0,B|265:244|265:244|304:333,1,132.00000402832,0|0,1:0|0:0,0:0:0:0:
303,331,110352,2,0,L|434:295,1,132.00000402832,0|0,1:0|0:0,0:0:0:0:
445,296,110658,2,0,B|477:332|477:332|456:374,1,88.000002685547,0|0,0:0|1:0,0:0:0:0:
376,377,110964,5,0,1:0:0:0:
492,227,111117,1,8,0:0:0:0:
286,88,111271,1,0,0:0:0:0:
289,195,111424,5,2,1:2:0:0:
303,193,111500,1,2,0:2:0:0:
313,191,111577,1,2,0:2:0:0:
326,189,111653,1,2,0:2:0:0:
364,156,111730,1,10,0:2:0:0:
377,158,111806,1,2,0:2:0:0:
387,160,111883,1,2,0:2:0:0:
401,162,111959,1,2,0:2:0:0:
444,139,112036,6,0,L|440:91,1,44.0000013427735,2|2,1:2|0:2,0:0:0:0:
196,18,112189,2,0,L|192:61,1,44.0000013427735,2|2,1:2|0:2,0:0:0:0:
210,7,112342,6,0,L|254:4,1,44.0000013427735,10|2,0:2|0:2,0:0:0:0:
431,77,112495,2,0,L|388:74,1,44.0000013427735,2|2,1:2|0:2,0:0:0:0:
152,157,112648,5,4,1:0:0:0:
491,4,112801,1,8,0:0:0:0:
491,4,112878,1,8,0:0:0:0:
491,4,112954,1,0,1:0:0:0:
386,73,113107,1,4,3:0:0:0:
381,62,113184,1,4,3:0:0:0:
379,53,113260,1,8,0:0:0:0:
275,138,113413,6,0,L|288:83,5,44.0000013427735,4|4|8|8|8|4,3:0|3:0|0:0|0:0|3:0|3:0,0:0:0:0:
229,29,113873,6,0,B|66:21|-9:188|56:346|182:395|387:347|414:178|345:86|345:86|42:206|22:239|22:239|72:239|182:189,1,1295.99996044922,4|4,1:0|3:0,0:0:0:0:
259,208,118311,6,0,L|298:189,2,23.9999992675781,2|2|2,3:0|3:0|1:2,0:0:0:0:
98,375,118617,1,8,3:0:0:0:
98,375,118694,1,8,3:0:0:0:
98,375,118771,6,0,P|73:339|97:254,1,107.999996704102,4|0,1:0|0:0,0:0:0:0:
86,271,119077,5,0,1:0:0:0:
408,330,119230,2,0,P|309:344|181:376,1,215.999993408203,8|8,0:0|1:2,0:0:0:0:
504,374,133158,5,2,1:2:0:0:
489,365,133311,1,2,1:2:0:0:
493,380,133464,6,0,P|478:328|149:105,1,448,4|2,1:0|1:2,0:0:0:0:
178,105,134842,1,0,1:0:0:0:
125,181,134995,2,0,P|77:172|40:164,1,64,8|4,0:0|3:0,0:0:0:0:
47,151,135225,1,4,3:0:0:0:
47,151,135301,1,2,1:2:0:0:
97,72,135454,1,2,1:2:0:0:
203,219,135607,2,0,P|268:204|352:178,1,128,8|2,0:0|1:2,0:0:0:0:
512,0,136220,6,0,B|441:15|475:40|381:69,1,128,10|2,0:0|1:2,0:0:0:0:
319,102,136679,2,0,P|273:79|264:53,2,64,2|10|2,1:2|0:0|0:0,0:0:0:0:
101,105,137291,5,0,1:0:0:0:
183,13,137444,2,0,P|136:26|113:32,1,64,8|4,0:0|3:0,0:0:0:0:
186,136,137674,1,4,3:0:0:0:
186,136,137750,2,0,P|216:144|247:152,1,64,2|2,1:2|1:2,0:0:0:0:
324,254,138056,2,0,P|384:235|420:226,1,96,10|4,0:0|3:0,0:0:0:0:
409,217,138362,6,0,P|451:192|492:256,1,128,4|10,1:0|1:2,0:0:0:0:
441,310,138822,1,10,1:2:0:0:
357,367,138975,1,8,1:2:0:0:
218,370,139128,1,8,1:2:0:0:
76,303,139281,1,8,3:2:0:0:
222,137,139434,1,8,3:2:0:0:
257,279,139587,5,10,0:0:0:0:
63,207,139740,1,10,0:0:0:0:
137,383,139893,1,8,0:0:0:0:
147,90,140046,1,8,0:0:0:0:
76,303,140199,5,8,0:0:0:0:
71,271,140275,1,8,0:0:0:0:
67,239,140352,1,8,0:0:0:0:
63,207,140428,1,8,0:0:0:0:
58,176,140505,1,8,0:0:0:0:
54,144,140581,1,8,0:0:0:0:
50,112,140658,1,8,0:0:0:0:
46,80,140734,1,8,0:0:0:0:
48,69,140811,6,0,P|75:58|108:27,1,64,2|2,3:2|0:2,0:0:0:0:
163,93,141271,1,2,0:2:0:0:
210,27,141424,1,2,3:2:0:0:
235,174,141577,2,0,P|254:161|272:131,1,48,2|0,0:2|0:0,0:0:0:0:
271,128,141883,6,0,P|303:137|341:147,1,64,2|2,3:2|3:2,0:0:0:0:
292,55,142342,1,2,3:2:0:0:
386,72,142495,1,2,3:2:0:0:
436,176,142648,1,2,3:2:0:0:
376,287,142801,2,0,P|344:277|324:232,1,80,2|0,3:2|0:0,0:0:0:0:
326,220,143260,6,0,P|346:175|449:194,1,150,4|0,1:0|0:0,0:0:0:0:
441,190,143566,2,0,P|450:101|459:69,1,100,10|0,0:0|0:0,0:0:0:0:
329,0,143873,2,0,P|293:1|234:103,1,150,2|0,1:2|0:0,0:0:0:0:
236,100,144179,1,8,0:0:0:0:
138,186,144332,1,2,1:2:0:0:
9,25,144485,6,0,P|61:52|114:64,1,100,2|0,0:0|1:0,0:0:0:0:
236,100,144791,1,8,0:0:0:0:
4,243,144944,2,0,P|50:225|79:127,1,150,2|0,0:0|0:0,0:0:0:0:
70,133,145250,2,0,P|61:182|85:241,1,100,2|8,1:2|0:0,0:0:0:0:
240,367,145556,1,2,0:0:0:0:
0,341,145709,6,0,B|95:313|47:371|170:334,1,150,2|0,1:2|0:0,0:0:0:0:
158,343,146015,2,0,P|166:289|182:223,1,100,10|0,0:0|0:0,0:0:0:0:
351,225,146322,2,0,P|339:139|320:50,1,150,2|0,1:2|0:0,0:0:0:0:
319,64,146628,1,10,0:0:0:0:
455,127,146781,1,2,1:2:0:0:
457,280,146934,6,0,P|447:336|344:365,1,150,2|0,0:0|0:0,0:0:0:0:
357,374,147240,1,10,0:0:0:0:
208,139,147393,2,0,P|273:149|319:157,1,100,2|2,0:0|1:2,0:0:0:0:
110,300,147699,2,0,P|175:290|221:282,1,100,2|8,1:2|0:0,0:0:0:0:
377,296,148005,1,2,0:0:0:0:
465,122,148158,6,0,P|462:57|383:8,1,150,6|0,1:2|0:0,0:0:0:0:
390,22,148464,2,0,P|338:39|276:58,1,100,8|0,0:0|0:0,0:0:0:0:
285,252,148771,2,0,P|296:198|310:135,1,100,2|2,1:2|1:2,0:0:0:0:
144,45,149077,2,0,P|184:81|232:125,1,100,10|0,0:0|1:0,0:0:0:0:
243,367,149383,6,0,P|173:373|124:288,1,150,2|0,0:0|0:0,0:0:0:0:
123,300,149689,2,0,P|65:282|26:324,1,100,8|0,0:0|0:2,0:0:0:0:
14,89,149995,2,0,P|42:147|58:191,1,100,2|2,1:2|1:2,0:0:0:0:
204,291,150301,2,0,P|222:244|244:199,1,100,8|0,0:0|0:0,0:0:0:0:
167,0,150607,6,0,P|222:51|306:74,1,150,2|0,1:2|0:0,0:0:0:0:
301,86,150913,2,0,P|362:73|422:68,1,100,10|0,0:0|0:0,0:0:0:0:
512,242,151220,2,0,P|470:237|428:171,1,100,2|2,1:2|1:2,0:0:0:0:
311,317,151526,1,8,0:0:0:0:
333,164,151679,1,2,1:2:0:0:
446,366,151832,6,0,P|436:286|421:194,1,150,2|0,0:0|0:0,0:0:0:0:
432,196,152138,1,8,0:0:0:0:
282,11,152291,2,0,B|367:23|329:71|434:90,1,150,2|0,0:0|0:0,0:0:0:0:
421,90,152597,2,0,P|444:34|494:20,1,100,2|10,1:2|0:0,0:0:0:0:
333,164,152903,1,0,0:0:0:0:
264,98,153056,6,0,P|193:105|75:131,1,150,4|0,1:0|0:0,0:0:0:0:
100,127,153362,2,0,P|92:75|80:20,1,100,10|0,0:0|0:0,0:0:0:0:
333,164,153668,2,0,P|261:186|232:256,1,150,2|0,1:2|0:0,0:0:0:0:
237,262,153975,1,8,0:0:0:0:
354,335,154128,1,2,1:2:0:0:
118,370,154281,6,0,P|122:297|128:241,1,100,2|0,0:0|1:0,0:0:0:0:
16,139,154587,1,8,0:0:0:0:
185,28,154740,2,0,P|225:82|167:147,1,150,2|0,0:0|0:0,0:0:0:0:
175,154,155046,2,0,P|113:175|73:205,1,100,2|8,1:2|0:0,0:0:0:0:
0,27,155352,1,2,0:0:0:0:
0,27,155429,1,2,0:0:0:0:
0,27,155505,6,0,P|46:19|98:106,1,150,2|0,1:2|0:0,0:0:0:0:
85,103,155811,2,0,P|67:157|91:200,1,100,10|0,0:0|0:0,0:0:0:0:
153,266,156041,1,0,0:0:0:0:
153,266,156117,2,0,P|115:234|19:260,1,150,2|0,1:2|0:0,0:0:0:0:
25,270,156424,1,10,0:0:0:0:
131,369,156577,1,2,1:2:0:0:
279,198,156730,6,0,P|260:262|244:386,1,150,2|0,0:0|0:0,0:0:0:0:
246,360,157036,1,10,0:0:0:0:
191,184,157189,2,0,P|216:134|277:118,1,100,2|2,0:0|1:2,0:0:0:0:
447,192,157495,2,0,P|391:195|346:150,1,100,2|8,1:2|0:0,0:0:0:0:
350,0,157801,1,2,0:0:0:0:
482,45,157954,6,0,P|388:81|302:92,1,150,6|0,1:2|0:0,0:0:0:0:
330,80,158260,2,0,P|309:39|241:27,1,100,8|0,0:0|0:0,0:0:0:0:
139,227,158566,2,0,P|142:166|140:113,1,100,2|2,1:2|1:2,0:0:0:0:
279,198,158873,2,0,P|278:247|280:297,1,100,10|0,0:0|1:0,0:0:0:0:
134,381,159179,6,0,B|46:359|92:322|15:294,1,150,2|0,0:0|0:0,0:0:0:0:
7,286,159485,2,0,P|9:221|9:167,1,100,8|0,0:0|0:2,0:0:0:0:
210,73,159791,2,0,P|183:119|130:123,1,100,2|2,1:2|1:2,0:0:0:0:
0,8,160097,2,0,P|47:18|69:61,1,100,8|0,0:0|0:0,0:0:0:0:
209,156,160403,6,0,P|214:230|217:305,1,150,2|0,1:2|0:0,0:0:0:0:
221,322,160709,2,0,P|247:370|303:371,1,100,10|0,0:0|0:0,0:0:0:0:
498,226,161015,2,0,P|443:224|414:272,1,100,2|2,1:2|1:2,0:0:0:0:
495,378,161322,1,8,0:0:0:0:
348,312,161475,1,2,1:2:0:0:
296,197,161628,6,0,P|306:128|324:34,1,150,2|0,0:0|0:0,0:0:0:0:
325,26,161934,1,8,0:0:0:0:
509,130,162087,2,0,P|505:72|463:41,1,100,2|4,0:0|1:0,0:0:0:0:
274,121,162393,2,0,P|226:132|184:107,1,100,2|10,1:2|0:0,0:0:0:0:
24,15,162699,1,0,0:0:0:0:
24,15,162776,1,0,0:0:0:0:
24,15,162852,5,12,0:0:0:0:
17,232,163158,6,0,P|85:242|137:253,1,100,10|0,0:0|1:0,0:0:0:0:
277,32,163464,2,0,P|169:18|117:7,1,150,10|0,0:0|0:0,0:0:0:0:
118,20,163771,1,10,0:0:0:0:
60,132,163924,1,0,1:0:0:0:
205,243,164077,2,0,P|248:207|236:140,1,100,10|0,0:0|1:0,0:0:0:0:
153,110,164383,1,10,0:0:0:0:
123,347,164536,2,0,P|115:263|116:221,1,100,0|10,1:0|0:0,0:0:0:0:
338,115,164842,2,0,P|346:199|345:241,1,100,0|8,1:0|0:0,0:0:0:0:
495,376,165148,1,0,1:0:0:0:
495,376,165225,1,0,1:0:0:0:
495,376,165301,5,10,0:0:0:0:
503,124,165607,6,0,P|473:125|433:229,1,150,10|0,0:0|0:0,0:0:0:0:
436,230,165913,2,0,P|426:168|412:113,1,100,10|0,0:0|1:0,0:0:0:0:
199,13,166220,1,10,0:0:0:0:
125,122,166373,1,0,1:0:0:0:
136,127,166449,1,0,1:0:0:0:
148,134,166526,1,8,0:0:0:0:
185,123,166602,1,8,0:0:0:0:
225,108,166679,1,8,0:0:0:0:
268,96,166755,1,8,0:0:0:0:
280,98,166832,1,2,1:2:0:0:
293,101,166908,1,2,1:2:0:0:
302,104,166985,6,0,P|284:193|280:227,1,100,2|0,1:2|1:0,0:0:0:0:
20,384,167291,2,0,P|12:334|0:285,1,100,12|0,0:0|1:0,0:0:0:0:
168,75,167597,2,0,P|185:134|188:153,1,50,4|0,1:0|0:0,0:0:0:0:
150,211,167750,6,0,P|153:141|200:56,1,150
168,75,168056,2,0,P|106:74|99:25,1,100,10|0,0:0|0:0,0:0:0:0:
411,9,168362,2,0,P|385:80|380:108,1,100,2|2,1:2|1:2,0:0:0:0:
290,270,168668,2,0,P|278:221|259:175,1,100,10|0,0:0|0:0,0:0:0:0:
356,355,168975,6,0,P|411:367|470:267,1,150,2|0,1:2|0:0,0:0:0:0:
486,299,169281,2,0,P|481:243|480:186,1,100,10|0,0:0|0:0,0:0:0:0:
411,9,169587,2,0,P|358:24|306:38,1,100,2|2,1:2|1:2,0:0:0:0:
163,148,169893,2,0,P|216:163|268:177,1,100,8|0,0:0|0:0,0:0:0:0:
61,166,170199,6,0,P|144:189|175:282,1,150,2|0,1:2|0:0,0:0:0:0:
176,256,170505,2,0,P|114:270|75:284,1,100,10|0,0:0|0:0,0:0:0:0:
12,49,170811,2,0,P|59:64|108:75,1,100,2|0,1:2|0:0,0:0:0:0:
280,25,171117,1,10,0:2:0:0:
163,148,171271,1,2,0:2:0:0:
315,301,171424,6,0,B|310:211|358:257|375:142,1,150,2|0,1:2|0:0,0:0:0:0:
368,153,171730,1,10,0:0:0:0:
178,355,171883,2,0,P|178:279|171:233,1,100,2|2,0:0|1:2,0:0:0:0:
448,384,172189,2,0,P|448:308|455:262,1,100,0|8,0:0|0:0,0:0:0:0:
260,139,172495,1,0,0:0:0:0:
260,139,172572,1,0,0:0:0:0:
260,139,172648,6,0,P|256:85|350:47,1,150,12|0,0:0|0:0,0:0:0:0:
336,52,172954,2,0,P|391:60|444:71,1,100,10|0,0:0|1:0,0:0:0:0:
370,245,173260,2,0,P|320:254|271:261,1,100,10|0,0:0|1:0,0:0:0:0:
102,196,173566,1,10,0:0:0:0:
347,146,173720,1,0,1:0:0:0:
102,196,173873,5,10,0:0:0:0:
22,136,174026,1,0,1:0:0:0:
103,25,174179,1,10,0:0:0:0:
224,204,174332,1,0,1:0:0:0:
224,204,174408,1,0,1:0:0:0:
224,204,174485,2,0,P|217:131|191:102,1,100,8|0,0:0|1:0,0:0:0:0:
103,25,174714,1,0,1:0:0:0:
103,25,174791,2,0,P|100:74|124:117,1,100,8|0,0:0|1:0,0:0:0:0:
206,115,175021,1,0,1:0:0:0:
206,115,175097,6,0,P|281:104|366:101,1,150,12|0,0:0|0:0,0:0:0:0:
365,110,175403,1,10,0:0:0:0:
496,8,175556,1,0,1:0:0:0:
339,12,175709,1,10,0:0:0:0:
330,212,175862,1,0,1:0:0:0:
449,125,176015,1,10,0:0:0:0:
339,12,176168,1,0,1:0:0:0:
449,125,176322,6,0,P|442:193|430:280,1,150,10|0,0:0|0:0,0:0:0:0:
429,290,176628,1,10,0:0:0:0:
194,362,176781,2,0,P|234:305|292:302,1,100,0|10,1:0|0:0,0:0:0:0:
472,368,177087,1,0,1:0:0:0:
472,368,177163,1,0,0:0:0:0:
472,368,177240,1,10,0:0:0:0:
288,379,177393,1,0,1:0:0:0:
288,379,177470,1,0,1:0:0:0:
288,379,177546,5,14,0:0:0:0:
217,220,177699,1,0,1:0:0:0:
349,293,177852,1,10,0:0:0:0:
257,124,178005,1,0,1:0:0:0:
106,194,178158,2,0,P|62:228|7:256,1,100,10|0,0:0|1:0,0:0:0:0:
198,383,178464,2,0,P|158:352|115:327,1,100,10|0,0:0|1:0,0:0:0:0:
310,208,178771,6,0,P|382:196|405:121,1,150,10|0,0:0|0:0,0:0:0:0:
405,118,179077,2,0,P|408:60|464:38,1,100,10|0,0:0|1:0,0:0:0:0:
508,87,179306,1,0,1:0:0:0:
508,87,179383,2,0,P|509:154|515:203,1,100,10|0,0:0|1:0,0:0:0:0:
504,289,179612,1,0,1:0:0:0:
504,289,179689,2,0,P|439:279|388:274,1,100,10|0,0:0|1:0,0:0:0:0:
314,211,179918,1,0,1:0:0:0:
314,211,179995,6,0,P|249:221|141:233,1,150,14|0,0:0|0:0,0:0:0:0:
153,237,180301,2,0,P|124:277|146:329,1,100,10|0,0:0|1:0,0:0:0:0:
207,369,180531,1,0,1:0:0:0:
207,369,180607,1,10,0:0:0:0:
86,267,180760,1,0,1:0:0:0:
86,267,180837,1,0,1:0:0:0:
86,267,180913,1,10,0:0:0:0:
216,109,181066,1,0,1:0:0:0:
216,109,181143,1,0,0:0:0:0:
216,109,181220,6,0,B|134:118|172:141|68:177,1,150,12|0,0:0|0:0,0:0:0:0:
66,169,181526,1,10,0:0:0:0:
5,20,181679,2,0,P|91:31|141:38,1,100,0|10,1:0|0:0,0:0:0:0:
256,193,181985,1,0,1:0:0:0:
256,193,182061,1,0,0:0:0:0:
256,193,182138,2,0,P|326:187|383:187,1,100,10|0,0:0|1:0,0:0:0:0:
442,214,182367,1,0,1:0:0:0:
442,214,182444,6,0,P|366:212|346:292,1,150,4|0,1:0|0:0,0:0:0:0:
345,289,182750,1,8,0:0:0:0:
381,102,182903,1,0,1:0:0:0:
381,102,182980,1,8,0:0:0:0:
381,102,183056,2,0,P|453:110|489:113,1,100,0|0,1:0|1:0,0:0:0:0:
444,339,183362,1,10,0:0:0:0:
509,273,183515,1,2,1:2:0:0:
238,375,183668,6,0,P|246:325|254:276,1,100,2|0,0:0|1:0,0:0:0:0:
355,186,183975,1,8,0:0:0:0:
132,37,184204,1,8,0:0:0:0:
132,37,184281,2,0,P|75:29|45:80,1,100,0|0,1:0|1:0,0:0:0:0:
169,242,184587,2,0,P|179:174|193:115,1,100,10|0,0:0|1:0,0:0:0:0:
109,115,184816,1,0,0:0:0:0:
109,115,184893,6,0,P|94:186|80:233,1,100,4|0,1:0|0:0,0:0:0:0:
239,14,185199,2,0,P|254:85|268:132,1,100,10|0,0:0|1:0,0:0:0:0:
298,187,185429,1,0,1:0:0:0:
298,187,185505,2,0,P|356:182|371:131,1,100,10|0,0:0|1:0,0:0:0:0:
433,78,185735,1,0,1:0:0:0:
433,78,185811,2,0,P|491:83|506:134,1,100,10|0,0:0|1:0,0:0:0:0:
465,186,186041,1,0,1:0:0:0:
465,186,186117,6,0,P|398:157|340:141,1,100,10|0,1:2|0:0,0:0:0:0:
290,19,186730,2,0,P|157:52|-19:99,1,300,4|0,1:0|0:0,0:0:0:0:
18,6,187342,6,0,B|116:53|204:91|204:91|230:13|230:13|282:78|282:78|362:38|362:38|337:127|337:127|396:199|396:199|317:214|317:214|293:299|293:299|241:229|241:229|150:257|150:257|177:173|177:173|77:125|-13:88,2,1280,4|4|0,1:0|1:0|0:0,0:0:0:0:
