osu file format v14

[General]
AudioFilename: audio.ogg
AudioLeadIn: 0
PreviewTime: 91338
Countdown: 0
SampleSet: Normal
StackLeniency: 0.7
Mode: 1
LetterboxInBreaks: 0
WidescreenStoryboard: 1

[Editor]
DistanceSpacing: 0.8
BeatDivisor: 4
GridSize: 32
TimelineZoom: 3.899998

[Metadata]
Title:EAT YOU UP (Sped Up Ver.)
TitleUnicode:EAT YOU UP (Sped Up Ver.)
Artist:r u s s e l b u c k
ArtistUnicode:r u s s e l b u c k
Creator:Invisible O
Version:ONI
Source:
Tags:russelbuck Electronic English Instrumental MCR spill tab CRÈME BRÛLÉE creme brulee
BeatmapID:4355709
BeatmapSetID:2077958

[Difficulty]
HPDrainRate:6
CircleSize:5
OverallDifficulty:6.2
ApproachRate:5
SliderMultiplier:1.4
SliderTickRate:1

[Events]
//Background and Video events
0,0,"333333.jpg",0,0
//Break Periods
//Storyboard Layer 0 (Background)
//Storyboard Layer 1 (Fail)
//Storyboard Layer 2 (Pass)
//Storyboard Layer 3 (Foreground)
//Storyboard Layer 4 (Overlay)
//Storyboard Sound Samples

[TimingPoints]
339,333.333333333333,4,1,0,65,1,8
672,333.333333333333,4,1,0,65,1,0
6005,-100,4,1,0,65,0,0
6171,-100,4,1,0,65,0,0
11296,-100,4,1,0,85,0,0
11338,-100,4,1,0,85,0,0
11500,-100,4,1,0,85,0,0
11583,-100,4,1,0,85,0,0
11666,-100,4,1,0,85,0,0
11833,-100,4,1,0,85,0,0
12000,-100,4,1,0,85,0,0
12166,-100,4,1,0,85,0,0
12250,-100,4,1,0,85,0,0
12416,-100,4,1,0,85,0,0
12500,-100,4,1,0,85,0,0
12666,-100,4,1,0,85,0,0
12833,-100,4,1,0,85,0,0
12916,-100,4,1,0,85,0,0
13000,-100,4,1,0,85,0,0
13166,-100,4,1,0,85,0,0
13333,-100,4,1,0,85,0,0
13500,-100,4,1,0,85,0,0
13583,-100,4,1,0,85,0,0
13666,-100,4,1,0,85,0,0
13750,-100,4,1,0,85,0,0
13833,-100,4,1,0,85,0,0
13916,-100,4,1,0,85,0,0
14000,-100,4,1,0,85,0,0
14166,-100,4,1,0,85,0,0
14250,-100,4,1,0,85,0,0
14333,-100,4,1,0,85,0,0
14500,-100,4,1,0,85,0,0
14666,-100,4,1,0,85,0,0
14750,-100,4,1,0,85,0,0
14916,-100,4,1,0,85,0,0
15000,-100,4,1,0,85,0,0
15166,-100,4,1,0,85,0,0
15333,-100,4,1,0,85,0,0
15416,-100,4,1,0,85,0,0
15500,-100,4,1,0,85,0,0
15583,-100,4,1,0,85,0,0
15666,-100,4,1,0,85,0,0
15833,-100,4,1,0,85,0,0
16000,-100,4,1,0,85,0,0
16083,-100,4,1,0,85,0,0
16166,-100,4,1,0,85,0,0
16250,-100,4,1,0,85,0,0
16333,-100,4,1,0,85,0,0
16416,-100,4,1,0,85,0,0
16500,-100,4,1,0,85,0,0
16583,-100,4,1,0,85,0,0
16671,-100,4,1,0,85,0,0
16833,-100,4,1,0,85,0,0
16916,-100,4,1,0,85,0,0
17000,-100,4,1,0,85,0,0
17166,-100,4,1,0,85,0,0
17333,-100,4,1,0,85,0,0
17416,-100,4,1,0,85,0,0
17500,-100,4,1,0,85,0,0
17583,-100,4,1,0,85,0,0
17666,-100,4,1,0,85,0,0
17833,-100,4,1,0,85,0,0
18000,-100,4,1,0,85,0,0
18166,-100,4,1,0,85,0,0
18250,-100,4,1,0,85,0,0
18333,-100,4,1,0,85,0,0
18500,-100,4,1,0,85,0,0
18666,-100,4,1,0,85,0,0
18750,-100,4,1,0,85,0,0
18833,-100,4,1,0,85,0,0
18916,-100,4,1,0,85,0,0
19000,-100,4,1,0,85,0,0
19083,-100,4,1,0,85,0,0
19166,-100,4,1,0,85,0,0
19250,-100,4,1,0,85,0,0
19333,-100,4,1,0,85,0,0
19500,-100,4,1,0,85,0,0
19583,-100,4,1,0,85,0,0
19666,-100,4,1,0,85,0,0
19833,-100,4,1,0,85,0,0
20000,-100,4,1,0,85,0,0
20166,-100,4,1,0,85,0,0
20250,-100,4,1,0,85,0,0
20416,-100,4,1,0,85,0,0
20500,-100,4,1,0,85,0,0
20666,-100,4,1,0,85,0,0
20833,-100,4,1,0,85,0,0
20916,-100,4,1,0,85,0,0
21000,-100,4,1,0,85,0,0
21083,-100,4,1,0,85,0,0
21166,-100,4,1,0,85,0,0
21250,-100,4,1,0,85,0,0
21333,-100,4,1,0,85,0,0
21416,-100,4,1,0,85,0,0
21500,-100,4,1,0,85,0,0
21583,-100,4,1,0,85,0,0
21666,-100,4,1,0,85,0,0
21750,-100,4,1,0,85,0,0
21833,-100,4,1,0,85,0,0
21916,-100,4,1,0,85,0,0
22005,-100,4,1,0,85,0,0
22171,-100,4,1,0,85,0,0
22500,-100,4,1,0,85,0,0
22583,-100,4,1,0,85,0,0
22666,-100,4,1,0,85,0,0
22833,-100,4,1,0,85,0,0
23000,-100,4,1,0,85,0,0
23083,-100,4,1,0,85,0,0
23166,-100,4,1,0,85,0,0
23333,-100,4,1,0,85,0,0
23416,-100,4,1,0,85,0,0
23500,-100,4,1,0,85,0,0
23666,-100,4,1,0,85,0,0
23750,-100,4,1,0,85,0,0
23833,-100,4,1,0,85,0,0
24000,-100,4,1,0,85,0,0
24083,-100,4,1,0,85,0,0
24166,-100,4,1,0,85,0,0
24333,-100,4,1,0,85,0,0
24416,-100,4,1,0,85,0,0
24500,-100,4,1,0,85,0,0
24583,-100,4,1,0,85,0,0
24666,-100,4,1,0,85,0,0
25000,-100,4,1,0,85,0,0
25166,-100,4,1,0,85,0,0
25250,-100,4,1,0,85,0,0
25333,-100,4,1,0,85,0,0
25500,-100,4,1,0,85,0,0
25666,-100,4,1,0,85,0,0
25750,-100,4,1,0,85,0,0
25833,-100,4,1,0,85,0,0
26000,-100,4,1,0,85,0,0
26083,-100,4,1,0,85,0,0
26166,-100,4,1,0,85,0,0
26250,-100,4,1,0,85,0,0
26416,-100,4,1,0,85,0,0
26500,-100,4,1,0,85,0,0
26583,-100,4,1,0,85,0,0
26666,-100,4,1,0,85,0,0
26833,-100,4,1,0,85,0,0
26916,-100,4,1,0,85,0,0
27000,-100,4,1,0,85,0,0
27083,-100,4,1,0,85,0,0
27166,-100,4,1,0,85,0,0
27250,-100,4,1,0,85,0,0
27333,-100,4,1,0,85,0,0
27666,-100,4,1,0,85,0,0
27833,-100,4,1,0,85,0,0
27916,-100,4,1,0,85,0,0
28000,-100,4,1,0,85,0,0
28166,-100,4,1,0,85,0,0
28333,-100,4,1,0,85,0,0
28416,-100,4,1,0,85,0,0
28500,-100,4,1,0,85,0,0
28666,-100,4,1,0,85,0,0
28750,-100,4,1,0,85,0,0
28833,-100,4,1,0,85,0,0
29000,-100,4,1,0,85,0,0
29083,-100,4,1,0,85,0,0
29166,-100,4,1,0,85,0,0
29333,-100,4,1,0,85,0,0
29416,-100,4,1,0,85,0,0
29500,-100,4,1,0,85,0,0
29666,-100,4,1,0,85,0,0
29750,-100,4,1,0,85,0,0
29833,-100,4,1,0,85,0,0
29916,-100,4,1,0,85,0,0
30000,-100,4,1,0,85,0,0
30333,-100,4,1,0,85,0,0
30500,-100,4,1,0,85,0,0
30833,-100,4,1,0,85,0,0
31000,-100,4,1,0,85,0,0
31166,-100,4,1,0,85,0,0
31333,-100,4,1,0,85,0,0
31583,-100,4,1,0,85,0,0
31833,-100,4,1,0,85,0,0
32166,-100,4,1,0,85,0,0
32333,-100,4,1,0,85,0,0
32630,-100,4,1,0,100,0,0
32671,-100,4,1,0,100,0,0
32755,-100,4,1,0,75,0,0
33000,-100,4,1,0,75,0,0
33333,-100,4,1,0,75,0,0
33583,-100,4,1,0,75,0,0
33666,-100,4,1,0,75,0,0
33750,-100,4,1,0,75,0,0
33833,-100,4,1,0,75,0,0
34005,-100,4,1,0,75,0,0
34334,-100,4,1,0,75,0,0
34667,-100,4,1,0,75,0,0
34917,-100,4,1,0,75,0,0
35000,-100,4,1,0,75,0,0
35084,-100,4,1,0,75,0,0
35167,-100,4,1,0,75,0,0
35338,-100,4,1,0,75,0,0
35667,-100,4,1,0,75,0,0
36000,-100,4,1,0,75,0,0
36250,-100,4,1,0,75,0,0
36333,-100,4,1,0,75,0,0
36417,-100,4,1,0,75,0,0
36500,-100,4,1,0,75,0,0
36671,-100,4,1,0,75,0,0
37000,-100,4,1,0,75,0,0
37333,-100,4,1,0,75,0,0
37583,-100,4,1,0,75,0,0
37666,-100,4,1,0,75,0,0
37750,-100,4,1,0,75,0,0
37833,-100,4,1,0,75,0,0
37963,-100,4,1,0,85,0,0
38000,-100,4,1,0,85,0,0
38083,-100,4,1,0,85,0,0
38166,-100,4,1,0,85,0,0
38333,-100,4,1,0,85,0,0
38416,-100,4,1,0,85,0,0
38500,-100,4,1,0,85,0,0
38666,-100,4,1,0,85,0,0
38750,-100,4,1,0,85,0,0
38833,-100,4,1,0,85,0,0
39000,-100,4,1,0,85,0,0
39083,-100,4,1,0,85,0,0
39166,-100,4,1,0,85,0,0
39250,-100,4,1,0,85,0,0
39333,-100,4,1,0,85,0,0
39416,-100,4,1,0,85,0,0
39500,-100,4,1,0,85,0,0
39666,-100,4,1,0,85,0,0
39750,-100,4,1,0,85,0,0
39833,-100,4,1,0,85,0,0
40000,-100,4,1,0,85,0,0
40083,-100,4,1,0,85,0,0
40166,-100,4,1,0,85,0,0
40333,-100,4,1,0,85,0,0
40416,-100,4,1,0,85,0,0
40500,-100,4,1,0,85,0,0
40583,-100,4,1,0,85,0,0
40666,-100,4,1,0,85,0,0
40750,-100,4,1,0,85,0,0
40833,-100,4,1,0,85,0,0
40916,-100,4,1,0,85,0,0
41000,-100,4,1,0,85,0,0
41083,-100,4,1,0,85,0,0
41166,-100,4,1,0,85,0,0
41250,-100,4,1,0,85,0,0
41333,-100,4,1,0,85,0,0
41416,-100,4,1,0,85,0,0
41500,-100,4,1,0,85,0,0
41583,-100,4,1,0,85,0,0
41666,-100,4,1,0,85,0,0
41750,-100,4,1,0,85,0,0
41833,-100,4,1,0,85,0,0
41916,-100,4,1,0,85,0,0
42000,-100,4,1,0,85,0,0
42083,-100,4,1,0,85,0,0
42166,-100,4,1,0,85,0,0
42250,-100,4,1,0,85,0,0
42333,-100,4,1,0,85,0,0
42416,-100,4,1,0,85,0,0
42500,-100,4,1,0,85,0,0
42583,-100,4,1,0,85,0,0
42666,-100,4,1,0,85,0,0
42750,-100,4,1,0,85,0,0
42833,-100,4,1,0,85,0,0
42916,-100,4,1,0,85,0,0
43000,-100,4,1,0,85,0,0
43083,-100,4,1,0,85,0,0
43166,-100,4,1,0,85,0,0
43250,-100,4,1,0,85,0,0
43296,-100,4,1,0,100,0,0
43338,-100,4,1,0,100,0,0
43421,-100,4,1,0,100,0,0
43583,-100,4,1,0,100,0,0
43666,-100,4,1,0,100,0,0
43833,-100,4,1,0,100,0,0
44000,-100,4,1,0,100,0,0
44083,-100,4,1,0,100,0,0
44166,-100,4,1,0,100,0,0
44250,-100,4,1,0,100,0,0
44333,-100,4,1,0,100,0,0
44416,-100,4,1,0,100,0,0
44500,-100,4,1,0,100,0,0
44666,-100,4,1,0,100,0,0
44833,-100,4,1,0,100,0,0
44916,-100,4,1,0,100,0,0
45000,-100,4,1,0,100,0,0
45166,-100,4,1,0,100,0,0
45333,-100,4,1,0,100,0,0
45416,-100,4,1,0,100,0,0
45500,-100,4,1,0,100,0,0
45583,-100,4,1,0,100,0,0
45666,-100,4,1,0,100,0,0
45750,-100,4,1,0,100,0,0
45833,-100,4,1,0,100,0,0
45916,-100,4,1,0,100,0,0
46000,-100,4,1,0,100,0,0
46166,-100,4,1,0,100,0,0
46250,-100,4,1,0,100,0,0
46333,-100,4,1,0,100,0,0
46500,-100,4,1,0,100,0,0
46666,-100,4,1,0,100,0,0
46833,-100,4,1,0,100,0,0
46916,-100,4,1,0,100,0,0
47083,-100,4,1,0,100,0,0
47166,-100,4,1,0,100,0,0
47333,-100,4,1,0,100,0,0
47416,-100,4,1,0,100,0,0
47500,-100,4,1,0,100,0,0
47583,-100,4,1,0,100,0,0
47750,-100,4,1,0,100,0,0
47833,-100,4,1,0,100,0,0
48000,-100,4,1,0,100,0,0
48083,-100,4,1,0,100,0,0
48166,-100,4,1,0,100,0,0
48250,-100,4,1,0,100,0,0
48416,-100,4,1,0,100,0,0
48500,-100,4,1,0,100,0,0
48666,-100,4,1,0,100,0,0
48833,-100,4,1,0,100,0,0
48916,-100,4,1,0,100,0,0
49000,-100,4,1,0,100,0,0
49166,-100,4,1,0,100,0,0
49333,-100,4,1,0,100,0,0
49416,-100,4,1,0,100,0,0
49500,-100,4,1,0,100,0,0
49583,-100,4,1,0,100,0,0
49666,-100,4,1,0,100,0,0
49750,-100,4,1,0,100,0,0
49833,-100,4,1,0,100,0,0
50000,-100,4,1,0,100,0,0
50166,-100,4,1,0,100,0,0
50250,-100,4,1,0,100,0,0
50333,-100,4,1,0,100,0,0
50500,-100,4,1,0,100,0,0
50666,-100,4,1,0,100,0,0
50750,-100,4,1,0,100,0,0
50833,-100,4,1,0,100,0,0
50916,-100,4,1,0,100,0,0
51000,-100,4,1,0,100,0,0
51083,-100,4,1,0,100,0,0
51166,-100,4,1,0,100,0,0
51250,-100,4,1,0,100,0,0
51333,-100,4,1,0,100,0,0
51500,-100,4,1,0,100,0,0
51583,-100,4,1,0,100,0,0
51666,-100,4,1,0,100,0,0
51833,-100,4,1,0,100,0,0
52000,-100,4,1,0,100,0,0
52083,-100,4,1,0,100,0,0
52166,-100,4,1,0,100,0,0
52250,-100,4,1,0,100,0,0
52333,-100,4,1,0,100,0,0
52416,-100,4,1,0,100,0,0
52500,-100,4,1,0,100,0,0
52666,-100,4,1,0,100,0,0
52750,-100,4,1,0,100,0,0
52833,-100,4,1,0,100,0,0
52916,-100,4,1,0,100,0,0
53000,-100,4,1,0,100,0,0
53083,-100,4,1,0,100,0,0
53166,-100,4,1,0,100,0,0
53333,-100,4,1,0,100,0,0
53416,-100,4,1,0,100,0,0
53500,-100,4,1,0,100,0,0
53583,-100,4,1,0,100,0,0
53666,-100,4,1,0,100,0,0
53750,-100,4,1,0,100,0,0
53833,-100,4,1,0,100,0,0
53916,-100,4,1,0,100,0,0
54005,-100,4,1,0,100,0,1
54171,-100,4,1,0,100,0,1
54250,-100,4,1,0,100,0,1
54333,-100,4,1,0,100,0,1
54505,-100,4,1,0,100,0,1
54666,-100,4,1,0,100,0,1
54750,-100,4,1,0,100,0,1
54833,-100,4,1,0,100,0,1
54916,-100,4,1,0,100,0,1
55000,-100,4,1,0,100,0,1
55166,-100,4,1,0,100,0,1
55333,-100,4,1,0,100,0,1
55416,-100,4,1,0,100,0,1
55500,-100,4,1,0,100,0,1
55583,-100,4,1,0,100,0,1
55666,-100,4,1,0,100,0,1
55750,-100,4,1,0,100,0,1
55833,-100,4,1,0,100,0,1
55916,-100,4,1,0,100,0,1
56000,-100,4,1,0,100,0,1
56083,-100,4,1,0,100,0,1
56166,-100,4,1,0,100,0,1
56250,-100,4,1,0,100,0,1
56333,-100,4,1,0,100,0,1
56505,-100,4,1,0,100,0,1
56666,-100,4,1,0,100,0,1
56750,-100,4,1,0,100,0,1
56833,-100,4,1,0,100,0,1
56916,-100,4,1,0,100,0,1
57000,-100,4,1,0,100,0,1
57083,-100,4,1,0,100,0,1
57166,-100,4,1,0,100,0,1
57250,-100,4,1,0,100,0,1
57333,-100,4,1,0,100,0,1
57416,-100,4,1,0,100,0,1
57500,-100,4,1,0,100,0,1
57583,-100,4,1,0,100,0,1
57666,-100,4,1,0,100,0,1
57833,-100,4,1,0,100,0,1
58000,-100,4,1,0,100,0,1
58083,-100,4,1,0,100,0,1
58166,-100,4,1,0,100,0,1
58250,-100,4,1,0,100,0,1
58333,-100,4,1,0,100,0,1
58416,-100,4,1,0,100,0,1
58500,-100,4,1,0,100,0,1
58583,-100,4,1,0,100,0,1
58666,-100,4,1,0,100,0,1
58750,-100,4,1,0,100,0,1
58833,-100,4,1,0,100,0,1
58916,-100,4,1,0,100,0,1
59000,-100,4,1,0,100,0,1
59083,-100,4,1,0,100,0,1
59166,-100,4,1,0,100,0,1
59333,-100,4,1,0,100,0,1
59416,-100,4,1,0,100,0,1
59500,-100,4,1,0,100,0,1
59583,-100,4,1,0,100,0,1
59666,-100,4,1,0,100,0,1
59833,-100,4,1,0,100,0,1
60000,-100,4,1,0,100,0,1
60083,-100,4,1,0,100,0,1
60166,-100,4,1,0,100,0,1
60250,-100,4,1,0,100,0,1
60333,-100,4,1,0,100,0,1
60416,-100,4,1,0,100,0,1
60500,-100,4,1,0,100,0,1
60666,-100,4,1,0,100,0,1
60750,-100,4,1,0,100,0,1
60833,-100,4,1,0,100,0,1
61000,-100,4,1,0,100,0,1
61083,-100,4,1,0,100,0,1
61166,-100,4,1,0,100,0,1
61333,-100,4,1,0,100,0,1
61416,-100,4,1,0,100,0,1
61500,-100,4,1,0,100,0,1
61583,-100,4,1,0,100,0,1
61666,-100,4,1,0,100,0,1
61750,-100,4,1,0,100,0,1
61833,-100,4,1,0,100,0,1
61916,-100,4,1,0,100,0,1
62000,-100,4,1,0,100,0,1
62166,-100,4,1,0,100,0,1
62250,-100,4,1,0,100,0,1
62333,-100,4,1,0,100,0,1
62416,-100,4,1,0,100,0,1
62500,-100,4,1,0,100,0,1
62666,-100,4,1,0,100,0,1
62833,-100,4,1,0,100,0,1
62916,-100,4,1,0,100,0,1
63000,-100,4,1,0,100,0,1
63083,-100,4,1,0,100,0,1
63166,-100,4,1,0,100,0,1
63333,-100,4,1,0,100,0,1
63416,-100,4,1,0,100,0,1
63500,-100,4,1,0,100,0,1
63583,-100,4,1,0,100,0,1
63666,-100,4,1,0,100,0,1
63750,-100,4,1,0,100,0,1
63833,-100,4,1,0,100,0,1
63916,-100,4,1,0,100,0,1
64000,-100,4,1,0,100,0,1
64083,-100,4,1,0,100,0,1
64166,-100,4,1,0,100,0,1
64250,-100,4,1,0,100,0,1
64333,-100,4,1,0,100,0,1
64500,-100,4,1,0,100,0,1
64583,-100,4,1,0,100,0,1
64671,-100,4,1,0,100,0,0
65005,-100,4,1,0,75,0,0
65338,-100,4,1,0,75,0,0
65416,-100,4,1,0,75,0,0
65500,-100,4,1,0,75,0,0
65583,-100,4,1,0,75,0,0
66005,-100,4,1,0,75,0,0
66083,-100,4,1,0,75,0,0
66167,-100,4,1,0,75,0,0
66250,-100,4,1,0,75,0,0
66671,-100,4,1,0,75,0,0
66749,-100,4,1,0,75,0,0
66833,-100,4,1,0,75,0,0
66916,-100,4,1,0,75,0,0
67338,-100,4,1,0,75,0,0
67416,-100,4,1,0,75,0,0
67500,-100,4,1,0,75,0,0
67583,-100,4,1,0,75,0,0
68005,-100,4,1,0,75,0,0
68083,-100,4,1,0,75,0,0
68167,-100,4,1,0,75,0,0
68250,-100,4,1,0,75,0,0
68671,-100,4,1,0,75,0,0
68749,-100,4,1,0,75,0,0
68833,-100,4,1,0,75,0,0
68916,-100,4,1,0,75,0,0
69333,-100,4,1,0,75,0,0
69416,-100,4,1,0,75,0,0
69500,-100,4,1,0,75,0,0
69583,-100,4,1,0,75,0,0
69666,-100,4,1,0,75,0,0
69750,-100,4,1,0,75,0,0
69833,-100,4,1,0,75,0,0
69916,-100,4,1,0,75,0,0
70005,-100,4,1,0,75,0,0
75296,-100,4,1,0,85,0,0
75338,-100,4,1,0,85,0,0
78000,-100,4,1,0,85,0,0
78083,-100,4,1,0,85,0,0
78166,-100,4,1,0,85,0,0
78250,-100,4,1,0,85,0,0
78333,-100,4,1,0,85,0,0
78500,-100,4,1,0,85,0,0
78666,-100,4,1,0,85,0,0
78750,-100,4,1,0,85,0,0
78833,-100,4,1,0,85,0,0
78916,-100,4,1,0,85,0,0
79000,-100,4,1,0,85,0,0
79083,-100,4,1,0,85,0,0
79166,-100,4,1,0,85,0,0
79333,-100,4,1,0,85,0,0
79416,-100,4,1,0,85,0,0
79500,-100,4,1,0,85,0,0
79583,-100,4,1,0,85,0,0
79666,-100,4,1,0,85,0,0
79833,-100,4,1,0,85,0,0
80000,-100,4,1,0,85,0,0
80083,-100,4,1,0,85,0,0
80166,-100,4,1,0,85,0,0
80250,-100,4,1,0,85,0,0
80333,-100,4,1,0,85,0,0
80500,-100,4,1,0,85,0,0
80630,-100,4,1,0,100,0,0
80671,-100,4,1,0,100,0,0
80755,-100,4,1,0,100,0,0
88000,-100,4,1,0,100,0,0
88166,-100,4,1,0,100,0,0
88250,-100,4,1,0,100,0,0
88333,-100,4,1,0,100,0,0
88500,-100,4,1,0,100,0,0
88666,-100,4,1,0,100,0,0
88750,-100,4,1,0,100,0,0
88833,-100,4,1,0,100,0,0
88916,-100,4,1,0,100,0,0
89000,-100,4,1,0,100,0,0
89083,-100,4,1,0,100,0,0
89166,-100,4,1,0,100,0,0
89250,-100,4,1,0,100,0,0
89333,-100,4,1,0,100,0,0
89416,-100,4,1,0,100,0,0
89500,-100,4,1,0,100,0,0
89583,-100,4,1,0,100,0,0
89666,-100,4,1,0,100,0,0
89750,-100,4,1,0,100,0,0
89833,-100,4,1,0,100,0,0
89916,-100,4,1,0,100,0,0
89963,-100,4,1,0,50,0,0
90000,-100,4,1,0,50,0,0
90671,-100,4,1,0,50,0,0
91005,-100,4,1,0,100,0,0
91338,-100,4,1,0,100,0,1
91504,-100,4,1,0,100,0,1
91583,-100,4,1,0,100,0,1
91666,-100,4,1,0,100,0,1
91750,-100,4,1,0,100,0,1
91838,-100,4,1,0,100,0,1
91999,-100,4,1,0,100,0,1
92083,-100,4,1,0,100,0,1
92166,-100,4,1,0,100,0,1
92249,-100,4,1,0,100,0,1
92333,-100,4,1,0,100,0,1
92416,-100,4,1,0,100,0,1
92499,-100,4,1,0,100,0,1
92666,-100,4,1,0,100,0,1
92749,-100,4,1,0,100,0,1
92833,-100,4,1,0,100,0,1
92916,-100,4,1,0,100,0,1
92999,-100,4,1,0,100,0,1
93083,-100,4,1,0,100,0,1
93166,-100,4,1,0,100,0,1
93249,-100,4,1,0,100,0,1
93333,-100,4,1,0,100,0,1
93416,-100,4,1,0,100,0,1
93499,-100,4,1,0,100,0,1
93583,-100,4,1,0,100,0,1
93666,-100,4,1,0,100,0,1
93838,-100,4,1,0,100,0,1
94005,-100,4,1,0,100,0,1
94083,-100,4,1,0,100,0,1
94171,-100,4,1,0,100,0,1
94250,-100,4,1,0,100,0,1
94333,-100,4,1,0,100,0,1
94417,-100,4,1,0,100,0,1
94505,-100,4,1,0,100,0,1
94666,-100,4,1,0,100,0,1
94750,-100,4,1,0,100,0,1
94833,-100,4,1,0,100,0,1
94916,-100,4,1,0,100,0,1
95000,-100,4,1,0,100,0,1
95083,-100,4,1,0,100,0,1
95166,-100,4,1,0,100,0,1
95333,-100,4,1,0,100,0,1
95416,-100,4,1,0,100,0,1
95499,-100,4,1,0,100,0,1
95583,-100,4,1,0,100,0,1
95666,-100,4,1,0,100,0,1
95749,-100,4,1,0,100,0,1
95833,-100,4,1,0,100,0,1
95916,-100,4,1,0,100,0,1
95999,-100,4,1,0,100,0,1
96083,-100,4,1,0,100,0,1
96249,-100,4,1,0,100,0,1
96333,-100,4,1,0,100,0,1
96499,-100,4,1,0,100,0,1
96666,-100,4,1,0,100,0,1
96749,-100,4,1,0,100,0,1
96833,-100,4,1,0,100,0,1
96916,-100,4,1,0,100,0,1
96999,-100,4,1,0,100,0,1
97083,-100,4,1,0,100,0,1
97166,-100,4,1,0,100,0,1
97250,-100,4,1,0,100,0,1
97333,-100,4,1,0,100,0,1
97416,-100,4,1,0,100,0,1
97499,-100,4,1,0,100,0,1
97583,-100,4,1,0,100,0,1
97666,-100,4,1,0,100,0,1
97749,-100,4,1,0,100,0,1
97833,-100,4,1,0,100,0,1
97999,-100,4,1,0,100,0,1
98083,-100,4,1,0,100,0,1
98166,-100,4,1,0,100,0,1
98250,-100,4,1,0,100,0,1
98333,-100,4,1,0,100,0,1
98416,-100,4,1,0,100,0,1
98499,-100,4,1,0,100,0,1
98583,-100,4,1,0,100,0,1
98666,-100,4,1,0,100,0,1
98749,-100,4,1,0,100,0,1
98921,-100,4,1,0,100,0,1
99000,-100,4,1,0,100,0,1
99083,-100,4,1,0,100,0,1
99166,-100,4,1,0,100,0,1
99333,-100,4,1,0,100,0,1
99416,-100,4,1,0,100,0,1
99499,-100,4,1,0,100,0,1
99583,-100,4,1,0,100,0,1
99666,-100,4,1,0,100,0,1
99749,-100,4,1,0,100,0,1
99833,-100,4,1,0,100,0,1
99916,-100,4,1,0,100,0,1
99999,-100,4,1,0,100,0,1
100083,-100,4,1,0,100,0,1
100166,-100,4,1,0,100,0,1
100249,-100,4,1,0,100,0,1
100333,-100,4,1,0,100,0,1
100416,-100,4,1,0,100,0,1
100499,-100,4,1,0,100,0,1
100671,-100,4,1,0,100,0,0
101005,-100,4,1,0,100,0,0
101088,-100,4,1,0,100,0,0
101671,-100,4,1,0,100,0,0
101755,-100,4,1,0,100,0,0
102005,-100,4,1,0,100,0,1
102083,-100,4,1,0,100,0,1
102171,-100,4,1,0,100,0,1
102254,-100,4,1,0,100,0,1
102338,-100,4,1,0,100,0,1
102421,-100,4,1,0,100,0,1
102505,-100,4,1,0,100,0,1
102588,-100,4,1,0,100,0,1
102671,-100,4,1,0,100,0,1
102754,-100,4,1,0,100,0,1
102838,-100,4,1,0,100,0,1
102921,-100,4,1,0,100,0,1
103005,-100,4,1,0,100,0,1
103088,-100,4,1,0,100,0,1
103171,-100,4,1,0,100,0,1
103254,-100,4,1,0,100,0,1
103338,-100,4,1,0,100,0,1
103583,-100,4,1,0,100,0,1
103666,-100,4,1,0,100,0,1
103833,-100,4,1,0,100,0,1
104000,-100,4,1,0,100,0,1
104166,-100,4,1,0,100,0,1
104250,-100,4,1,0,100,0,1
104333,-100,4,1,0,100,0,1
104500,-100,4,1,0,100,0,1
104666,-100,4,1,0,100,0,1
104750,-100,4,1,0,100,0,1
104833,-100,4,1,0,100,0,1
104916,-100,4,1,0,100,0,1
105000,-100,4,1,0,100,0,1
105083,-100,4,1,0,100,0,1
105166,-100,4,1,0,100,0,1
105250,-100,4,1,0,100,0,1
105333,-100,4,1,0,100,0,1
106005,-100,4,1,0,100,0,0

[HitObjects]
256,192,6005,5,12,0:0:0:0:
256,192,6338,1,0,0:0:0:0:
256,192,6671,1,0,0:0:0:0:
256,192,7005,1,0,0:0:0:0:
256,192,7088,1,0,0:0:0:0:
256,192,7171,1,8,0:0:0:0:
256,192,7255,1,8,0:0:0:0:
256,192,7338,1,0,0:0:0:0:
256,192,7671,1,8,0:0:0:0:
256,192,8005,1,8,0:0:0:0:
256,192,8255,1,0,0:0:0:0:
256,192,8338,1,0,0:0:0:0:
256,192,8505,1,8,0:0:0:0:
256,192,8671,1,0,0:0:0:0:
256,192,9005,1,8,0:0:0:0:
256,192,9338,1,0,0:0:0:0:
256,192,9671,1,0,0:0:0:0:
256,192,9755,1,0,0:0:0:0:
256,192,9838,1,8,0:0:0:0:
256,192,9921,1,8,0:0:0:0:
256,192,10005,1,0,0:0:0:0:
256,192,10338,1,8,0:0:0:0:
256,192,10671,1,0,0:0:0:0:
256,192,10921,1,8,0:0:0:0:
256,192,11005,1,8,0:0:0:0:
256,192,11088,1,0,0:0:0:0:
256,192,11338,1,12,0:0:0:0:
256,192,11671,1,8,0:0:0:0:
256,192,11838,1,8,0:0:0:0:
256,192,12005,1,0,0:0:0:0:
256,192,12255,1,8,0:0:0:0:
256,192,12505,1,0,0:0:0:0:
256,192,12671,1,8,0:0:0:0:
256,192,12838,1,0,0:0:0:0:
256,192,12921,1,0,0:0:0:0:
256,192,13005,1,8,0:0:0:0:
256,192,13171,1,0,0:0:0:0:
256,192,13338,1,8,0:0:0:0:
256,192,13588,1,8,0:0:0:0:
256,192,13838,1,0,0:0:0:0:
256,192,14005,1,8,0:0:0:0:
256,192,14171,1,0,0:0:0:0:
256,192,14255,1,0,0:0:0:0:
256,192,14338,1,0,0:0:0:0:
256,192,14505,1,8,0:0:0:0:
256,192,14671,1,0,0:0:0:0:
256,192,14755,1,8,0:0:0:0:
256,192,14921,1,8,0:0:0:0:
256,192,15005,1,0,0:0:0:0:
256,192,15171,1,8,0:0:0:0:
256,192,15338,1,0,0:0:0:0:
256,192,15588,1,0,0:0:0:0:
256,192,15838,1,0,0:0:0:0:
256,192,16005,1,8,0:0:0:0:
256,192,16255,1,8,0:0:0:0:
256,192,16505,1,8,0:0:0:0:
256,192,16671,1,4,0:0:0:0:
256,192,17005,1,8,0:0:0:0:
256,192,17171,1,0,0:0:0:0:
256,192,17338,1,8,0:0:0:0:
256,192,17421,1,8,0:0:0:0:
256,192,17505,1,0,0:0:0:0:
256,192,17588,1,8,0:0:0:0:
256,192,17838,1,0,0:0:0:0:
256,192,18005,1,8,0:0:0:0:
256,192,18171,1,0,0:0:0:0:
256,192,18255,1,0,0:0:0:0:
256,192,18338,1,0,0:0:0:0:
256,192,18505,1,8,0:0:0:0:
256,192,18671,1,0,0:0:0:0:
256,192,18755,1,0,0:0:0:0:
256,192,18838,1,8,0:0:0:0:
256,192,18921,1,8,0:0:0:0:
256,192,19171,1,8,0:0:0:0:
256,192,19338,1,0,0:0:0:0:
256,192,19505,1,8,0:0:0:0:
256,192,19588,1,8,0:0:0:0:
256,192,19671,1,0,0:0:0:0:
256,192,19838,1,8,0:0:0:0:
256,192,20005,1,0,0:0:0:0:
256,192,20255,1,0,0:0:0:0:
256,192,20505,1,0,0:0:0:0:
256,192,20671,1,8,0:0:0:0:
256,192,20921,1,8,0:0:0:0:
256,192,21171,1,8,0:0:0:0:
256,192,21338,1,0,0:0:0:0:
256,192,21588,1,0,0:0:0:0:
256,192,21838,1,8,0:0:0:0:
256,192,22005,1,4,0:0:0:0:
256,192,22338,1,8,0:0:0:0:
256,192,22505,1,0,0:0:0:0:
256,192,22588,1,0,0:0:0:0:
256,192,22671,1,8,0:0:0:0:
256,192,22838,1,0,0:0:0:0:
256,192,23005,1,8,0:0:0:0:
256,192,23088,1,8,0:0:0:0:
256,192,23171,1,8,0:0:0:0:
256,192,23338,1,0,0:0:0:0:
256,192,23671,1,8,0:0:0:0:
256,192,23838,1,8,0:0:0:0:
256,192,24005,1,0,0:0:0:0:
256,192,24338,1,8,0:0:0:0:
256,192,24421,1,8,0:0:0:0:
256,192,24505,1,8,0:0:0:0:
256,192,24588,1,8,0:0:0:0:
256,192,24671,1,0,0:0:0:0:
256,192,25005,1,8,0:0:0:0:
256,192,25171,1,0,0:0:0:0:
256,192,25255,1,0,0:0:0:0:
256,192,25338,1,8,0:0:0:0:
256,192,25505,1,0,0:0:0:0:
256,192,25671,1,8,0:0:0:0:
256,192,25755,1,0,0:0:0:0:
256,192,25838,1,8,0:0:0:0:
256,192,26005,1,0,0:0:0:0:
256,192,26255,1,0,0:0:0:0:
256,192,26505,1,8,0:0:0:0:
256,192,26755,1,8,0:0:0:0:
256,192,27005,1,0,0:0:0:0:
256,192,27088,1,0,0:0:0:0:
256,192,27171,1,8,0:0:0:0:
256,192,27255,1,8,0:0:0:0:
256,192,27338,1,4,0:0:0:0:
256,192,27671,1,8,0:0:0:0:
256,192,27838,1,0,0:0:0:0:
256,192,27921,1,0,0:0:0:0:
256,192,28005,1,8,0:0:0:0:
256,192,28171,1,0,0:0:0:0:
256,192,28338,1,8,0:0:0:0:
256,192,28421,1,8,0:0:0:0:
256,192,28505,1,8,0:0:0:0:
256,192,28671,1,0,0:0:0:0:
256,192,29005,1,0,0:0:0:0:
256,192,29171,1,0,0:0:0:0:
256,192,29338,1,8,0:0:0:0:
256,192,29671,1,0,0:0:0:0:
256,192,29755,1,0,0:0:0:0:
256,192,29838,1,8,0:0:0:0:
256,192,29921,1,8,0:0:0:0:
256,192,30005,1,0,0:0:0:0:
256,192,30338,1,8,0:0:0:0:
256,192,30505,1,0,0:0:0:0:
256,192,30838,1,0,0:0:0:0:
256,192,31005,1,8,0:0:0:0:
256,192,31171,1,8,0:0:0:0:
256,192,31338,1,0,0:0:0:0:
256,192,32671,1,4,0:0:0:0:
256,192,33005,1,8,0:0:0:0:
256,192,33338,1,0,0:0:0:0:
256,192,33671,1,8,0:0:0:0:
256,192,33755,1,8,0:0:0:0:
256,192,33838,1,0,0:0:0:0:
256,192,34005,1,8,0:0:0:0:
256,192,34338,1,0,0:0:0:0:
256,192,34671,1,8,0:0:0:0:
256,192,35005,1,0,0:0:0:0:
256,192,35088,1,0,0:0:0:0:
256,192,35171,1,8,0:0:0:0:
256,192,35338,1,0,0:0:0:0:
256,192,35671,1,8,0:0:0:0:
256,192,36005,1,0,0:0:0:0:
256,192,36338,1,8,0:0:0:0:
256,192,36421,1,0,0:0:0:0:
256,192,36505,1,8,0:0:0:0:
256,192,36671,1,0,0:0:0:0:
256,192,37005,1,8,0:0:0:0:
256,192,37338,1,0,0:0:0:0:
256,192,37588,1,8,0:0:0:0:
256,192,37671,1,0,0:0:0:0:
256,192,37838,1,8,0:0:0:0:
256,192,38005,1,0,0:0:0:0:
256,192,38171,1,8,0:0:0:0:
256,192,38255,1,8,0:0:0:0:
256,192,38338,1,0,0:0:0:0:
256,192,38505,1,8,0:0:0:0:
256,192,38671,1,0,0:0:0:0:
256,192,38838,1,8,0:0:0:0:
256,192,38921,1,0,0:0:0:0:
256,192,39005,1,8,0:0:0:0:
256,192,39088,1,8,0:0:0:0:
256,192,39171,1,0,0:0:0:0:
256,192,39338,1,8,0:0:0:0:
256,192,39505,1,0,0:0:0:0:
256,192,39588,1,0,0:0:0:0:
256,192,39671,1,8,0:0:0:0:
256,192,39838,1,0,0:0:0:0:
256,192,40005,1,8,0:0:0:0:
256,192,40171,1,0,0:0:0:0:
256,192,40255,1,0,0:0:0:0:
256,192,40338,1,8,0:0:0:0:
256,192,40421,1,8,0:0:0:0:
256,192,40505,1,0,0:0:0:0:
256,192,40671,1,8,0:0:0:0:
256,192,40838,1,0,0:0:0:0:
256,192,40921,1,0,0:0:0:0:
256,192,41005,1,8,0:0:0:0:
256,192,41171,1,0,0:0:0:0:
256,192,41255,1,0,0:0:0:0:
256,192,41338,1,0,0:0:0:0:
256,192,41421,1,0,0:0:0:0:
256,192,41505,1,8,0:0:0:0:
256,192,41671,1,0,0:0:0:0:
256,192,41755,1,8,0:0:0:0:
256,192,41838,1,0,0:0:0:0:
256,192,42005,1,8,0:0:0:0:
256,192,42171,1,8,0:0:0:0:
256,192,42255,1,8,0:0:0:0:
256,192,42338,1,0,0:0:0:0:
256,192,42505,1,8,0:0:0:0:
256,192,42588,1,8,0:0:0:0:
256,192,42671,1,8,0:0:0:0:
256,192,42755,1,8,0:0:0:0:
256,192,42838,1,0,0:0:0:0:
256,192,43005,1,8,0:0:0:0:
256,192,43088,1,0,0:0:0:0:
256,192,43171,1,8,0:0:0:0:
256,192,43338,1,4,0:0:0:0:
256,192,43671,1,8,0:0:0:0:
256,192,43838,1,0,0:0:0:0:
256,192,44005,1,0,0:0:0:0:
256,192,44088,1,0,0:0:0:0:
256,192,44171,1,8,0:0:0:0:
256,192,44255,1,0,0:0:0:0:
256,192,44421,1,0,0:0:0:0:
256,192,44505,1,8,0:0:0:0:
256,192,44671,1,0,0:0:0:0:
256,192,44838,1,8,0:0:0:0:
256,192,44921,1,8,0:0:0:0:
256,192,45005,1,0,0:0:0:0:
256,192,45171,1,8,0:0:0:0:
256,192,45338,1,0,0:0:0:0:
256,192,45421,1,8,0:0:0:0:
256,192,45505,1,8,0:0:0:0:
256,192,45588,1,0,0:0:0:0:
256,192,45755,1,8,0:0:0:0:
256,192,45838,1,0,0:0:0:0:
256,192,46005,1,8,0:0:0:0:
256,192,46338,1,0,0:0:0:0:
256,192,46505,1,0,0:0:0:0:
256,192,46671,1,8,0:0:0:0:
256,192,46838,1,0,0:0:0:0:
256,192,46921,1,8,0:0:0:0:
256,192,47171,1,8,0:0:0:0:
256,192,47338,1,0,0:0:0:0:
256,192,47505,1,8,0:0:0:0:
256,192,47588,1,0,0:0:0:0:
256,192,47755,1,0,0:0:0:0:
256,192,47838,1,8,0:0:0:0:
256,192,48005,1,0,0:0:0:0:
256,192,48088,1,8,0:0:0:0:
256,192,48171,1,8,0:0:0:0:
256,192,48255,1,0,0:0:0:0:
256,192,48421,1,8,0:0:0:0:
256,192,48505,1,0,0:0:0:0:
256,192,48671,1,8,0:0:0:0:
256,192,48838,1,0,0:0:0:0:
256,192,48921,1,0,0:0:0:0:
256,192,49005,1,8,0:0:0:0:
256,192,49171,1,0,0:0:0:0:
256,192,49338,1,8,0:0:0:0:
256,192,49588,1,8,0:0:0:0:
256,192,49671,1,0,0:0:0:0:
256,192,49838,1,8,0:0:0:0:
256,192,50005,1,0,0:0:0:0:
256,192,50171,1,0,0:0:0:0:
256,192,50255,1,0,0:0:0:0:
256,192,50338,1,8,0:0:0:0:
256,192,50505,1,0,0:0:0:0:
256,192,50671,1,8,0:0:0:0:
256,192,50921,1,0,0:0:0:0:
256,192,51005,1,8,0:0:0:0:
256,192,51171,1,0,0:0:0:0:
256,192,51338,1,0,0:0:0:0:
256,192,51505,1,0,0:0:0:0:
256,192,51588,1,0,0:0:0:0:
256,192,51671,1,8,0:0:0:0:
256,192,51838,1,0,0:0:0:0:
256,192,51921,1,0,0:0:0:0:
256,192,52005,1,0,0:0:0:0:
256,192,52088,1,0,0:0:0:0:
256,192,52171,1,8,0:0:0:0:
256,192,52338,1,0,0:0:0:0:
256,192,52421,1,8,0:0:0:0:
256,192,52505,1,0,0:0:0:0:
256,192,52671,1,8,0:0:0:0:
256,192,52838,1,8,0:0:0:0:
256,192,52921,1,8,0:0:0:0:
256,192,53005,1,0,0:0:0:0:
256,192,53171,1,8,0:0:0:0:
256,192,53255,1,8,0:0:0:0:
256,192,53338,1,8,0:0:0:0:
256,192,53421,1,8,0:0:0:0:
256,192,53505,1,0,0:0:0:0:
256,192,53671,1,8,0:0:0:0:
256,192,53755,1,0,0:0:0:0:
256,192,53838,1,8,0:0:0:0:
256,192,54005,1,4,0:0:0:0:
256,192,54338,1,8,0:0:0:0:
256,192,54421,1,0,0:0:0:0:
256,192,54505,1,8,0:0:0:0:
256,192,54671,1,0,0:0:0:0:
256,192,54755,1,0,0:0:0:0:
256,192,54838,1,0,0:0:0:0:
256,192,55005,1,8,0:0:0:0:
256,192,55171,1,8,0:0:0:0:
256,192,55338,1,0,0:0:0:0:
256,192,55588,1,0,0:0:0:0:
256,192,55671,1,8,0:0:0:0:
256,192,55838,1,0,0:0:0:0:
256,192,55921,1,0,0:0:0:0:
256,192,56005,1,8,0:0:0:0:
256,192,56088,1,8,0:0:0:0:
256,192,56171,1,0,0:0:0:0:
256,192,56338,1,8,0:0:0:0:
256,192,56671,1,0,0:0:0:0:
256,192,56755,1,0,0:0:0:0:
256,192,56838,1,8,0:0:0:0:
256,192,56921,1,0,0:0:0:0:
256,192,57005,1,8,0:0:0:0:
256,192,57171,1,0,0:0:0:0:
256,192,57255,1,0,0:0:0:0:
256,192,57338,1,8,0:0:0:0:
256,192,57421,1,8,0:0:0:0:
256,192,57505,1,0,0:0:0:0:
256,192,57671,1,8,0:0:0:0:
256,192,57755,1,0,0:0:0:0:
256,192,57838,1,8,0:0:0:0:
256,192,58005,1,0,0:0:0:0:
256,192,58255,1,0,0:0:0:0:
256,192,58338,1,8,0:0:0:0:
256,192,58505,1,0,0:0:0:0:
256,192,58588,1,0,0:0:0:0:
256,192,58671,1,0,0:0:0:0:
256,192,58838,1,8,0:0:0:0:
256,192,58921,1,0,0:0:0:0:
256,192,59005,1,8,0:0:0:0:
256,192,59171,1,8,0:0:0:0:
256,192,59338,1,0,0:0:0:0:
256,192,59421,1,0,0:0:0:0:
256,192,59505,1,8,0:0:0:0:
256,192,59588,1,8,0:0:0:0:
256,192,59671,1,0,0:0:0:0:
256,192,59838,1,8,0:0:0:0:
256,192,60005,1,8,0:0:0:0:
256,192,60088,1,8,0:0:0:0:
256,192,60171,1,0,0:0:0:0:
256,192,60255,1,0,0:0:0:0:
256,192,60338,1,8,0:0:0:0:
256,192,60505,1,0,0:0:0:0:
256,192,60671,1,8,0:0:0:0:
256,192,61005,1,0,0:0:0:0:
256,192,61338,1,8,0:0:0:0:
256,192,61505,1,0,0:0:0:0:
256,192,61588,1,0,0:0:0:0:
256,192,61671,1,8,0:0:0:0:
256,192,61755,1,0,0:0:0:0:
256,192,61838,1,8,0:0:0:0:
256,192,62005,1,4,0:0:0:0:
256,192,62338,1,8,0:0:0:0:
256,192,62421,1,8,0:0:0:0:
256,192,62505,1,8,0:0:0:0:
256,192,62671,1,4,0:0:0:0:
256,192,63005,1,8,0:0:0:0:
256,192,63088,1,8,0:0:0:0:
256,192,63171,1,8,0:0:0:0:
256,192,63338,1,4,0:0:0:0:
256,192,63588,1,0,0:0:0:0:
256,192,63838,1,8,0:0:0:0:
256,192,64171,1,8,0:0:0:0:
256,192,64338,1,8,0:0:0:0:
256,192,64505,1,8,0:0:0:0:
256,192,64588,1,8,0:0:0:0:
256,192,64671,1,4,0:0:0:0:
256,192,65338,1,8,0:0:0:0:
256,192,65421,1,0,0:0:0:0:
256,192,65505,1,8,0:0:0:0:
256,192,65588,1,0,0:0:0:0:
256,192,66005,1,8,0:0:0:0:
256,192,66088,1,0,0:0:0:0:
256,192,66171,1,0,0:0:0:0:
256,192,66255,1,8,0:0:0:0:
256,192,66671,1,8,0:0:0:0:
256,192,66755,1,8,0:0:0:0:
256,192,66838,1,0,0:0:0:0:
256,192,66921,1,0,0:0:0:0:
256,192,67338,1,0,0:0:0:0:
256,192,67421,1,8,0:0:0:0:
256,192,67505,1,8,0:0:0:0:
256,192,67588,1,0,0:0:0:0:
256,192,68005,1,8,0:0:0:0:
256,192,68088,1,8,0:0:0:0:
256,192,68171,1,0,0:0:0:0:
256,192,68255,1,0,0:0:0:0:
256,192,68671,1,8,0:0:0:0:
256,192,68755,1,0,0:0:0:0:
256,192,68838,1,0,0:0:0:0:
256,192,68921,1,8,0:0:0:0:
256,192,69338,1,0,0:0:0:0:
64,64,69421,1,0,0:0:0:0:
256,192,69505,1,8,0:0:0:0:
256,192,69671,1,0,0:0:0:0:
256,192,69755,1,0,0:0:0:0:
256,192,69838,1,8,0:0:0:0:
256,192,69921,1,8,0:0:0:0:
256,192,70005,1,0,0:0:0:0:
256,192,70338,1,8,0:0:0:0:
256,192,70505,1,0,0:0:0:0:
256,192,70588,1,0,0:0:0:0:
256,192,70671,1,8,0:0:0:0:
256,192,70838,1,0,0:0:0:0:
256,192,71005,1,8,0:0:0:0:
256,192,71338,1,0,0:0:0:0:
256,192,71421,1,8,0:0:0:0:
256,192,71505,1,0,0:0:0:0:
256,192,71671,1,8,0:0:0:0:
256,192,71755,1,0,0:0:0:0:
256,192,71838,1,8,0:0:0:0:
256,192,72005,1,0,0:0:0:0:
256,192,72088,1,8,0:0:0:0:
256,192,72255,1,0,0:0:0:0:
256,192,72505,1,8,0:0:0:0:
256,192,72671,1,0,0:0:0:0:
256,192,73005,1,8,0:0:0:0:
256,192,73088,1,8,0:0:0:0:
256,192,73171,1,0,0:0:0:0:
256,192,73255,1,0,0:0:0:0:
256,192,73338,1,8,0:0:0:0:
256,192,73505,1,0,0:0:0:0:
256,192,73671,1,8,0:0:0:0:
256,192,73755,1,0,0:0:0:0:
256,192,73838,1,8,0:0:0:0:
256,192,74005,1,0,0:0:0:0:
256,192,74088,1,8,0:0:0:0:
256,192,74255,1,8,0:0:0:0:
256,192,74338,1,0,0:0:0:0:
256,192,74505,1,8,0:0:0:0:
256,192,74588,1,8,0:0:0:0:
256,192,74671,1,0,0:0:0:0:
256,192,74838,1,8,0:0:0:0:
256,192,75005,1,0,0:0:0:0:
256,192,75088,1,0,0:0:0:0:
256,192,75171,1,8,0:0:0:0:
256,192,75338,1,0,0:0:0:0:
256,192,75671,1,0,0:0:0:0:
256,192,75838,1,8,0:0:0:0:
256,192,75921,1,8,0:0:0:0:
256,192,76005,1,0,0:0:0:0:
256,192,76171,1,8,0:0:0:0:
256,192,76255,1,0,0:0:0:0:
256,192,76338,1,0,0:0:0:0:
256,192,76505,1,8,0:0:0:0:
256,192,76671,1,0,0:0:0:0:
256,192,76755,1,0,0:0:0:0:
256,192,76838,1,8,0:0:0:0:
256,192,76921,1,8,0:0:0:0:
256,192,77005,1,0,0:0:0:0:
256,192,77171,1,8,0:0:0:0:
256,192,77338,1,0,0:0:0:0:
256,192,77421,1,0,0:0:0:0:
256,192,77505,1,8,0:0:0:0:
256,192,77588,1,0,0:0:0:0:
256,192,77838,1,8,0:0:0:0:
256,192,78005,1,0,0:0:0:0:
256,192,78088,1,0,0:0:0:0:
256,192,78171,1,0,0:0:0:0:
256,192,78255,1,0,0:0:0:0:
256,192,78338,1,8,0:0:0:0:
256,192,78505,1,0,0:0:0:0:
256,192,78671,1,8,0:0:0:0:
256,192,78755,1,8,0:0:0:0:
256,192,78838,1,8,0:0:0:0:
256,192,78921,1,8,0:0:0:0:
256,192,79005,1,0,0:0:0:0:
256,192,79171,1,0,0:0:0:0:
256,192,79338,1,8,0:0:0:0:
256,192,79421,1,8,0:0:0:0:
256,192,79505,1,0,0:0:0:0:
256,192,79671,1,8,0:0:0:0:
256,192,80005,1,0,0:0:0:0:
256,192,80088,1,0,0:0:0:0:
256,192,80171,1,0,0:0:0:0:
256,192,80255,1,0,0:0:0:0:
256,192,80338,1,8,0:0:0:0:
256,192,80671,1,0,0:0:0:0:
256,192,80838,1,8,0:0:0:0:
256,192,80921,1,8,0:0:0:0:
256,192,81005,1,0,0:0:0:0:
256,192,81171,1,8,0:0:0:0:
256,192,81255,1,8,0:0:0:0:
256,192,81338,1,0,0:0:0:0:
256,192,81421,1,8,0:0:0:0:
256,192,81505,1,0,0:0:0:0:
256,192,81671,1,8,0:0:0:0:
256,192,82005,1,0,0:0:0:0:
256,192,82088,1,0,0:0:0:0:
256,192,82171,1,8,0:0:0:0:
256,192,82338,1,0,0:0:0:0:
256,192,82505,1,8,0:0:0:0:
256,192,82588,1,8,0:0:0:0:
256,192,82671,1,0,0:0:0:0:
256,192,82755,1,8,0:0:0:0:
256,192,82838,1,0,0:0:0:0:
256,192,83005,1,8,0:0:0:0:
256,192,83171,1,8,0:0:0:0:
256,192,83338,1,0,0:0:0:0:
256,192,83421,1,8,0:0:0:0:
256,192,83505,1,0,0:0:0:0:
256,192,83671,1,8,0:0:0:0:
256,192,83838,1,0,0:0:0:0:
256,192,83921,1,0,0:0:0:0:
256,192,84005,1,8,0:0:0:0:
256,192,84088,1,8,0:0:0:0:
256,192,84171,1,0,0:0:0:0:
256,192,84338,1,8,0:0:0:0:
256,192,84671,1,0,0:0:0:0:
256,192,84755,1,0,0:0:0:0:
256,192,84838,1,8,0:0:0:0:
256,192,85005,1,0,0:0:0:0:
256,192,85171,1,8,0:0:0:0:
256,192,85255,1,8,0:0:0:0:
256,192,85338,1,0,0:0:0:0:
256,192,85421,1,8,0:0:0:0:
256,192,85505,1,0,0:0:0:0:
256,192,85671,1,8,0:0:0:0:
256,192,85838,1,8,0:0:0:0:
256,192,86005,1,0,0:0:0:0:
256,192,86088,1,0,0:0:0:0:
256,192,86171,1,8,0:0:0:0:
256,192,86338,1,0,0:0:0:0:
256,192,86505,1,8,0:0:0:0:
256,192,86588,1,8,0:0:0:0:
256,192,86671,1,0,0:0:0:0:
256,192,86755,1,0,0:0:0:0:
256,192,86838,1,8,0:0:0:0:
256,192,87005,1,0,0:0:0:0:
256,192,87338,1,8,0:0:0:0:
256,192,87421,1,8,0:0:0:0:
256,192,87505,1,0,0:0:0:0:
256,192,87671,1,8,0:0:0:0:
256,192,87838,1,0,0:0:0:0:
256,192,87921,1,0,0:0:0:0:
256,192,88005,1,8,0:0:0:0:
256,192,88171,1,0,0:0:0:0:
256,192,88255,1,8,0:0:0:0:
256,192,88338,1,0,0:0:0:0:
256,192,88505,1,8,0:0:0:0:
256,192,88671,1,0,0:0:0:0:
256,192,88921,1,0,0:0:0:0:
256,192,89171,1,8,0:0:0:0:
256,192,89505,1,8,0:0:0:0:
256,192,89588,1,8,0:0:0:0:
256,192,89671,1,0,0:0:0:0:
256,192,89838,1,8,0:0:0:0:
256,192,90005,1,0,0:0:0:0:
256,192,90671,1,8,0:0:0:0:
256,192,91338,1,4,0:0:0:0:
256,192,91671,1,8,0:0:0:0:
256,192,91754,1,0,0:0:0:0:
256,192,91838,1,8,0:0:0:0:
256,192,92004,1,0,0:0:0:0:
256,192,92088,1,0,0:0:0:0:
256,192,92171,1,0,0:0:0:0:
256,192,92338,1,8,0:0:0:0:
256,192,92504,1,8,0:0:0:0:
256,192,92671,1,0,0:0:0:0:
256,192,92921,1,0,0:0:0:0:
256,192,93004,1,8,0:0:0:0:
256,192,93171,1,0,0:0:0:0:
256,192,93254,1,0,0:0:0:0:
256,192,93338,1,8,0:0:0:0:
256,192,93421,1,8,0:0:0:0:
256,192,93504,1,0,0:0:0:0:
256,192,93671,1,8,0:0:0:0:
256,192,94004,1,0,0:0:0:0:
256,192,94171,1,8,0:0:0:0:
256,192,94338,1,0,0:0:0:0:
256,192,94421,1,0,0:0:0:0:
256,192,94504,1,0,0:0:0:0:
256,192,94671,1,8,0:0:0:0:
256,192,94755,1,8,0:0:0:0:
256,192,94838,1,0,0:0:0:0:
256,192,95004,1,8,0:0:0:0:
256,192,95171,1,8,0:0:0:0:
256,192,95338,1,0,0:0:0:0:
256,192,95671,1,0,0:0:0:0:
256,192,96005,1,8,0:0:0:0:
256,192,96254,1,0,0:0:0:0:
256,192,96338,1,8,0:0:0:0:
256,192,96505,1,8,0:0:0:0:
256,192,96671,1,0,0:0:0:0:
256,192,96754,1,0,0:0:0:0:
256,192,96838,1,8,0:0:0:0:
256,192,96921,1,8,0:0:0:0:
256,192,97004,1,0,0:0:0:0:
256,192,97171,1,8,0:0:0:0:
256,192,97255,1,8,0:0:0:0:
256,192,97338,1,8,0:0:0:0:
256,192,97421,1,8,0:0:0:0:
256,192,97504,1,0,0:0:0:0:
256,192,97671,1,8,0:0:0:0:
256,192,97838,1,0,0:0:0:0:
256,192,98004,1,8,0:0:0:0:
256,192,98088,1,0,0:0:0:0:
256,192,98171,1,8,0:0:0:0:
256,192,98255,1,0,0:0:0:0:
256,192,98338,1,8,0:0:0:0:
256,192,98505,1,0,0:0:0:0:
256,192,98588,1,0,0:0:0:0:
256,192,98671,1,8,0:0:0:0:
256,192,99004,1,8,0:0:0:0:
256,192,99088,1,0,0:0:0:0:
256,192,99171,1,8,0:0:0:0:
256,192,99338,1,4,0:0:0:0:
256,192,99671,1,8,0:0:0:0:
256,192,99754,1,8,0:0:0:0:
256,192,99838,1,8,0:0:0:0:
256,192,100004,1,4,0:0:0:0:
256,192,100338,1,8,0:0:0:0:
256,192,100421,1,8,0:0:0:0:
256,192,100504,1,8,0:0:0:0:
256,192,100671,1,4,0:0:0:0:
256,192,101005,1,8,0:0:0:0:
256,192,101338,1,0,0:0:0:0:
256,192,101671,1,8,0:0:0:0:
256,192,102004,1,0,0:0:0:0:
256,192,102088,1,0,0:0:0:0:
256,192,102171,1,8,0:0:0:0:
256,192,102255,1,8,0:0:0:0:
256,192,102338,1,0,0:0:0:0:
256,192,102505,1,8,0:0:0:0:
256,192,102671,1,0,0:0:0:0:
256,192,102755,1,8,0:0:0:0:
256,192,102838,1,0,0:0:0:0:
256,192,102921,1,8,0:0:0:0:
256,192,103005,1,0,0:0:0:0:
256,192,103171,1,8,0:0:0:0:
256,192,103338,1,0,0:0:0:0:
256,192,103588,1,0,0:0:0:0:
256,192,103671,1,8,0:0:0:0:
256,192,103838,1,0,0:0:0:0:
256,192,104005,1,8,0:0:0:0:
256,192,104171,1,0,0:0:0:0:
256,192,104255,1,0,0:0:0:0:
256,192,104338,1,8,0:0:0:0:
256,192,104505,1,0,0:0:0:0:
256,192,104671,1,8,0:0:0:0:
256,192,104755,1,8,0:0:0:0:
256,192,104838,1,8,0:0:0:0:
256,192,105005,1,0,0:0:0:0:
256,192,105088,1,0,0:0:0:0:
256,192,105171,1,0,0:0:0:0:
256,192,105338,12,0,105838,0:0:0:0:
256,192,106005,5,4,0:0:0:0:
