osu file format v14

[General]
AudioFilename: audio.ogg
AudioLeadIn: 0
PreviewTime: 91338
Countdown: 0
SampleSet: Normal
StackLeniency: 0.7
Mode: 1
LetterboxInBreaks: 0
WidescreenStoryboard: 0

[Editor]
Bookmarks: 32671,43338,54005
DistanceSpacing: 0.8
BeatDivisor: 8
GridSize: 32
TimelineZoom: 4.199998

[Metadata]
Title:EAT YOU UP (Sped Up Ver.)
TitleUnicode:EAT YOU UP (Sped Up Ver.)
Artist:r u s s e l b u c k
ArtistUnicode:r u s s e l b u c k
Creator:Invisible O
Version:CONSUMPTION
Source:
Tags:russelbuck Electronic English Instrumental MCR spill tab CRÈME BRÛLÉE creme brulee
BeatmapID:4351056
BeatmapSetID:2077958

[Difficulty]
HPDrainRate:6.6
CircleSize:5
OverallDifficulty:6.6
ApproachRate:5
SliderMultiplier:1.4
SliderTickRate:1

[Events]
//Background and Video events
0,0,"333333.jpg",0,0
//Break Periods
//Storyboard Layer 0 (Background)
//Storyboard Layer 1 (Fail)
//Storyboard Layer 2 (Pass)
//Storyboard Layer 3 (Foreground)
//Storyboard Layer 4 (Overlay)
//Storyboard Sound Samples

[TimingPoints]
339,333.333333333333,4,1,0,65,1,8
672,333.333333333333,4,1,0,65,1,0
672,-200,4,1,0,65,0,0
6001,-100,4,1,0,65,0,0
6167,-200,4,1,0,65,0,0
11292,-100,4,1,0,85,0,0
11333,-100,4,1,0,85,0,0
11500,-103.68392,4,1,0,85,0,0
11583,-105.56504,4,1,0,85,0,0
11666,-107.48027,4,1,0,85,0,0
11833,-111.439766,4,1,0,85,0,0
12000,-115.54513,4,1,0,85,0,0
12166,-119.775764,4,1,0,85,0,0
12250,-121.97525,4,1,0,85,0,0
12416,-126.44132,4,1,0,85,0,0
12500,-128.76321,4,1,0,85,0,0
12666,-133.47783,4,1,0,85,0,0
12833,-100.12333,4,1,0,85,0,0
12916,-102.19302,4,1,0,85,0,0
13000,-104.331215,4,1,0,85,0,0
13166,-108.68915,4,1,0,85,0,0
13333,-113.257034,4,1,0,85,0,0
13500,-118.01689,4,1,0,85,0,0
13583,-120.45647,4,1,0,85,0,0
13666,-122.94648,4,1,0,85,0,0
13750,-125.51889,4,1,0,85,0,0
13833,-128.11354,4,1,0,85,0,0
13916,-130.76183,4,1,0,85,0,0
14000,-133.49777,4,1,0,85,0,0
14166,-100.14349,4,1,0,85,0,0
14250,-102.58519,4,1,0,85,0,0
14333,-105.0563,4,1,0,85,0,0
14500,-110.210106,4,1,0,85,0,0
14666,-115.58361,4,1,0,85,0,0
14750,-118.401764,4,1,0,85,0,0
14916,-124.17465,4,1,0,85,0,0
15000,-127.20228,4,1,0,85,0,0
15166,-133.40427,4,1,0,85,0,0
15333,-139.94875,4,1,0,85,0,0
15416,-143.31989,4,1,0,85,0,0
15500,-146.81432,4,1,0,85,0,0
15583,-150.3508,4,1,0,85,0,0
15666,-153.9725,4,1,0,85,0,0
15833,-161.52603,4,1,0,85,0,0
16000,-169.4501,4,1,0,85,0,0
16083,-173.53188,4,1,0,85,0,0
16166,-177.71196,4,1,0,85,0,0
16250,-182.04494,4,1,0,85,0,0
16333,-186.43008,4,1,0,85,0,0
16416,-190.92085,4,1,0,85,0,0
16500,-195.5759,4,1,0,85,0,0
16583,-200.28699,4,1,0,85,0,0
16666,-100,4,1,0,85,0,0
16833,-103.6811,4,1,0,85,0,0
16916,-105.56074,4,1,0,85,0,0
17000,-107.4977,4,1,0,85,0,0
17166,-111.43068,4,1,0,85,0,0
17333,-115.53256,4,1,0,85,0,0
17416,-117.627045,4,1,0,85,0,0
17500,-119.78543,4,1,0,85,0,0
17583,-121.957016,4,1,0,85,0,0
17666,-124.16797,4,1,0,85,0,0
17833,-128.73872,4,1,0,85,0,0
18000,-133.47772,4,1,0,85,0,0
18166,-100.12333,4,1,0,85,0,0
18250,-102.21822,4,1,0,85,0,0
18333,-104.331215,4,1,0,85,0,0
18500,-108.71596,4,1,0,85,0,0
18666,-113.257034,4,1,0,85,0,0
18750,-115.626724,4,1,0,85,0,0
18833,-118.01689,4,1,0,85,0,0
18916,-120.45647,4,1,0,85,0,0
19000,-122.97678,4,1,0,85,0,0
19083,-125.51889,4,1,0,85,0,0
19166,-128.11354,4,1,0,85,0,0
19250,-130.79407,4,1,0,85,0,0
19333,-133.49777,4,1,0,85,0,0
19500,-100.143555,4,1,0,85,0,0
19583,-102.55685,4,1,0,85,0,0
19666,-105.028305,4,1,0,85,0,0
19833,-110.18292,4,1,0,85,0,0
20000,-115.59053,4,1,0,85,0,0
20166,-121.22874,4,1,0,85,0,0
20250,-124.18579,4,1,0,85,0,0
20416,-130.24327,4,1,0,85,0,0
20500,-133.42018,4,1,0,85,0,0
20666,-139.92805,4,1,0,85,0,0
20833,-146.79552,4,1,0,85,0,0
20916,-150.33305,4,1,0,85,0,0
21000,-154.00002,4,1,0,85,0,0
21083,-157.71117,4,1,0,85,0,0
21166,-161.51173,4,1,0,85,0,0
21250,-165.45137,4,1,0,85,0,0
21333,-169.43849,4,1,0,85,0,0
21416,-173.52168,4,1,0,85,0,0
21500,-177.75426,4,1,0,85,0,0
21583,-182.03784,4,1,0,85,0,0
21666,-186.42465,4,1,0,85,0,0
21750,-190.97197,4,1,0,85,0,0
21833,-195.5741,4,1,0,85,0,0
21916,-200.28711,4,1,0,85,0,0
22001,-100,4,1,0,85,0,0
22167,-133.333333333333,4,1,0,85,0,0
22333,-131.37645,4,1,0,85,0,0
22500,-129.44827,4,1,0,85,0,0
22583,-128.5005,4,1,0,85,0,0
22666,-127.559685,4,1,0,85,0,0
22833,-125.687515,4,1,0,85,0,0
23000,-123.84284,4,1,0,85,0,0
23083,-122.93612,4,1,0,85,0,0
23166,-122.03604,4,1,0,85,0,0
23333,-120.24496,4,1,0,85,0,0
23416,-119.36457,4,1,0,85,0,0
23500,-118.48015,4,1,0,85,0,0
23666,-116.75158,4,1,0,85,0,0
23750,-115.88651,4,1,0,85,0,0
23833,-115.038055,4,1,0,85,0,0
24000,-113.34968,4,1,0,85,0,0
24083,-112.51979,4,1,0,85,0,0
24166,-111.69596,4,1,0,85,0,0
24333,-110.056625,4,1,0,85,0,0
24416,-109.25084,4,1,0,85,0,0
24500,-108.44136,4,1,0,85,0,0
24583,-107.6474,4,1,0,85,0,0
24666,-106.859245,4,1,0,85,0,0
25000,-103.74558,4,1,0,85,0,0
25166,-102.23199,4,1,0,85,0,0
25250,-101.47451,4,1,0,85,0,0
25333,-100.73157,4,1,0,85,0,0
25500,-99.25316,4,1,0,85,0,0
25666,-97.80511,4,1,0,85,0,0
25750,-97.08043,4,1,0,85,0,0
25833,-96.36964,4,1,0,85,0,0
26000,-94.95525,4,1,0,85,0,0
26083,-94.26004,4,1,0,85,0,0
26166,-93.56991,4,1,0,85,0,0
26250,-92.87661,4,1,0,85,0,0
26416,-91.5216,4,1,0,85,0,0
26500,-90.843475,4,1,0,85,0,0
26583,-90.17835,4,1,0,85,0,0
26666,-89.51811,4,1,0,85,0,0
26833,-88.20427,4,1,0,85,0,0
26916,-87.55849,4,1,0,85,0,0
27000,-86.90973,4,1,0,85,0,0
27083,-86.27342,4,1,0,85,0,0
27166,-85.64176,4,1,0,85,0,0
27250,-85.00721,4,1,0,85,0,0
27333,-84.38482,4,1,0,85,0,0
27666,-81.933266,4,1,0,85,0,0
27833,-80.73075,4,1,0,85,0,0
27916,-80.13968,4,1,0,85,0,0
28000,-79.5459,4,1,0,85,0,0
28166,-78.38535,4,1,0,85,0,0
28333,-77.23491,4,1,0,85,0,0
28416,-76.66944,4,1,0,85,0,0
28500,-76.101364,4,1,0,85,0,0
28666,-74.99109,4,1,0,85,0,0
28750,-74.43544,4,1,0,85,0,0
28833,-73.89046,4,1,0,85,0,0
29000,-72.80599,4,1,0,85,0,0
29083,-72.27294,4,1,0,85,0,0
29166,-71.74379,4,1,0,85,0,0
29333,-70.69083,4,1,0,85,0,0
29416,-70.173256,4,1,0,85,0,0
29500,-69.65331,4,1,0,85,0,0
29666,-68.63711,4,1,0,85,0,0
29750,-68.12855,4,1,0,85,0,0
29833,-67.629745,4,1,0,85,0,0
29916,-67.1346,4,1,0,85,0,0
30000,-66.72723,4,1,0,85,0,0
30333,-77.57667,4,1,0,85,0,0
30500,-82.78393,4,1,0,85,0,0
30833,-94.283516,4,1,0,85,0,0
31000,-100.86232,4,1,0,85,0,0
31166,-108.11435,4,1,0,85,0,0
31333,-116.288445,4,1,0,85,0,0
31583,-130.62564,4,1,0,85,0,0
31833,-148.34412,4,1,0,85,0,0
32166,-179.82971,4,1,0,85,0,0
32333,-200.68967,4,1,0,85,0,0
32626,-100,4,1,0,100,0,0
32666,-100,4,1,0,100,0,0
33000,-115.62069,4,1,0,75,0,0
33333,-133.62337,4,1,0,75,0,0
33583,-124.669945,4,1,0,75,0,0
33666,-119.3167,4,1,0,75,0,0
33750,-114.13298,4,1,0,75,0,0
33833,-109.2322,4,1,0,75,0,0
33998,-100,4,1,0,100,0,0
34332,-115.62069,4,1,0,75,0,0
34665,-133.62337,4,1,0,75,0,0
34915,-124.669945,4,1,0,75,0,0
34998,-119.3167,4,1,0,75,0,0
35082,-114.13298,4,1,0,75,0,0
35165,-109.2322,4,1,0,75,0,0
35331,-100,4,1,0,100,0,0
35665,-115.62069,4,1,0,75,0,0
35998,-133.62337,4,1,0,75,0,0
36248,-124.669945,4,1,0,75,0,0
36331,-119.3167,4,1,0,75,0,0
36415,-114.13298,4,1,0,75,0,0
36498,-109.2322,4,1,0,75,0,0
36664,-100,4,1,0,100,0,0
36998,-115.62069,4,1,0,75,0,0
37331,-133.62337,4,1,0,75,0,0
37583,-124.66601,4,1,0,75,0,0
37666,-119.25016,4,1,0,75,0,0
37746,-113.623978201635,4,1,0,75,0,0
37833,-109.05573,4,1,0,75,0,0
38000,-99.79933,4,1,0,85,0,0
38083,-105.47915,4,1,0,85,0,0
38166,-111.48222,4,1,0,85,0,0
38333,-111.50363,4,1,0,85,0,0
38416,-118.22575,4,1,0,85,0,0
38500,-125.44158,4,1,0,85,0,0
38666,-125.50075,4,1,0,85,0,0
38750,-134.21959,4,1,0,85,0,0
38833,-143.42943,4,1,0,85,0,0
39000,-132.75864,4,1,0,85,0,0
39083,-123.57252,4,1,0,85,0,0
39166,-115.02202,4,1,0,85,0,0
39250,-106.970726,4,1,0,85,0,0
39333,-99.63599,4,1,0,85,0,0
39416,-105.358925,4,1,0,85,0,0
39500,-111.48557,4,1,0,85,0,0
39666,-111.50363,4,1,0,85,0,0
39750,-118.30917,4,1,0,85,0,0
39833,-125.44158,4,1,0,85,0,0
40000,-125.50376,4,1,0,85,0,0
40083,-134.16917,4,1,0,85,0,0
40166,-143.43289,4,1,0,85,0,0
40333,-132.73907,4,1,0,85,0,0
40416,-123.25253,4,1,0,85,0,0
40500,-114.34176,4,1,0,85,0,0
40583,-106.17,4,1,0,85,0,0
40666,-74.21127,4,1,0,85,0,0
40750,-76.55461,4,1,0,85,0,0
40833,-78.942726,4,1,0,85,0,0
40916,-81.405334,4,1,0,85,0,0
41000,-83.975845,4,1,0,85,0,0
41083,-86.59546,4,1,0,85,0,0
41166,-89.29678,4,1,0,85,0,0
41250,-92.11648,4,1,0,85,0,0
41333,-94.990036,4,1,0,85,0,0
41416,-97.95324,4,1,0,85,0,0
41500,-101.046265,4,1,0,85,0,0
41583,-104.19839,4,1,0,85,0,0
41666,-107.44886,4,1,0,85,0,0
41750,-110.84171,4,1,0,85,0,0
41833,-114.2994,4,1,0,85,0,0
41916,-117.864975,4,1,0,85,0,0
42000,-66.77487,4,1,0,85,0,0
42083,-68.59707,4,1,0,85,0,0
42166,-70.46899,4,1,0,85,0,0
42250,-72.41547,4,1,0,85,0,0
42333,-74.39159,4,1,0,85,0,0
42416,-76.42162,4,1,0,85,0,0
42500,-78.53253,4,1,0,85,0,0
42583,-80.67557,4,1,0,85,0,0
42666,-82.87709,4,1,0,85,0,0
42750,-85.166306,4,1,0,85,0,0
42833,-87.49038,4,1,0,85,0,0
42916,-89.87787,4,1,0,85,0,0
43000,-92.360466,4,1,0,85,0,0
43083,-94.88085,4,1,0,85,0,0
43166,-97.47002,4,1,0,85,0,0
43250,-100.16231,4,1,0,85,0,0
43292,-66.6666666666667,4,1,0,100,0,0
43334,-66.6666666666667,4,1,0,100,0,0
43500,-80,4,1,0,100,0,0
43583,-82.97552,4,1,0,100,0,0
43666,-86.061714,4,1,0,100,0,0
43833,-92.62347,4,1,0,100,0,0
44000,-99.68552,4,1,0,100,0,0
44083,-103.39322,4,1,0,100,0,0
44166,-107.238815,4,1,0,100,0,0
44250,-111.27642,4,1,0,100,0,0
44333,-115.41523,4,1,0,100,0,0
44416,-119.70797,4,1,0,100,0,0
44500,-124.21504,4,1,0,100,0,0
44666,-133.62698,4,1,0,100,0,0
44833,-100.12333,4,1,0,100,0,0
44916,-102.19302,4,1,0,100,0,0
45000,-104.331215,4,1,0,100,0,0
45166,-108.68915,4,1,0,100,0,0
45333,-113.257034,4,1,0,100,0,0
45416,-115.59821,4,1,0,100,0,0
45500,-118.01689,4,1,0,100,0,0
45583,-120.45647,4,1,0,100,0,0
45666,-122.94648,4,1,0,100,0,0
45750,-125.51889,4,1,0,100,0,0
45833,-128.11354,4,1,0,100,0,0
45916,-130.76183,4,1,0,100,0,0
46000,-133.49777,4,1,0,100,0,0
46166,-100.138725,4,1,0,100,0,0
46250,-102.4983,4,1,0,100,0,0
46333,-104.88439,4,1,0,100,0,0
46500,-109.85496,4,1,0,100,0,0
46666,-115.0292,4,1,0,100,0,0
46833,-120.48053,4,1,0,100,0,0
46916,-123.28522,4,1,0,100,0,0
47083,-129.12784,4,1,0,100,0,0
47166,-132.13383,4,1,0,100,0,0
47333,-138.39578,4,1,0,100,0,0
47416,-141.61754,4,1,0,100,0,0
47500,-144.9545,4,1,0,100,0,0
47583,-148.32892,4,1,0,100,0,0
47750,-155.35837,4,1,0,100,0,0
47833,-158.975,4,1,0,100,0,0
48000,-166.50897,4,1,0,100,0,0
48083,-170.38521,4,1,0,100,0,0
48166,-174.35165,4,1,0,100,0,0
48250,-178.45992,4,1,0,100,0,0
48416,-186.86548,4,1,0,100,0,0
48500,-191.26859,4,1,0,100,0,0
48666,-200.27745,4,1,0,100,0,0
48833,-80.17528,4,1,0,100,0,0
48916,-83.141716,4,1,0,100,0,0
49000,-86.25564,4,1,0,100,0,0
49166,-92.75651,4,1,0,100,0,0
49333,-99.791,4,1,0,100,0,0
49416,-103.483185,4,1,0,100,0,0
49500,-107.35897,4,1,0,100,0,0
49583,-111.33118,4,1,0,100,0,0
49666,-115.45035,4,1,0,100,0,0
49750,-119.77434,4,1,0,100,0,0
49833,-124.205894,4,1,0,100,0,0
50000,-133.62547,4,1,0,100,0,0
50166,-80.17528,4,1,0,100,0,0
50250,-83.17811,4,1,0,100,0,0
50333,-86.25564,4,1,0,100,0,0
50500,-92.79712,4,1,0,100,0,0
50666,-99.791,4,1,0,100,0,0
50750,-103.528496,4,1,0,100,0,0
50833,-107.35897,4,1,0,100,0,0
50916,-111.33118,4,1,0,100,0,0
51000,-115.50089,4,1,0,100,0,0
51083,-119.77434,4,1,0,100,0,0
51166,-124.205894,4,1,0,100,0,0
51250,-128.85782,4,1,0,100,0,0
51333,-133.62547,4,1,0,100,0,0
51500,-99.9191,4,1,0,100,0,0
51583,-98.58572,4,1,0,100,0,0
51666,-97.2701,4,1,0,100,0,0
51833,-94.676025,4,1,0,100,0,0
52000,-92.151115,4,1,0,100,0,0
52083,-90.92138,4,1,0,100,0,0
52166,-89.70805,4,1,0,100,0,0
52250,-88.496605,4,1,0,100,0,0
52333,-87.315636,4,1,0,100,0,0
52416,-86.15043,4,1,0,100,0,0
52500,-84.98702,4,1,0,100,0,0
52666,-82.733894,4,1,0,100,0,0
52750,-81.61662,4,1,0,100,0,0
52833,-80.52747,4,1,0,100,0,0
52916,-79.45286,4,1,0,100,0,0
53000,-78.37989,4,1,0,100,0,0
53083,-77.33393,4,1,0,100,0,0
53166,-76.30193,4,1,0,100,0,0
53333,-74.267044,4,1,0,100,0,0
53416,-73.27597,4,1,0,100,0,0
53500,-72.286415,4,1,0,100,0,0
53583,-71.32177,4,1,0,100,0,0
53666,-70.37001,4,1,0,100,0,0
53750,-69.4197,4,1,0,100,0,0
53833,-68.49331,4,1,0,100,0,0
53916,-67.57929,4,1,0,100,0,0
54005,-66.666664,4,1,0,100,0,1
54166,-88.85924,4,1,0,100,0,1
54250,-94.471596,4,1,0,100,0,1
54333,-100.36523,4,1,0,100,0,1
54501,-88.8592394929953,4,1,0,100,0,1
54666,-80.267685,4,1,0,100,0,1
54750,-84.9011,4,1,0,100,0,1
54833,-89.742,4,1,0,100,0,1
54916,-94.85891,4,1,0,100,0,1
55000,-100.3346,4,1,0,100,0,1
55162,-80.0480769230769,4,1,0,100,0,1
55333,-66.801956,4,1,0,100,0,1
55416,-69.08834,4,1,0,100,0,1
55500,-71.48196,4,1,0,100,0,1
55583,-73.92852,4,1,0,100,0,1
55666,-76.458824,4,1,0,100,0,1
55750,-79.10779,4,1,0,100,0,1
55833,-81.81535,4,1,0,100,0,1
55916,-84.61559,4,1,0,100,0,1
56000,-87.547165,4,1,0,100,0,1
56083,-90.54358,4,1,0,100,0,1
56166,-93.64255,4,1,0,100,0,1
56250,-96.88686,4,1,0,100,0,1
56333,-100.20293,4,1,0,100,0,1
56501,-100,4,1,0,100,0,1
56666,-99.848145,4,1,0,100,0,1
56750,-97.33113,4,1,0,100,0,1
56833,-94.90641,4,1,0,100,0,1
56916,-92.54211,4,1,0,100,0,1
57000,-90.209274,4,1,0,100,0,1
57083,-87.961975,4,1,0,100,0,1
57166,-85.77067,4,1,0,100,0,1
57250,-83.60853,4,1,0,100,0,1
57333,-81.525665,4,1,0,100,0,1
57416,-79.4947,4,1,0,100,0,1
57500,-77.49077,4,1,0,100,0,1
57583,-75.56032,4,1,0,100,0,1
57666,-73.67795,4,1,0,100,0,1
57833,-70.03146,4,1,0,100,0,1
58000,-66.56543,4,1,0,100,0,1
58083,-68.40734,4,1,0,100,0,1
58166,-70.436676,4,1,0,100,0,1
58250,-72.551765,4,1,0,100,0,1
58333,-74.704056,4,1,0,100,0,1
58416,-76.92019,4,1,0,100,0,1
58500,-79.229965,4,1,0,100,0,1
58583,-81.580376,4,1,0,100,0,1
58666,-84.000496,4,1,0,100,0,1
58750,-86.52288,4,1,0,100,0,1
58833,-89.08963,4,1,0,100,0,1
58916,-91.73252,4,1,0,100,0,1
59000,-94.48708,4,1,0,100,0,1
59083,-97.2901,4,1,0,100,0,1
59166,-100.17626,4,1,0,100,0,1
59333,-99.92401,4,1,0,100,0,1
59416,-98.671036,4,1,0,100,0,1
59500,-97.41897,4,1,0,100,0,1
59583,-96.1974,4,1,0,100,0,1
59666,-94.991165,4,1,0,100,0,1
59833,-92.60978,4,1,0,100,0,1
60000,-90.28811,4,1,0,100,0,1
60083,-89.15597,4,1,0,100,0,1
60166,-88.03802,4,1,0,100,0,1
60250,-86.92087,4,1,0,100,0,1
60333,-85.83095,4,1,0,100,0,1
60416,-84.75469,4,1,0,100,0,1
60500,-83.67921,4,1,0,100,0,1
60666,-81.59382,4,1,0,100,0,1
60750,-80.55844,4,1,0,100,0,1
60833,-79.5483,4,1,0,100,0,1
61000,-77.55407,4,1,0,100,0,1
61083,-76.5816,4,1,0,100,0,1
61166,-75.62132,4,1,0,100,0,1
61333,-73.72553,4,1,0,100,0,1
61416,-72.80108,4,1,0,100,0,1
61500,-71.87727,4,1,0,100,0,1
61583,-70.97599,4,1,0,100,0,1
61666,-70.086,4,1,0,100,0,1
61750,-69.196655,4,1,0,100,0,1
61833,-68.32899,4,1,0,100,0,1
61916,-67.47219,4,1,0,100,0,1
62000,-66.771515,4,1,0,100,0,1
62166,-77.43722,4,1,0,100,0,1
62250,-82.60852,4,1,0,100,0,1
62333,-88.035416,4,1,0,100,0,1
62416,-93.901726,4,1,0,100,0,1
62500,-100.40537,4,1,0,100,0,1
62666,-67.22958,4,1,0,100,0,1
62833,-77.69525,4,1,0,100,0,1
62916,-82.76503,4,1,0,100,0,1
63000,-88.214424,4,1,0,100,0,1
63083,-94.034454,4,1,0,100,0,1
63166,-100.40121,4,1,0,100,0,1
63333,-66.766685,4,1,0,100,0,1
63416,-68.44917,4,1,0,100,0,1
63500,-70.19511,4,1,0,100,0,1
63583,-71.96398,4,1,0,100,0,1
63666,-73.777435,4,1,0,100,0,1
63750,-75.65927,4,1,0,100,0,1
63833,-77.56584,4,1,0,100,0,1
63916,-79.52046,4,1,0,100,0,1
64000,-81.548775,4,1,0,100,0,1
64083,-83.60377,4,1,0,100,0,1
64166,-85.71054,4,1,0,100,0,1
64250,-87.89674,4,1,0,100,0,1
64333,-90.1117,4,1,0,100,0,1
64500,-94.73886,4,1,0,100,0,1
64583,-97.12623,4,1,0,100,0,1
64671,-66.6666666666667,4,1,0,100,0,0
65001,-80,4,1,0,75,0,0
65333,-80,4,1,0,75,0,0
65416,-87.34881,4,1,0,75,0,0
65500,-93.807236,4,1,0,75,0,0
65583,-100.40901,4,1,0,75,0,0
66000,-80,4,1,0,75,0,0
66083,-87.34881,4,1,0,75,0,0
66166,-93.72969,4,1,0,75,0,0
66250,-100.40901,4,1,0,75,0,0
66666,-80,4,1,0,75,0,0
66750,-87.42611,4,1,0,75,0,0
66833,-93.807236,4,1,0,75,0,0
66916,-100.40901,4,1,0,75,0,0
67333,-80,4,1,0,75,0,0
67416,-87.34881,4,1,0,75,0,0
67500,-93.807236,4,1,0,75,0,0
67583,-100.40901,4,1,0,75,0,0
68000,-80,4,1,0,75,0,0
68083,-87.34881,4,1,0,75,0,0
68166,-93.72969,4,1,0,75,0,0
68250,-100.40901,4,1,0,75,0,0
68666,-80,4,1,0,75,0,0
68750,-87.42611,4,1,0,75,0,0
68833,-93.807236,4,1,0,75,0,0
68916,-100.40901,4,1,0,75,0,0
69333,-100.30852,4,1,0,75,0,0
69416,-111.91985,4,1,0,75,0,0
69500,-122.76465,4,1,0,75,0,0
69583,-134.34895,4,1,0,75,0,0
69666,-147.34477,4,1,0,75,0,0
69750,-162.46599,4,1,0,75,0,0
69833,-179.99762,4,1,0,75,0,0
69916,-200.97435,4,1,0,75,0,0
70001,-133.333333333333,4,1,0,75,0,0
75292,-100,4,1,0,85,0,0
75334,-100,4,1,0,85,0,0
78000,-100.138725,4,1,0,85,0,0
78083,-102.46989,4,1,0,85,0,0
78166,-104.855316,4,1,0,85,0,0
78250,-107.326035,4,1,0,85,0,0
78333,-109.82449,4,1,0,85,0,0
78500,-115.0292,4,1,0,85,0,0
78666,-120.44711,4,1,0,85,0,0
78750,-123.28522,4,1,0,85,0,0
78833,-126.15523,4,1,0,85,0,0
78916,-129.09203,4,1,0,85,0,0
79000,-132.13383,4,1,0,85,0,0
79083,-135.20982,4,1,0,85,0,0
79166,-138.3574,4,1,0,85,0,0
79333,-144.9143,4,1,0,85,0,0
79416,-148.28781,4,1,0,85,0,0
79500,-151.78194,4,1,0,85,0,0
79583,-155.3153,4,1,0,85,0,0
79666,-158.93094,4,1,0,85,0,0
79833,-166.46283,4,1,0,85,0,0
80000,-174.35165,4,1,0,85,0,0
80083,-178.41043,4,1,0,85,0,0
80166,-182.5637,4,1,0,85,0,0
80250,-186.86548,4,1,0,85,0,0
80333,-191.21558,4,1,0,85,0,0
80500,-200.27745,4,1,0,85,0,0
80667,-57.1428571428571,4,1,0,100,0,0
80751,-66.6666666666667,4,1,0,100,0,0
88000,-66.736946,4,1,0,100,0,0
88166,-69.112686,4,1,0,100,0,0
88250,-70.34692,4,1,0,100,0,0
88333,-71.5881,4,1,0,100,0,0
88500,-74.15216,4,1,0,100,0,0
88666,-66.77096,4,1,0,100,0,0
88750,-68.54758,4,1,0,100,0,0
88833,-70.34947,4,1,0,100,0,0
88916,-72.198746,4,1,0,100,0,0
89000,-74.11978,4,1,0,100,0,0
89083,-76.06815,4,1,0,100,0,0
89166,-78.06775,4,1,0,100,0,0
89250,-80.14495,4,1,0,100,0,0
89333,-82.25171,4,1,0,100,0,0
89416,-84.41384,4,1,0,100,0,0
89500,-86.659904,4,1,0,100,0,0
89583,-88.93791,4,1,0,100,0,0
89666,-91.2758,4,1,0,100,0,0
89750,-93.70445,4,1,0,100,0,0
89833,-96.16764,4,1,0,100,0,0
89916,-98.69559,4,1,0,100,0,0
89959,-100,4,1,0,50,0,0
89996,-100,4,1,0,50,0,0
90667,-66.6666666666667,4,1,0,50,0,0
91001,-66.6666666666667,4,1,0,100,0,0
91338,-66.666664,4,1,0,100,0,1
91500,-76.334915,4,1,0,100,0,1
91583,-81.64966,4,1,0,100,0,1
91666,-87.33443,4,1,0,100,0,1
91750,-93.49079,4,1,0,100,0,1
91833,-100,4,1,0,100,0,1
92000,-80.21451,4,1,0,100,0,1
92083,-83.241516,4,1,0,100,0,1
92166,-86.38276,4,1,0,100,0,1
92250,-89.68254,4,1,0,100,0,1
92333,-93.06685,4,1,0,100,0,1
92416,-96.57885,4,1,0,100,0,1
92495,-100,4,1,0,100,0,1
92666,-66.801956,4,1,0,100,0,1
92750,-69.11637,4,1,0,100,0,1
92833,-71.48196,4,1,0,100,0,1
92916,-73.92852,4,1,0,100,0,1
93000,-76.48983,4,1,0,100,0,1
93083,-79.10779,4,1,0,100,0,1
93166,-81.81535,4,1,0,100,0,1
93250,-84.64991,4,1,0,100,0,1
93333,-87.547165,4,1,0,100,0,1
93416,-90.54358,4,1,0,100,0,1
93500,-93.68052,4,1,0,100,0,1
93583,-96.88686,4,1,0,100,0,1
93666,-100.20293,4,1,0,100,0,1
93834,-100,4,1,0,100,0,1
94000,-66.666664,4,1,0,100,0,1
94083,-71.308266,4,1,0,100,0,1
94167,-76.334915,4,1,0,100,0,1
94250,-81.64966,4,1,0,100,0,1
94333,-87.33443,4,1,0,100,0,1
94417,-93.49079,4,1,0,100,0,1
94500,-100,4,1,0,100,0,1
94667,-80.21451,4,1,0,100,0,1
94750,-83.241516,4,1,0,100,0,1
94833,-86.38276,4,1,0,100,0,1
94917,-89.68254,4,1,0,100,0,1
95000,-93.06685,4,1,0,100,0,1
95083,-96.57885,4,1,0,100,0,1
95162,-100,4,1,0,100,0,1
95333,-80.07659,4,1,0,100,0,1
95417,-81.37426,4,1,0,100,0,1
95500,-82.67714,4,1,0,100,0,1
95583,-84.000885,4,1,0,100,0,1
95667,-85.36215,4,1,0,100,0,1
95750,-86.72889,4,1,0,100,0,1
95833,-88.1175,4,1,0,100,0,1
95916,-89.52835,4,1,0,100,0,1
96000,-90.97919,4,1,0,100,0,1
96083,-92.43586,4,1,0,100,0,1
96250,-95.43778,4,1,0,100,0,1
96333,-96.96584,4,1,0,100,0,1
96495,-100,4,1,0,100,0,1
96666,-99.904434,4,1,0,100,0,1
96750,-98.31262,4,1,0,100,0,1
96833,-96.76466,4,1,0,100,0,1
96916,-95.24107,4,1,0,100,0,1
97000,-93.72356,4,1,0,100,0,1
97083,-92.247856,4,1,0,100,0,1
97166,-90.795395,4,1,0,100,0,1
97250,-89.34871,4,1,0,100,0,1
97333,-87.94189,4,1,0,100,0,1
97416,-86.55722,4,1,0,100,0,1
97500,-85.17806,4,1,0,100,0,1
97583,-83.83691,4,1,0,100,0,1
97666,-82.51688,4,1,0,100,0,1
97750,-81.2021,4,1,0,100,0,1
97833,-79.92355,4,1,0,100,0,1
98000,-66.88327,4,1,0,100,0,1
98083,-69.95277,4,1,0,100,0,1
98166,-73.16314,4,1,0,100,0,1
98250,-76.562225,4,1,0,100,0,1
98333,-80.07592,4,1,0,100,0,1
98416,-83.75089,4,1,0,100,0,1
98500,-87.64187,4,1,0,100,0,1
98583,-91.66405,4,1,0,100,0,1
98666,-95.870834,4,1,0,100,0,1
98745,-100,4,1,0,100,0,1
98916,-80,4,1,0,100,0,1
99000,-83.58426,4,1,0,100,0,1
99083,-87.283554,4,1,0,100,0,1
99166,-91.14657,4,1,0,100,0,1
99333,-66.78268,4,1,0,100,0,1
99416,-68.73828,4,1,0,100,0,1
99500,-70.77574,4,1,0,100,0,1
99583,-72.848274,4,1,0,100,0,1
99666,-74.98149,4,1,0,100,0,1
99750,-77.20401,4,1,0,100,0,1
99833,-79.464775,4,1,0,100,0,1
99916,-81.79174,4,1,0,100,0,1
100000,-84.21613,4,1,0,100,0,1
100083,-86.682236,4,1,0,100,0,1
100166,-89.22055,4,1,0,100,0,1
100250,-91.865135,4,1,0,100,0,1
100333,-94.55522,4,1,0,100,0,1
100416,-97.32407,4,1,0,100,0,1
100495,-100,4,1,0,100,0,1
100671,-100,4,1,0,100,0,0
101001,-66.6666666666667,4,1,0,100,0,0
101084,-100,4,1,0,100,0,0
101667,-66.6666666666667,4,1,0,100,0,0
101751,-100,4,1,0,100,0,0
102005,-80,4,1,0,100,0,1
102079,-86.9565217391304,4,1,0,100,0,1
102167,-80,4,1,0,100,0,1
102250,-86.9565217391304,4,1,0,100,0,1
102334,-80,4,1,0,100,0,1
102417,-86.9565217391304,4,1,0,100,0,1
102501,-80,4,1,0,100,0,1
102584,-86.9565217391304,4,1,0,100,0,1
102667,-80,4,1,0,100,0,1
102750,-86.9565217391304,4,1,0,100,0,1
102834,-80,4,1,0,100,0,1
102917,-86.9565217391304,4,1,0,100,0,1
103001,-80,4,1,0,100,0,1
103084,-86.9565217391304,4,1,0,100,0,1
103167,-80,4,1,0,100,0,1
103250,-86.9565217391304,4,1,0,100,0,1
103333,-80,4,1,0,100,0,1
103583,-83.934364,4,1,0,100,0,1
103666,-85.282906,4,1,0,100,0,1
103833,-88.06222,4,1,0,100,0,1
104000,-90.93212,4,1,0,100,0,1
104166,-93.87752,4,1,0,100,0,1
104250,-95.40412,4,1,0,100,0,1
104333,-96.93694,4,1,0,100,0,1
104500,-100.09606,4,1,0,100,0,1
104666,-79.79848,4,1,0,100,0,1
104750,-76.48771,4,1,0,100,0,1
104833,-73.351295,4,1,0,100,0,1
104916,-70.3435,4,1,0,100,0,1
105000,-67.42502,4,1,0,100,0,1
105083,-64.660225,4,1,0,100,0,1
105166,-62.008804,4,1,0,100,0,1
105250,-59.436115,4,1,0,100,0,1
105333,-56.998913,4,1,0,100,0,1
106005,-50,4,1,0,100,0,0

[HitObjects]
256,192,6005,5,12,0:0:0:0:
256,192,6338,1,0,0:0:0:0:
256,192,6671,1,0,0:0:0:0:
256,192,7005,1,8,0:0:0:0:
256,192,7088,1,0,0:0:0:0:
256,192,7171,1,8,0:0:0:0:
256,192,7255,1,8,0:0:0:0:
256,192,7338,1,0,0:0:0:0:
256,192,7671,1,8,0:0:0:0:
256,192,8005,1,8,0:0:0:0:
256,192,8255,1,0,0:0:0:0:
256,192,8338,1,0,0:0:0:0:
256,192,8505,1,8,0:0:0:0:
256,192,8671,1,0,0:0:0:0:
256,192,9005,1,8,0:0:0:0:
256,192,9338,1,0,0:0:0:0:
256,192,9671,1,0,0:0:0:0:
256,192,9755,1,0,0:0:0:0:
256,192,9838,1,8,0:0:0:0:
256,192,9921,1,8,0:0:0:0:
256,192,10005,1,0,0:0:0:0:
256,192,10338,1,8,0:0:0:0:
256,192,10671,1,0,0:0:0:0:
256,192,10921,1,8,0:0:0:0:
256,192,11005,1,8,0:0:0:0:
256,192,11088,1,0,0:0:0:0:
256,192,11338,1,12,0:0:0:0:
256,192,11505,1,0,0:0:0:0:
256,192,11588,1,0,0:0:0:0:
256,192,11671,1,8,0:0:0:0:
256,192,11838,1,0,0:0:0:0:
256,192,12005,1,8,0:0:0:0:
256,192,12171,1,0,0:0:0:0:
256,192,12255,1,8,0:0:0:0:
256,192,12421,1,8,0:0:0:0:
256,192,12505,1,0,0:0:0:0:
256,192,12671,1,8,0:0:0:0:
256,192,12838,1,0,0:0:0:0:
256,192,12921,1,0,0:0:0:0:
256,192,13005,1,8,0:0:0:0:
256,192,13171,1,0,0:0:0:0:
256,192,13338,1,8,0:0:0:0:
256,192,13505,1,0,0:0:0:0:
256,192,13588,1,0,0:0:0:0:
256,192,13671,1,8,0:0:0:0:
256,192,13755,1,0,0:0:0:0:
256,192,13838,1,8,0:0:0:0:
256,192,13921,1,8,0:0:0:0:
256,192,14005,1,0,0:0:0:0:
256,192,14171,1,8,0:0:0:0:
256,192,14255,1,8,0:0:0:0:
256,192,14338,1,0,0:0:0:0:
256,192,14505,1,8,0:0:0:0:
256,192,14671,1,0,0:0:0:0:
256,192,14755,1,8,0:0:0:0:
256,192,14921,1,8,0:0:0:0:
256,192,15005,1,0,0:0:0:0:
256,192,15171,1,8,0:0:0:0:
256,192,15338,1,0,0:0:0:0:
256,192,15421,1,0,0:0:0:0:
256,192,15505,1,8,0:0:0:0:
256,192,15588,1,8,0:0:0:0:
256,192,15671,1,0,0:0:0:0:
256,192,15838,1,8,0:0:0:0:
256,192,16005,1,0,0:0:0:0:
256,192,16088,1,0,0:0:0:0:
256,192,16171,1,8,0:0:0:0:
256,192,16255,1,0,0:0:0:0:
256,192,16338,1,8,0:0:0:0:
256,192,16421,1,8,0:0:0:0:
256,192,16505,1,0,0:0:0:0:
256,192,16588,1,0,0:0:0:0:
256,192,16671,1,12,0:0:0:0:
256,192,16838,1,0,0:0:0:0:
256,192,16921,1,0,0:0:0:0:
256,192,17005,1,8,0:0:0:0:
256,192,17171,1,0,0:0:0:0:
256,192,17338,1,8,0:0:0:0:
256,192,17421,1,8,0:0:0:0:
256,192,17505,1,0,0:0:0:0:
256,192,17588,1,8,0:0:0:0:
256,192,17671,1,0,0:0:0:0:
256,192,17838,1,8,0:0:0:0:
256,192,18005,1,0,0:0:0:0:
256,192,18171,1,8,0:0:0:0:
256,192,18255,1,0,0:0:0:0:
256,192,18338,1,8,0:0:0:0:
256,192,18505,1,0,0:0:0:0:
256,192,18671,1,8,0:0:0:0:
256,192,18755,1,8,0:0:0:0:
256,192,18838,1,0,0:0:0:0:
256,192,18921,1,8,0:0:0:0:
256,192,19005,1,0,0:0:0:0:
256,192,19088,1,0,0:0:0:0:
256,192,19171,1,8,0:0:0:0:
256,192,19255,1,8,0:0:0:0:
256,192,19338,1,0,0:0:0:0:
256,192,19505,1,8,0:0:0:0:
256,192,19588,1,8,0:0:0:0:
256,192,19671,1,0,0:0:0:0:
256,192,19838,1,8,0:0:0:0:
256,192,20005,1,0,0:0:0:0:
256,192,20171,1,8,0:0:0:0:
256,192,20255,1,0,0:0:0:0:
256,192,20421,1,0,0:0:0:0:
256,192,20505,1,8,0:0:0:0:
256,192,20671,1,0,0:0:0:0:
256,192,20838,1,0,0:0:0:0:
256,192,20921,1,0,0:0:0:0:
256,192,21005,1,8,0:0:0:0:
256,192,21088,1,0,0:0:0:0:
256,192,21171,1,8,0:0:0:0:
256,192,21255,1,8,0:0:0:0:
256,192,21338,1,0,0:0:0:0:
256,192,21421,1,0,0:0:0:0:
256,192,21505,1,8,0:0:0:0:
256,192,21588,1,0,0:0:0:0:
256,192,21671,1,8,0:0:0:0:
256,192,21755,1,8,0:0:0:0:
256,192,21838,1,8,0:0:0:0:
256,192,21921,1,8,0:0:0:0:
256,192,22005,1,4,0:0:0:0:
256,192,22338,1,8,0:0:0:0:
256,192,22505,1,0,0:0:0:0:
256,192,22588,1,0,0:0:0:0:
256,192,22671,1,8,0:0:0:0:
256,192,22838,1,0,0:0:0:0:
256,192,23005,1,8,0:0:0:0:
256,192,23088,1,8,0:0:0:0:
256,192,23171,1,8,0:0:0:0:
256,192,23338,1,0,0:0:0:0:
256,192,23421,1,0,0:0:0:0:
256,192,23505,1,8,0:0:0:0:
256,192,23671,1,0,0:0:0:0:
256,192,23755,1,0,0:0:0:0:
256,192,23838,1,0,0:0:0:0:
256,192,24005,1,8,0:0:0:0:
256,192,24088,1,8,0:0:0:0:
256,192,24171,1,0,0:0:0:0:
256,192,24338,1,8,0:0:0:0:
256,192,24421,1,0,0:0:0:0:
256,192,24505,1,8,0:0:0:0:
256,192,24588,1,8,0:0:0:0:
256,192,24671,1,0,0:0:0:0:
256,192,25005,1,8,0:0:0:0:
256,192,25171,1,0,0:0:0:0:
256,192,25255,1,0,0:0:0:0:
256,192,25338,1,8,0:0:0:0:
256,192,25505,1,0,0:0:0:0:
256,192,25671,1,8,0:0:0:0:
256,192,25755,1,0,0:0:0:0:
256,192,25838,1,8,0:0:0:0:
256,192,26005,1,0,0:0:0:0:
256,192,26088,1,0,0:0:0:0:
256,192,26171,1,8,0:0:0:0:
256,192,26255,1,0,0:0:0:0:
256,192,26421,1,0,0:0:0:0:
256,192,26505,1,8,0:0:0:0:
256,192,26588,1,8,0:0:0:0:
256,192,26671,1,0,0:0:0:0:
256,192,26838,1,8,0:0:0:0:
256,192,26921,1,8,0:0:0:0:
256,192,27005,1,0,0:0:0:0:
256,192,27088,1,8,0:0:0:0:
256,192,27171,1,0,0:0:0:0:
256,192,27255,1,0,0:0:0:0:
256,192,27338,1,12,0:0:0:0:
256,192,27671,1,0,0:0:0:0:
256,192,27838,1,8,0:0:0:0:
256,192,27921,1,8,0:0:0:0:
256,192,28005,1,0,0:0:0:0:
256,192,28171,1,8,0:0:0:0:
256,192,28338,1,0,0:0:0:0:
256,192,28421,1,0,0:0:0:0:
256,192,28505,1,8,0:0:0:0:
256,192,28671,1,0,0:0:0:0:
256,192,28755,1,0,0:0:0:0:
256,192,28838,1,0,0:0:0:0:
256,192,29005,1,8,0:0:0:0:
256,192,29088,1,8,0:0:0:0:
256,192,29171,1,8,0:0:0:0:
256,192,29338,1,0,0:0:0:0:
256,192,29421,1,0,0:0:0:0:
256,192,29505,1,8,0:0:0:0:
256,192,29671,1,0,0:0:0:0:
256,192,29755,1,0,0:0:0:0:
256,192,29838,1,8,0:0:0:0:
256,192,29921,1,8,0:0:0:0:
256,192,30005,1,0,0:0:0:0:
256,192,30338,1,8,0:0:0:0:
256,192,30505,1,0,0:0:0:0:
256,192,30838,1,0,0:0:0:0:
256,192,31005,1,8,0:0:0:0:
256,192,31171,1,8,0:0:0:0:
256,192,31338,1,0,0:0:0:0:
256,192,31588,1,0,0:0:0:0:
256,192,31838,1,8,0:0:0:0:
256,192,32171,1,8,0:0:0:0:
256,192,32338,1,8,0:0:0:0:
256,192,32671,1,4,0:0:0:0:
256,192,33005,1,8,0:0:0:0:
256,192,33338,1,0,0:0:0:0:
256,192,33588,1,0,0:0:0:0:
256,192,33671,1,8,0:0:0:0:
256,192,33755,1,8,0:0:0:0:
256,192,33838,1,0,0:0:0:0:
256,192,34005,1,8,0:0:0:0:
256,192,34338,1,0,0:0:0:0:
256,192,34671,1,8,0:0:0:0:
256,192,34921,1,0,0:0:0:0:
256,192,35005,1,8,0:0:0:0:
448,64,35088,1,8,0:0:0:0:
256,192,35171,1,0,0:0:0:0:
256,192,35338,1,8,0:0:0:0:
256,192,35671,1,0,0:0:0:0:
256,192,36005,1,8,0:0:0:0:
256,192,36255,1,0,0:0:0:0:
256,192,36338,1,8,0:0:0:0:
256,192,36421,1,8,0:0:0:0:
256,192,36505,1,0,0:0:0:0:
256,192,36671,1,8,0:0:0:0:
256,192,37005,1,0,0:0:0:0:
256,192,37338,1,8,0:0:0:0:
256,192,37588,1,0,0:0:0:0:
256,192,37671,1,8,0:0:0:0:
256,192,37838,1,8,0:0:0:0:
256,192,38005,1,0,0:0:0:0:
256,192,38088,1,0,0:0:0:0:
256,192,38171,1,0,0:0:0:0:
256,192,38338,1,8,0:0:0:0:
256,192,38421,1,8,0:0:0:0:
256,192,38505,1,8,0:0:0:0:
256,192,38671,1,0,0:0:0:0:
256,192,38755,1,0,0:0:0:0:
256,192,38838,1,0,0:0:0:0:
256,192,39005,1,8,0:0:0:0:
256,192,39088,1,0,0:0:0:0:
256,192,39171,1,8,0:0:0:0:
256,192,39255,1,8,0:0:0:0:
256,192,39338,1,0,0:0:0:0:
256,192,39421,1,0,0:0:0:0:
64,64,39505,1,0,0:0:0:0:
256,192,39671,1,8,0:0:0:0:
256,192,39755,1,8,0:0:0:0:
448,64,39838,1,8,0:0:0:0:
64,64,40005,1,0,0:0:0:0:
256,192,40088,1,0,0:0:0:0:
64,64,40171,1,0,0:0:0:0:
256,192,40338,1,8,0:0:0:0:
256,192,40421,1,8,0:0:0:0:
256,192,40505,1,0,0:0:0:0:
256,192,40588,1,8,0:0:0:0:
256,192,40671,1,0,0:0:0:0:
256,192,40755,1,0,0:0:0:0:
256,192,40838,1,8,0:0:0:0:
256,192,40921,1,0,0:0:0:0:
256,192,41005,1,8,0:0:0:0:
256,192,41088,1,8,0:0:0:0:
256,192,41171,1,0,0:0:0:0:
256,192,41255,1,0,0:0:0:0:
256,192,41338,1,0,0:0:0:0:
256,192,41421,1,0,0:0:0:0:
256,192,41505,1,8,0:0:0:0:
256,192,41588,1,0,0:0:0:0:
256,192,41671,1,8,0:0:0:0:
256,192,41755,1,8,0:0:0:0:
256,192,41838,1,0,0:0:0:0:
256,192,41921,1,0,0:0:0:0:
256,192,42005,1,8,0:0:0:0:
256,192,42088,1,8,0:0:0:0:
256,192,42171,1,0,0:0:0:0:
256,192,42255,1,8,0:0:0:0:
256,192,42338,1,0,0:0:0:0:
256,192,42421,1,0,0:0:0:0:
256,192,42505,1,8,0:0:0:0:
256,192,42588,1,8,0:0:0:0:
256,192,42671,1,8,0:0:0:0:
256,192,42755,1,8,0:0:0:0:
256,192,42838,1,0,0:0:0:0:
256,192,42921,1,0,0:0:0:0:
256,192,43005,1,8,0:0:0:0:
256,192,43088,1,0,0:0:0:0:
256,192,43171,1,8,0:0:0:0:
256,192,43255,1,8,0:0:0:0:
256,192,43338,1,4,0:0:0:0:
256,192,43505,1,8,0:0:0:0:
256,192,43588,1,8,0:0:0:0:
256,192,43671,1,8,0:0:0:0:
256,192,43838,1,0,0:0:0:0:
256,192,44005,1,8,0:0:0:0:
256,192,44088,1,0,0:0:0:0:
256,192,44171,1,8,0:0:0:0:
256,192,44255,1,8,0:0:0:0:
256,192,44338,1,0,0:0:0:0:
256,192,44421,1,0,0:0:0:0:
256,192,44505,1,8,0:0:0:0:
256,192,44671,1,0,0:0:0:0:
256,192,44838,1,8,0:0:0:0:
256,192,44921,1,8,0:0:0:0:
256,192,45005,1,0,0:0:0:0:
256,192,45171,1,8,0:0:0:0:
256,192,45338,1,0,0:0:0:0:
256,192,45421,1,8,0:0:0:0:
256,192,45505,1,8,0:0:0:0:
256,192,45588,1,0,0:0:0:0:
256,192,45671,1,8,0:0:0:0:
256,192,45755,1,8,0:0:0:0:
256,192,45838,1,0,0:0:0:0:
256,192,45921,1,0,0:0:0:0:
256,192,46005,1,8,0:0:0:0:
256,192,46171,1,0,0:0:0:0:
256,192,46255,1,0,0:0:0:0:
256,192,46338,1,0,0:0:0:0:
256,192,46505,1,8,0:0:0:0:
256,192,46671,1,0,0:0:0:0:
256,192,46838,1,0,0:0:0:0:
256,192,46921,1,8,0:0:0:0:
256,192,47088,1,8,0:0:0:0:
256,192,47171,1,0,0:0:0:0:
256,192,47338,1,8,0:0:0:0:
256,192,47421,1,8,0:0:0:0:
256,192,47505,1,0,0:0:0:0:
256,192,47588,1,8,0:0:0:0:
256,192,47755,1,0,0:0:0:0:
256,192,47838,1,8,0:0:0:0:
256,192,48005,1,0,0:0:0:0:
256,192,48088,1,8,0:0:0:0:
256,192,48171,1,8,0:0:0:0:
256,192,48255,1,0,0:0:0:0:
256,192,48421,1,8,0:0:0:0:
256,192,48505,1,0,0:0:0:0:
256,192,48671,1,8,0:0:0:0:
256,192,48838,1,0,0:0:0:0:
256,192,48921,1,0,0:0:0:0:
256,192,49005,1,8,0:0:0:0:
256,192,49171,1,0,0:0:0:0:
256,192,49338,1,8,0:0:0:0:
256,192,49421,1,8,0:0:0:0:
256,192,49505,1,0,0:0:0:0:
256,192,49588,1,8,0:0:0:0:
256,192,49671,1,0,0:0:0:0:
256,192,49755,1,0,0:0:0:0:
256,192,49838,1,8,0:0:0:0:
256,192,50005,1,0,0:0:0:0:
256,192,50171,1,8,0:0:0:0:
256,192,50255,1,0,0:0:0:0:
256,192,50338,1,8,0:0:0:0:
256,192,50505,1,0,0:0:0:0:
256,192,50671,1,8,0:0:0:0:
256,192,50755,1,0,0:0:0:0:
256,192,50838,1,0,0:0:0:0:
256,192,50921,1,8,0:0:0:0:
256,192,51005,1,0,0:0:0:0:
256,192,51088,1,0,0:0:0:0:
256,192,51171,1,8,0:0:0:0:
256,192,51255,1,8,0:0:0:0:
256,192,51338,1,0,0:0:0:0:
256,192,51505,1,8,0:0:0:0:
256,192,51588,1,8,0:0:0:0:
256,192,51671,1,8,0:0:0:0:
256,192,51838,1,0,0:0:0:0:
256,192,52005,1,8,0:0:0:0:
256,192,52088,1,8,0:0:0:0:
256,192,52171,1,0,0:0:0:0:
256,192,52255,1,8,0:0:0:0:
256,192,52338,1,0,0:0:0:0:
256,192,52421,1,0,0:0:0:0:
256,192,52505,1,8,0:0:0:0:
256,192,52671,1,0,0:0:0:0:
256,192,52755,1,0,0:0:0:0:
256,192,52838,1,8,0:0:0:0:
256,192,52921,1,0,0:0:0:0:
256,192,53005,1,8,0:0:0:0:
256,192,53088,1,8,0:0:0:0:
256,192,53171,1,0,0:0:0:0:
256,192,53338,1,0,0:0:0:0:
256,192,53421,1,0,0:0:0:0:
256,192,53505,1,8,0:0:0:0:
256,192,53588,1,0,0:0:0:0:
256,192,53671,1,0,0:0:0:0:
256,192,53755,1,0,0:0:0:0:
256,192,53838,1,8,0:0:0:0:
256,192,53921,1,8,0:0:0:0:
256,192,54005,1,4,0:0:0:0:
256,192,54171,1,8,0:0:0:0:
256,192,54255,1,8,0:0:0:0:
256,192,54338,1,0,0:0:0:0:
256,192,54505,1,8,0:0:0:0:
256,192,54671,1,0,0:0:0:0:
256,192,54755,1,0,0:0:0:0:
256,192,54838,1,8,0:0:0:0:
256,192,54921,1,8,0:0:0:0:
256,192,55005,1,0,0:0:0:0:
256,192,55171,1,8,0:0:0:0:
256,192,55338,1,0,0:0:0:0:
256,192,55421,1,0,0:0:0:0:
256,192,55505,1,8,0:0:0:0:
256,192,55588,1,0,0:0:0:0:
256,192,55671,1,8,0:0:0:0:
256,192,55755,1,0,0:0:0:0:
256,192,55838,1,8,0:0:0:0:
256,192,55921,1,8,0:0:0:0:
256,192,56005,1,8,0:0:0:0:
256,192,56088,1,8,0:0:0:0:
256,192,56171,1,0,0:0:0:0:
256,192,56255,1,0,0:0:0:0:
256,192,56338,1,8,0:0:0:0:
256,192,56505,1,0,0:0:0:0:
256,192,56671,1,8,0:0:0:0:
256,192,56755,1,8,0:0:0:0:
256,192,56838,1,0,0:0:0:0:
256,192,56921,1,0,0:0:0:0:
256,192,57005,1,8,0:0:0:0:
256,192,57088,1,8,0:0:0:0:
256,192,57171,1,0,0:0:0:0:
256,192,57255,1,8,0:0:0:0:
256,192,57338,1,0,0:0:0:0:
256,192,57421,1,0,0:0:0:0:
256,192,57505,1,8,0:0:0:0:
256,192,57588,1,8,0:0:0:0:
256,192,57671,1,0,0:0:0:0:
256,192,57838,1,8,0:0:0:0:
256,192,58005,1,0,0:0:0:0:
256,192,58088,1,0,0:0:0:0:
256,192,58171,1,8,0:0:0:0:
256,192,58255,1,0,0:0:0:0:
256,192,58338,1,8,0:0:0:0:
256,192,58421,1,8,0:0:0:0:
256,192,58505,1,0,0:0:0:0:
256,192,58588,1,0,0:0:0:0:
256,192,58671,1,8,0:0:0:0:
256,192,58755,1,8,0:0:0:0:
256,192,58838,1,8,0:0:0:0:
256,192,58921,1,0,0:0:0:0:
256,192,59005,1,8,0:0:0:0:
256,192,59088,1,8,0:0:0:0:
256,192,59171,1,0,0:0:0:0:
256,192,59338,1,8,0:0:0:0:
256,192,59421,1,8,0:0:0:0:
256,192,59505,1,0,0:0:0:0:
256,192,59588,1,8,0:0:0:0:
256,192,59671,1,0,0:0:0:0:
256,192,59838,1,8,0:0:0:0:
256,192,60005,1,0,0:0:0:0:
256,192,60088,1,0,0:0:0:0:
256,192,60171,1,8,0:0:0:0:
256,192,60255,1,8,0:0:0:0:
256,192,60338,1,0,0:0:0:0:
256,192,60421,1,0,0:0:0:0:
256,192,60505,1,8,0:0:0:0:
256,192,60671,1,0,0:0:0:0:
256,192,60755,1,0,0:0:0:0:
256,192,60838,1,0,0:0:0:0:
256,192,61005,1,8,0:0:0:0:
256,192,61088,1,0,0:0:0:0:
256,192,61171,1,8,0:0:0:0:
256,192,61338,1,0,0:0:0:0:
256,192,61421,1,0,0:0:0:0:
256,192,61505,1,8,0:0:0:0:
256,192,61588,1,0,0:0:0:0:
256,192,61671,1,8,0:0:0:0:
256,192,61755,1,8,0:0:0:0:
256,192,61838,1,0,0:0:0:0:
256,192,61921,1,8,0:0:0:0:
256,192,62005,1,4,0:0:0:0:
256,192,62171,1,8,0:0:0:0:
256,192,62255,1,8,0:0:0:0:
256,192,62338,1,0,0:0:0:0:
256,192,62421,1,0,0:0:0:0:
256,192,62505,1,0,0:0:0:0:
256,192,62671,1,4,0:0:0:0:
256,192,62838,1,8,0:0:0:0:
256,192,62921,1,8,0:0:0:0:
256,192,63005,1,0,0:0:0:0:
256,192,63088,1,0,0:0:0:0:
256,192,63171,1,0,0:0:0:0:
256,192,63338,1,0,0:0:0:0:
256,192,63421,1,0,0:0:0:0:
256,192,63505,1,8,0:0:0:0:
256,192,63588,1,0,0:0:0:0:
256,192,63671,1,8,0:0:0:0:
256,192,63755,1,8,0:0:0:0:
256,192,63838,1,0,0:0:0:0:
256,192,63921,1,0,0:0:0:0:
256,192,64005,1,0,0:0:0:0:
256,192,64088,1,0,0:0:0:0:
256,192,64171,1,8,0:0:0:0:
256,192,64255,1,0,0:0:0:0:
256,192,64338,1,8,0:0:0:0:
256,192,64505,1,0,0:0:0:0:
256,192,64588,1,0,0:0:0:0:
256,192,64671,1,12,0:0:0:0:
256,192,65338,1,8,0:0:0:0:
256,192,65421,1,0,0:0:0:0:
256,192,65505,1,8,0:0:0:0:
256,192,65588,1,0,0:0:0:0:
256,192,66005,1,8,0:0:0:0:
256,192,66088,1,0,0:0:0:0:
256,192,66171,1,0,0:0:0:0:
256,192,66255,1,8,0:0:0:0:
256,192,66671,1,8,0:0:0:0:
256,192,66755,1,8,0:0:0:0:
256,192,66838,1,0,0:0:0:0:
256,192,66921,1,0,0:0:0:0:
256,192,67338,1,0,0:0:0:0:
256,192,67421,1,8,0:0:0:0:
256,192,67505,1,8,0:0:0:0:
256,192,67588,1,0,0:0:0:0:
256,192,68005,1,8,0:0:0:0:
256,192,68088,1,8,0:0:0:0:
256,192,68171,1,0,0:0:0:0:
256,192,68255,1,0,0:0:0:0:
256,192,68671,1,8,0:0:0:0:
256,192,68755,1,0,0:0:0:0:
256,192,68838,1,0,0:0:0:0:
256,192,68921,1,8,0:0:0:0:
256,192,69338,1,0,0:0:0:0:
64,64,69421,1,0,0:0:0:0:
256,192,69505,1,8,0:0:0:0:
256,192,69588,1,0,0:0:0:0:
256,192,69671,1,8,0:0:0:0:
256,192,69755,1,0,0:0:0:0:
256,192,69838,1,8,0:0:0:0:
256,192,69921,1,8,0:0:0:0:
256,192,70005,1,0,0:0:0:0:
64,64,70088,1,0,0:0:0:0:
256,192,70171,1,8,0:0:0:0:
256,192,70255,1,8,0:0:0:0:
256,192,70338,1,0,0:0:0:0:
256,192,70505,1,8,0:0:0:0:
256,192,70588,1,8,0:0:0:0:
256,192,70671,1,0,0:0:0:0:
256,192,70755,1,0,0:0:0:0:
256,192,70838,1,8,0:0:0:0:
256,192,71005,1,0,0:0:0:0:
256,192,71088,1,0,0:0:0:0:
256,192,71171,1,0,0:0:0:0:
256,192,71338,1,8,0:0:0:0:
256,192,71421,1,8,0:0:0:0:
256,192,71505,1,0,0:0:0:0:
256,192,71588,1,8,0:0:0:0:
256,192,71671,1,0,0:0:0:0:
256,192,71755,1,0,0:0:0:0:
256,192,71838,1,8,0:0:0:0:
256,192,72005,1,0,0:0:0:0:
256,192,72088,1,8,0:0:0:0:
256,192,72171,1,8,0:0:0:0:
256,192,72255,1,0,0:0:0:0:
256,192,72338,1,8,0:0:0:0:
256,192,72505,1,8,0:0:0:0:
256,192,72671,1,0,0:0:0:0:
256,192,72755,1,0,0:0:0:0:
256,192,72838,1,8,0:0:0:0:
256,192,72921,1,0,0:0:0:0:
256,192,73005,1,8,0:0:0:0:
256,192,73088,1,8,0:0:0:0:
256,192,73171,1,0,0:0:0:0:
256,192,73338,1,8,0:0:0:0:
256,192,73421,1,8,0:0:0:0:
256,192,73505,1,0,0:0:0:0:
256,192,73588,1,8,0:0:0:0:
256,192,73671,1,0,0:0:0:0:
256,192,73755,1,0,0:0:0:0:
256,192,73838,1,8,0:0:0:0:
256,192,74005,1,0,0:0:0:0:
256,192,74088,1,8,0:0:0:0:
256,192,74171,1,8,0:0:0:0:
256,192,74255,1,0,0:0:0:0:
256,192,74338,1,8,0:0:0:0:
256,192,74505,1,0,0:0:0:0:
256,192,74671,1,8,0:0:0:0:
256,192,74755,1,8,0:0:0:0:
256,192,74838,1,0,0:0:0:0:
256,192,74921,1,8,0:0:0:0:
256,192,75005,1,0,0:0:0:0:
256,192,75088,1,0,0:0:0:0:
256,192,75171,1,8,0:0:0:0:
256,192,75255,1,8,0:0:0:0:
256,192,75338,1,0,0:0:0:0:
256,192,75421,1,0,0:0:0:0:
256,192,75505,1,8,0:0:0:0:
256,192,75588,1,8,0:0:0:0:
256,192,75671,1,0,0:0:0:0:
256,192,75838,1,8,0:0:0:0:
256,192,75921,1,8,0:0:0:0:
256,192,76005,1,0,0:0:0:0:
256,192,76088,1,8,0:0:0:0:
256,192,76171,1,0,0:0:0:0:
256,192,76255,1,0,0:0:0:0:
256,192,76338,1,8,0:0:0:0:
256,192,76505,1,0,0:0:0:0:
256,192,76671,1,8,0:0:0:0:
256,192,76755,1,8,0:0:0:0:
256,192,76838,1,0,0:0:0:0:
256,192,76921,1,8,0:0:0:0:
256,192,77005,1,0,0:0:0:0:
256,192,77171,1,0,0:0:0:0:
256,192,77338,1,8,0:0:0:0:
256,192,77421,1,0,0:0:0:0:
256,192,77505,1,0,0:0:0:0:
256,192,77588,1,0,0:0:0:0:
256,192,77671,1,8,0:0:0:0:
256,192,77838,1,0,0:0:0:0:
256,192,78005,1,8,0:0:0:0:
256,192,78088,1,8,0:0:0:0:
256,192,78171,1,0,0:0:0:0:
256,192,78255,1,8,0:0:0:0:
256,192,78338,1,0,0:0:0:0:
256,192,78505,1,8,0:0:0:0:
256,192,78671,1,0,0:0:0:0:
256,192,78755,1,0,0:0:0:0:
256,192,78838,1,8,0:0:0:0:
256,192,78921,1,8,0:0:0:0:
256,192,79005,1,0,0:0:0:0:
256,192,79088,1,8,0:0:0:0:
256,192,79171,1,0,0:0:0:0:
256,192,79338,1,8,0:0:0:0:
256,192,79421,1,8,0:0:0:0:
256,192,79505,1,0,0:0:0:0:
256,192,79588,1,8,0:0:0:0:
256,192,79671,1,0,0:0:0:0:
256,192,79838,1,8,0:0:0:0:
256,192,80005,1,0,0:0:0:0:
256,192,80088,1,0,0:0:0:0:
256,192,80171,1,8,0:0:0:0:
256,192,80255,1,0,0:0:0:0:
256,192,80338,1,8,0:0:0:0:
256,192,80505,1,8,0:0:0:0:
256,192,80671,1,4,0:0:0:0:
256,192,80838,1,8,0:0:0:0:
256,192,80921,1,8,0:0:0:0:
256,192,81005,1,0,0:0:0:0:
256,192,81171,1,8,0:0:0:0:
256,192,81255,1,8,0:0:0:0:
256,192,81338,1,0,0:0:0:0:
256,192,81421,1,8,0:0:0:0:
256,192,81505,1,0,0:0:0:0:
256,192,81588,1,0,0:0:0:0:
256,192,81671,1,8,0:0:0:0:
256,192,81838,1,0,0:0:0:0:
256,192,82005,1,8,0:0:0:0:
256,192,82088,1,8,0:0:0:0:
256,192,82171,1,0,0:0:0:0:
256,192,82255,1,8,0:0:0:0:
256,192,82338,1,0,0:0:0:0:
256,192,82505,1,8,0:0:0:0:
256,192,82588,1,0,0:0:0:0:
256,192,82671,1,8,0:0:0:0:
256,192,82755,1,8,0:0:0:0:
256,192,82838,1,0,0:0:0:0:
256,192,82921,1,8,0:0:0:0:
256,192,83005,1,0,0:0:0:0:
256,192,83171,1,8,0:0:0:0:
256,192,83255,1,8,0:0:0:0:
256,192,83338,1,0,0:0:0:0:
256,192,83421,1,0,0:0:0:0:
256,192,83505,1,8,0:0:0:0:
256,192,83588,1,8,0:0:0:0:
256,192,83671,1,0,0:0:0:0:
256,192,83838,1,8,0:0:0:0:
256,192,83921,1,8,0:0:0:0:
256,192,84005,1,0,0:0:0:0:
256,192,84088,1,8,0:0:0:0:
256,192,84171,1,0,0:0:0:0:
256,192,84255,1,0,0:0:0:0:
256,192,84338,1,8,0:0:0:0:
256,192,84505,1,0,0:0:0:0:
256,192,84671,1,8,0:0:0:0:
256,192,84755,1,8,0:0:0:0:
256,192,84838,1,0,0:0:0:0:
256,192,84921,1,0,0:0:0:0:
256,192,85005,1,8,0:0:0:0:
256,192,85171,1,0,0:0:0:0:
256,192,85255,1,0,0:0:0:0:
256,192,85338,1,8,0:0:0:0:
256,192,85421,1,0,0:0:0:0:
256,192,85505,1,8,0:0:0:0:
256,192,85588,1,8,0:0:0:0:
256,192,85671,1,0,0:0:0:0:
256,192,85838,1,8,0:0:0:0:
256,192,86005,1,0,0:0:0:0:
256,192,86088,1,0,0:0:0:0:
256,192,86171,1,8,0:0:0:0:
256,192,86255,1,0,0:0:0:0:
256,192,86338,1,8,0:0:0:0:
256,192,86421,1,8,0:0:0:0:
256,192,86505,1,0,0:0:0:0:
256,192,86588,1,8,0:0:0:0:
256,192,86671,1,0,0:0:0:0:
256,192,86755,1,0,0:0:0:0:
256,192,86838,1,8,0:0:0:0:
256,192,86921,1,8,0:0:0:0:
256,192,87005,1,0,0:0:0:0:
256,192,87171,1,8,0:0:0:0:
256,192,87338,1,0,0:0:0:0:
256,192,87421,1,0,0:0:0:0:
256,192,87505,1,8,0:0:0:0:
256,192,87588,1,0,0:0:0:0:
256,192,87671,1,8,0:0:0:0:
256,192,87755,1,8,0:0:0:0:
256,192,87838,1,0,0:0:0:0:
256,192,87921,1,8,0:0:0:0:
256,192,88005,1,0,0:0:0:0:
256,192,88171,1,8,0:0:0:0:
256,192,88255,1,8,0:0:0:0:
256,192,88338,1,0,0:0:0:0:
256,192,88505,1,8,0:0:0:0:
256,192,88671,1,0,0:0:0:0:
256,192,88755,1,0,0:0:0:0:
256,192,88838,1,8,0:0:0:0:
256,192,88921,1,0,0:0:0:0:
256,192,89005,1,8,0:0:0:0:
256,192,89088,1,8,0:0:0:0:
256,192,89171,1,0,0:0:0:0:
256,192,89255,1,0,0:0:0:0:
256,192,89338,1,8,0:0:0:0:
256,192,89421,1,0,0:0:0:0:
256,192,89505,1,8,0:0:0:0:
256,192,89588,1,8,0:0:0:0:
256,192,89671,1,0,0:0:0:0:
256,192,89755,1,0,0:0:0:0:
256,192,89838,1,8,0:0:0:0:
256,192,89921,1,8,0:0:0:0:
256,192,90005,1,0,0:0:0:0:
256,192,90338,1,0,0:0:0:0:
256,192,90421,1,0,0:0:0:0:
256,192,90671,1,12,0:0:0:0:
256,192,91338,1,4,0:0:0:0:
256,192,91505,1,8,0:0:0:0:
256,192,91588,1,8,0:0:0:0:
256,192,91671,1,0,0:0:0:0:
256,192,91755,1,0,0:0:0:0:
256,192,91838,1,8,0:0:0:0:
256,192,92005,1,0,0:0:0:0:
256,192,92088,1,0,0:0:0:0:
256,192,92171,1,8,0:0:0:0:
256,192,92255,1,0,0:0:0:0:
256,192,92338,1,8,0:0:0:0:
256,192,92421,1,8,0:0:0:0:
256,192,92505,1,0,0:0:0:0:
256,192,92671,1,8,0:0:0:0:
256,192,92755,1,8,0:0:0:0:
256,192,92838,1,8,0:0:0:0:
256,192,92921,1,0,0:0:0:0:
256,192,93005,1,8,0:0:0:0:
256,192,93088,1,8,0:0:0:0:
256,192,93171,1,0,0:0:0:0:
256,192,93255,1,0,0:0:0:0:
256,192,93338,1,8,0:0:0:0:
256,192,93421,1,8,0:0:0:0:
256,192,93505,1,8,0:0:0:0:
256,192,93588,1,0,0:0:0:0:
256,192,93671,1,8,0:0:0:0:
256,192,93838,1,0,0:0:0:0:
256,192,94005,1,8,0:0:0:0:
256,192,94088,1,8,0:0:0:0:
256,192,94172,1,0,0:0:0:0:
256,192,94255,1,8,0:0:0:0:
256,192,94338,1,0,0:0:0:0:
256,192,94422,1,0,0:0:0:0:
256,192,94505,1,8,0:0:0:0:
256,192,94672,1,0,0:0:0:0:
256,192,94755,1,8,0:0:0:0:
256,192,94838,1,8,0:0:0:0:
256,192,94922,1,0,0:0:0:0:
256,192,95005,1,8,0:0:0:0:
256,192,95088,1,8,0:0:0:0:
256,192,95172,1,0,0:0:0:0:
256,192,95338,1,8,0:0:0:0:
256,192,95422,1,8,0:0:0:0:
256,192,95505,1,8,0:0:0:0:
256,192,95588,1,8,0:0:0:0:
256,192,95672,1,0,0:0:0:0:
256,192,95755,1,0,0:0:0:0:
256,192,95838,1,0,0:0:0:0:
256,192,95921,1,0,0:0:0:0:
256,192,96005,1,8,0:0:0:0:
256,192,96088,1,0,0:0:0:0:
256,192,96255,1,0,0:0:0:0:
256,192,96338,1,8,0:0:0:0:
256,192,96505,1,0,0:0:0:0:
256,192,96671,1,8,0:0:0:0:
256,192,96755,1,8,0:0:0:0:
256,192,96838,1,8,0:0:0:0:
256,192,96921,1,0,0:0:0:0:
256,192,97005,1,8,0:0:0:0:
256,192,97088,1,8,0:0:0:0:
256,192,97171,1,0,0:0:0:0:
256,192,97255,1,0,0:0:0:0:
256,192,97338,1,8,0:0:0:0:
256,192,97421,1,8,0:0:0:0:
256,192,97505,1,0,0:0:0:0:
256,192,97588,1,8,0:0:0:0:
256,192,97671,1,0,0:0:0:0:
256,192,97755,1,0,0:0:0:0:
256,192,97838,1,8,0:0:0:0:
256,192,98005,1,0,0:0:0:0:
256,192,98088,1,8,0:0:0:0:
256,192,98171,1,0,0:0:0:0:
256,192,98255,1,8,0:0:0:0:
256,192,98338,1,0,0:0:0:0:
256,192,98421,1,8,0:0:0:0:
256,192,98505,1,0,0:0:0:0:
256,192,98588,1,8,0:0:0:0:
256,192,98671,1,0,0:0:0:0:
256,192,98755,1,8,0:0:0:0:
256,192,98921,1,8,0:0:0:0:
256,192,99005,1,0,0:0:0:0:
256,192,99088,1,0,0:0:0:0:
256,192,99171,1,8,0:0:0:0:
256,192,99338,1,0,0:0:0:0:
256,192,99421,1,0,0:0:0:0:
256,192,99505,1,8,0:0:0:0:
256,192,99588,1,0,0:0:0:0:
256,192,99671,1,8,0:0:0:0:
256,192,99755,1,8,0:0:0:0:
256,192,99838,1,0,0:0:0:0:
256,192,99921,1,0,0:0:0:0:
256,192,100005,1,0,0:0:0:0:
256,192,100088,1,0,0:0:0:0:
256,192,100171,1,8,0:0:0:0:
256,192,100255,1,0,0:0:0:0:
256,192,100338,1,8,0:0:0:0:
256,192,100421,1,8,0:0:0:0:
256,192,100505,1,0,0:0:0:0:
256,192,100671,1,0,0:0:0:0:
256,192,100755,1,0,0:0:0:0:
256,192,101005,1,12,0:0:0:0:
256,192,101338,1,0,0:0:0:0:
256,192,101421,1,0,0:0:0:0:
256,192,101671,1,12,0:0:0:0:
256,192,101838,1,8,0:0:0:0:
256,192,102005,1,0,0:0:0:0:
256,192,102088,1,0,0:0:0:0:
256,192,102171,1,8,0:0:0:0:
256,192,102255,1,8,0:0:0:0:
256,192,102338,1,0,0:0:0:0:
256,192,102421,1,0,0:0:0:0:
256,192,102505,1,8,0:0:0:0:
256,192,102588,1,8,0:0:0:0:
256,192,102671,1,0,0:0:0:0:
256,192,102755,1,0,0:0:0:0:
256,192,102838,1,8,0:0:0:0:
256,192,102921,1,8,0:0:0:0:
256,192,103005,1,0,0:0:0:0:
256,192,103088,1,0,0:0:0:0:
256,192,103171,1,8,0:0:0:0:
256,192,103255,1,8,0:0:0:0:
256,192,103338,1,0,0:0:0:0:
256,192,103588,1,8,0:0:0:0:
256,192,103671,1,0,0:0:0:0:
256,192,103838,1,8,0:0:0:0:
256,192,104005,1,0,0:0:0:0:
256,192,104171,1,8,0:0:0:0:
256,192,104255,1,8,0:0:0:0:
256,192,104338,1,0,0:0:0:0:
256,192,104505,1,8,0:0:0:0:
256,192,104671,1,0,0:0:0:0:
256,192,104755,1,0,0:0:0:0:
256,192,104838,1,0,0:0:0:0:
256,192,104921,1,0,0:0:0:0:
256,192,105005,1,8,0:0:0:0:
256,192,105088,1,8,0:0:0:0:
256,192,105171,1,0,0:0:0:0:
256,192,105255,1,8,0:0:0:0:
256,192,105338,12,0,105838,0:0:0:0:
256,192,106005,5,4,0:0:0:0:
