osu file format v14

[General]
AudioFilename: audio.mp3
AudioLeadIn: 0
PreviewTime: 58263
Countdown: 0
SampleSet: Normal
StackLeniency: 0.3
Mode: 0
LetterboxInBreaks: 0
WidescreenStoryboard: 1

[Editor]
DistanceSpacing: 1.4
BeatDivisor: 4
GridSize: 16
TimelineZoom: 1.6

[Metadata]
Title:Inochi ni Kirawarete iru.
TitleUnicode:命に嫌われている。
Artist:quu
ArtistUnicode:quu
Creator:Cactipiller
Version:Hyper
Source:
Tags:renril hated by life itself kanzaki iori カンザキ イオリ
BeatmapID:1697256
BeatmapSetID:808041

[Difficulty]
HPDrainRate:4
CircleSize:4
OverallDifficulty:6.5
ApproachRate:8.3
SliderMultiplier:1.2
SliderTickRate:1

[Events]
//Background and Video events
0,0,"INKI.jpg",0,0
//Break Periods
//Storyboard Layer 0 (Background)
//Storyboard Layer 1 (Fail)
//Storyboard Layer 2 (Pass)
//Storyboard Layer 3 (Foreground)
//Storyboard Sound Samples

[TimingPoints]
1263,300,4,1,0,100,1,0
9663,-133.333333333333,4,2,0,30,0,0
10788,-133.333333333333,4,2,0,5,0,0
10863,-90.9090909090909,4,2,0,30,0,0
11313,-133.333333333333,4,2,0,30,0,0
19563,-125,4,2,0,35,0,0
19863,-117.647058823529,4,2,0,40,0,0
20163,-111.111111111111,4,2,0,45,0,0
20463,-133.333333333333,4,2,0,40,0,0
38763,-125,4,2,0,45,0,0
39063,-117.647058823529,4,2,0,50,0,0
39363,-111.111111111111,4,2,0,55,0,0
39663,-100,4,2,0,45,0,0
49263,-100,4,2,0,50,0,0
57663,-100,4,1,0,60,0,0
58863,-86.9565217391304,4,1,0,70,0,1
78063,-80,4,1,0,70,0,0

[Colours]
Combo1 : 128,0,128
Combo2 : 0,136,45
Combo3 : 2,23,210
Combo4 : 247,4,47

[HitObjects]
95,69,10413,5,0,0:0:0:0:
150,121,10563,2,0,L|228:117,1,67.5000025749207,8|0,0:0|0:0,0:0:0:0:
242,115,10863,6,0,P|244:167|326:220,1,132.00000402832,2|8,0:0|0:0,0:0:0:0:
409,225,11313,2,0,P|361:216|316:233,1,90.0000034332277,0|0,0:0|0:0,0:0:0:0:
270,284,11763,2,0,L|215:281,1,45.0000017166138,8|0,0:0|0:0,0:0:0:0:
117,275,12063,5,2,0:0:0:0:
63,220,12213,2,0,P|50:177|59:133,1,90.0000034332277,0|0,0:0|0:0,0:0:0:0:
122,88,12663,2,0,L|176:85,1,45.0000017166138,0|0,0:0|0:0,0:0:0:0:
234,122,12963,2,0,L|278:124,1,45.0000017166138,8|0,0:0|0:0,0:0:0:0:
387,82,13263,6,0,P|371:131|387:175,1,90.0000034332277,2|8,0:0|0:0,0:0:0:0:
468,231,13713,2,0,P|433:192|387:184,1,90.0000034332277,0|0,0:0|0:0,0:0:0:0:
347,274,14163,2,0,L|392:272,1,45.0000017166138,8|0,0:0|0:0,0:0:0:0:
276,238,14463,5,0,0:0:0:0:
212,281,14613,2,0,L|117:276,1,90.0000034332277,0|0,0:0|0:0,0:0:0:0:
54,314,15063,2,0,P|48:349|54:365,1,45.0000017166138,2|0,0:0|0:0,0:0:0:0:
124,209,15363,2,0,P|130:244|124:260,1,45.0000017166138,10|0,0:0|0:0,0:0:0:0:
41,117,15663,6,0,P|30:73|46:32,1,90.0000034332277,2|8,0:0|0:0,0:0:0:0:
120,78,16113,2,0,L|214:73,1,90.0000034332277,0|0,0:0|0:0,0:0:0:0:
283,0,16563,2,0,P|276:20|280:43,1,45.0000017166138,8|0,0:0|0:0,0:0:0:0:
359,148,16863,6,0,P|369:191|353:232,1,90.0000034332277,2|8,0:0|0:0,0:0:0:0:
280,187,17313,2,0,L|185:191,1,90.0000034332277,0|0,0:0|0:0,0:0:0:0:
116,266,17763,2,0,P|122:244|119:222,1,45.0000017166138,8|0,0:0|0:0,0:0:0:0:
149,335,18063,6,0,P|190:350|233:340,1,90.0000034332277,2|8,0:0|0:0,0:0:0:0:
251,326,18513,1,0,0:0:0:0:
324,345,18663,1,0,0:0:0:0:
458,271,18963,1,8,0:0:0:0:
371,144,19263,6,0,P|364:165|367:187,1,45.0000017166138,2|0,0:0|0:0,0:0:0:0:
302,87,19563,2,0,P|289:107|286:131,1,48,10|0,0:0|0:0,0:0:0:0:
206,61,19863,2,0,P|203:86|191:108,1,51.0000009727478,2|0,0:0|0:0,0:0:0:0:
124,7,20163,2,0,P|127:33|119:59,1,53.9999983520508,10|0,0:0|0:0,0:0:0:0:
0,187,20463,6,0,P|46:171|93:183,1,90.0000034332277,2|8,0:0|0:0,0:0:0:0:
156,209,20913,1,0,0:0:0:0:
217,254,21063,2,0,P|217:276|209:297,1,45.0000017166138,0|0,0:0|0:0,0:0:0:0:
258,356,21363,2,0,P|280:355|301:363,1,45.0000017166138,8|0,0:0|0:0,0:0:0:0:
451,281,21663,6,0,P|405:297|358:285,1,90.0000034332277,2|8,0:0|0:0,0:0:0:0:
295,259,22113,1,0,0:0:0:0:
321,187,22263,2,0,L|316:92,1,90.0000034332277,0|8,0:0|0:0,0:0:0:0:
309,24,22713,1,0,0:0:0:0:
174,74,22863,6,0,P|195:81|217:81,2,45.0000017166138,2|0|8,0:0|0:0|0:0,0:0:0:0:
105,49,23313,1,0,0:0:0:0:
26,111,23463,2,0,P|18:154|34:196,1,90.0000034332277,0|8,0:0|0:0,0:0:0:0:
93,238,23913,1,0,0:0:0:0:
51,337,24063,6,0,L|6:334,1,45.0000017166138,2|0,0:0|0:0,0:0:0:0:
119,359,24363,2,0,P|141:359|162:351,1,45.0000017166138,10|0,0:0|0:0,0:0:0:0:
216,304,24663,2,0,P|237:296|259:296,1,45.0000017166138,2|0,0:0|0:0,0:0:0:0:
371,320,24963,2,0,L|327:318,1,45.0000017166138,10|0,0:0|0:0,0:0:0:0:
451,356,25263,6,0,P|459:313|443:271,1,90.0000034332277,2|8,0:0|0:0,0:0:0:0:
394,217,25713,1,0,0:0:0:0:
407,146,25863,1,0,0:0:0:0:
382,78,26013,1,0,0:0:0:0:
273,111,26163,2,0,L|229:109,1,45.0000017166138,8|0,0:0|0:0,0:0:0:0:
183,165,26463,6,0,P|141:181|97:173,1,90.0000034332277,2|8,0:0|0:0,0:0:0:0:
128,2,26913,2,0,L|133:92,1,90.0000034332277,0|0,0:0|0:0,0:0:0:0:
97,173,27363,2,0,L|99:217,1,45.0000017166138,8|0,0:0|0:0,0:0:0:0:
101,343,27663,6,0,P|59:359|15:351,1,90.0000034332277,2|8,0:0|0:0,0:0:0:0:
167,372,28113,2,0,L|211:370,1,45.0000017166138,0|0,0:0|0:0,0:0:0:0:
333,256,28413,1,0,0:0:0:0:
315,325,28563,2,0,L|271:323,1,45.0000017166138,8|0,0:0|0:0,0:0:0:0:
186,231,28863,5,0,0:0:0:0:
186,231,29163,1,8,0:0:0:0:
186,231,29463,2,0,P|177:210|177:187,1,45.0000017166138,2|0,0:0|0:0,0:0:0:0:
226,135,29763,2,0,P|234:114|234:91,1,45.0000017166138,10|0,0:0|0:0,0:0:0:0:
295,6,30063,5,2,0:0:0:0:
350,52,30213,2,0,L|447:47,1,90.0000034332277,0|0,0:0|0:0,0:0:0:0:
491,98,30663,2,0,P|499:118|499:141,1,45.0000017166138,0|0,0:0|0:0,0:0:0:0:
456,200,30963,1,8,0:0:0:0:
477,268,31113,1,0,0:0:0:0:
354,314,31263,5,2,0:0:0:0:
408,361,31413,2,0,L|505:356,1,90.0000034332277,0|0,0:0|0:0,0:0:0:0:
340,384,31863,2,0,L|295:381,1,45.0000017166138,0|0,0:0|0:0,0:0:0:0:
231,346,32163,2,0,L|186:348,1,45.0000017166138,8|0,0:0|0:0,0:0:0:0:
61,366,32463,5,2,0:0:0:0:
47,295,32613,1,0,0:0:0:0:
94,241,32763,2,0,P|102:220|101:197,1,45.0000017166138,8|0,0:0|0:0,0:0:0:0:
9,145,33063,2,0,L|54:143,1,45.0000017166138,0|0,0:0|0:0,0:0:0:0:
124,126,33363,2,0,L|169:128,1,45.0000017166138,8|0,0:0|0:0,0:0:0:0:
332,134,33663,5,2,0:0:0:0:
296,196,33813,2,0,L|195:191,1,90.0000034332277,0|0,0:0|0:0,0:0:0:0:
149,237,34263,2,0,P|140:257|141:280,1,45.0000017166138,2|0,0:0|0:0,0:0:0:0:
178,341,34563,2,0,P|198:349|221:348,1,45.0000017166138,8|0,0:0|0:0,0:0:0:0:
425,370,34863,6,0,P|383:386|339:378,1,90.0000034332277,2|8,0:0|0:0,0:0:0:0:
291,324,35313,1,0,0:0:0:0:
309,254,35463,1,0,0:0:0:0:
290,184,35613,1,0,0:0:0:0:
348,113,35763,2,0,P|356:92|355:69,1,45.0000017166138,10|0,0:0|0:0,0:0:0:0:
178,86,36063,6,0,L|268:83,1,90.0000034332277,2|8,0:0|0:0,0:0:0:0:
107,139,36513,2,0,P|91:97|99:53,1,90.0000034332277,0|0,0:0|0:0,0:0:0:0:
46,185,36963,2,0,P|46:207|38:228,1,45.0000017166138,10|0,0:0|0:0,0:0:0:0:
0,313,37263,6,0,L|62:310,1,45.0000017166138,2|0,0:0|0:0,0:0:0:0:
174,299,37563,1,8,0:0:0:0:
141,363,37713,2,0,L|78:360,1,45.0000017166138,0|0,0:0|0:0,0:0:0:0:
245,283,38013,1,0,0:0:0:0:
278,347,38163,2,0,L|340:344,1,45.0000017166138,8|0,0:0|0:0,0:0:0:0:
429,339,38463,6,0,P|428:361|436:382,1,45.0000017166138,2|0,0:0|0:0,0:0:0:0:
496,244,38763,2,0,P|496:270|486:295,1,48,10|0,0:0|0:0,0:0:0:0:
427,155,39063,2,0,P|426:180|435:204,1,51.0000009727478,2|0,0:0|0:0,0:0:0:0:
487,47,39363,2,0,P|487:73|477:98,1,53.9999983520508,10|0,0:0|0:0,0:0:0:0:
335,174,39663,6,0,L|200:169,1,120,6|0,0:0|0:0,0:0:0:0:
133,119,40113,1,0,0:0:0:0:
82,200,40263,2,0,L|85:263,1,60,2|0,0:0|0:0,0:0:0:0:
189,361,40563,1,8,0:0:0:0:
94,345,40713,1,0,0:0:0:0:
267,305,40863,6,0,P|297:296|329:300,1,60,6|0,0:0|0:0,0:0:0:0:
474,361,41163,2,0,L|411:358,1,60,0|0,0:0|0:0,0:0:0:0:
346,307,41463,1,2,0:0:0:0:
340,223,41613,1,0,0:0:0:0:
340,139,41763,2,8,P|339:106|351:76,1,60,8|0,0:0|0:0,0:0:0:0:
487,127,42063,6,0,L|427:124,2,60,6|0|0,0:0|0:0|0:0,0:0:0:0:
505,18,42513,1,0,0:0:0:0:
413,26,42663,2,0,L|353:29,1,60,2|0,0:0|0:0,0:0:0:0:
211,77,42963,2,0,P|239:67|269:69,1,60,8|0,0:0|0:0,0:0:0:0:
151,200,43263,5,6,0:0:0:0:
125,113,43413,1,0,0:0:0:0:
246,217,43563,2,0,P|275:219|304:210,1,60,8|0,0:0|0:0,0:0:0:0:
447,255,43863,2,0,P|418:253|389:262,1,60,8|0,0:0|0:0,0:0:0:0:
326,327,44163,2,0,P|297:336|267:334,1,60,8|0,0:0|0:0,0:0:0:0:
182,309,44463,6,0,L|185:369,1,60,6|0,0:0|0:0,0:0:0:0:
103,253,44763,1,0,0:0:0:0:
100,163,44913,1,0,0:0:0:0:
180,122,45063,2,0,L|183:182,1,60,2|0,0:0|0:0,0:0:0:0:
139,42,45363,2,0,P|168:33|198:35,1,60,8|0,0:0|0:0,0:0:0:0:
302,88,45663,5,6,0:0:0:0:
381,115,45813,1,0,0:0:0:0:
457,80,45963,2,0,P|458:50|449:21,1,60,8|0,0:0|0:0,0:0:0:0:
381,115,46263,2,0,P|379:144|388:173,1,60,8|0,0:0|0:0,0:0:0:0:
450,229,46563,2,0,P|458:257|457:287,1,60,8|0,0:0|0:0,0:0:0:0:
373,372,46863,6,0,L|240:365,1,120,6|0,0:0|0:0,0:0:0:0:
168,320,47313,1,0,0:0:0:0:
102,249,47463,2,0,P|79:190|90:128,1,120,2|8,0:0|0:0,0:0:0:0:
157,69,47913,1,0,0:0:0:0:
291,141,48063,6,0,L|351:138,1,60,6|0,0:0|0:0,0:0:0:0:
512,75,48363,2,0,L|452:78,1,60,2|0,0:0|0:0,0:0:0:0:
371,4,48663,2,0,L|374:64,1,60,8|0,0:0|0:0,0:0:0:0:
437,225,48963,2,0,L|434:165,1,60,8|0,0:0|0:0,0:0:0:0:
314,224,49263,5,6,0:0:0:0:
250,289,49413,2,0,P|308:311|370:300,1,120,0|0,0:0|0:0,0:0:0:0:
191,351,49863,2,0,P|162:359|132:358,1,60,10|0,0:0|0:0,0:0:0:0:
0,306,50163,2,0,P|28:297|58:298,1,60,8|0,0:0|0:0,0:0:0:0:
163,225,50463,6,0,L|160:165,1,60,6|0,0:0|0:0,0:0:0:0:
86,109,50763,1,0,0:0:0:0:
160,148,50913,1,0,0:0:0:0:
235,110,51063,2,0,P|263:100|293:101,1,60,10|0,0:0|0:0,0:0:0:0:
367,140,51363,2,0,P|396:141|425:132,1,60,8|0,0:0|0:0,0:0:0:0:
510,85,51663,6,0,L|513:145,1,60,6|0,0:0|0:0,0:0:0:0:
508,228,51963,1,0,0:0:0:0:
463,299,52113,1,0,0:0:0:0:
396,350,52263,2,0,P|367:358|337:357,1,60,10|0,0:0|0:0,0:0:0:0:
197,322,52563,2,0,L|257:319,1,60,8|0,0:0|0:0,0:0:0:0:
369,201,52863,5,6,0:0:0:0:
297,239,53013,1,0,0:0:0:0:
221,206,53163,2,0,P|194:191|174:169,1,60,2|0,0:0|0:0,0:0:0:0:
255,61,53463,2,0,L|252:121,1,60,8|0,0:0|0:0,0:0:0:0:
162,14,53763,2,0,L|165:74,1,60,8|0,0:0|0:0,0:0:0:0:
90,198,54063,6,0,P|81:168|83:138,2,60,6|0|0,0:0|0:0|0:0,0:0:0:0:
148,257,54513,2,0,L|142:377,1,120,0|0,0:0|0:0,0:0:0:0:
225,365,54963,2,0,P|253:355|283:356,1,60,8|0,0:0|0:0,0:0:0:0:
461,328,55263,6,0,L|458:268,1,60,6|0,0:0|0:0,0:0:0:0:
366,233,55563,2,0,L|369:173,1,60,2|0,0:0|0:0,0:0:0:0:
309,38,55863,2,0,L|306:98,1,60,8|0,0:0|0:0,0:0:0:0:
214,133,56163,2,0,L|217:193,1,60,8|0,0:0|0:0,0:0:0:0:
176,307,56463,6,0,P|129:322|58:307,1,120,6|0,0:0|0:0,0:0:0:0:
10,240,56913,1,0,0:0:0:0:
95,142,57063,2,0,P|85:170|86:200,1,60,10|0,0:0|0:0,0:0:0:0:
184,71,57363,2,0,P|194:43|193:13,1,60,8|0,0:0|0:0,0:0:0:0:
261,118,57663,6,0,L|291:116,3,30,8|0|0|0,3:1|3:1|3:1|3:1,0:0:0:0:
380,163,57963,2,0,L|350:161,3,30,8|0|0|0,3:1|3:1|3:1|3:1,0:0:0:0:
261,208,58263,2,0,L|291:206,3,30,8|0|8|0,3:1|3:1|3:1|3:1,0:0:0:0:
380,253,58563,2,0,L|350:251,3,30,8|0|8|0,3:1|3:1|3:1|3:1,0:0:0:0:
462,292,58863,5,4,0:0:0:0:
391,358,59013,2,0,L|319:354,1,69.0000013160706,0|8,0:0|0:0,0:0:0:0:
225,347,59313,1,0,0:0:0:0:
77,384,59463,2,0,L|149:380,1,69.0000013160706,0|0,0:0|0:0,0:0:0:0:
225,347,59763,1,8,0:0:0:0:
224,257,59913,1,0,0:0:0:0:
147,172,60063,6,0,P|135:205|136:241,1,69.0000013160706,4|0,0:0|0:0,0:0:0:0:
288,128,60363,2,0,L|216:124,1,69.0000013160706,8|0,0:0|0:0,0:0:0:0:
360,80,60663,2,0,P|371:46|370:10,1,69.0000013160706,0|0,0:0|0:0,0:0:0:0:
485,88,60963,1,8,0:0:0:0:
489,184,61113,1,0,0:0:0:0:
398,264,61263,6,0,L|326:260,1,69.0000013160706,4|0,0:0|0:0,0:0:0:0:
172,214,61563,2,0,L|244:210,1,69.0000013160706,8|0,0:0|0:0,0:0:0:0:
401,170,61863,1,0,0:0:0:0:
420,264,62013,2,0,P|420:298|409:330,1,69.0000013160706,0|8,0:0|0:0,0:0:0:0:
325,379,62313,1,0,0:0:0:0:
101,307,62463,6,0,P|134:297|168:299,1,69.0000013160706,4|0,0:0|0:0,0:0:0:0:
322,360,62763,2,0,L|318:288,1,69.0000013160706,8|0,0:0|0:0,0:0:0:0:
273,131,63063,2,0,L|269:203,1,69.0000013160706,8|0,0:0|0:0,0:0:0:0:
29,204,63363,2,0,L|25:132,1,69.0000013160706,8|0,0:0|0:0,0:0:0:0:
189,92,63663,6,0,P|156:102|122:100,1,69.0000013160706,4|0,0:0|0:0,0:0:0:0:
42,44,63963,1,8,0:0:0:0:
145,14,64113,1,0,0:0:0:0:
261,48,64263,2,0,L|329:44,1,69.0000013160706,0|0,0:0|0:0,0:0:0:0:
448,172,64563,2,0,L|379:168,1,69.0000013160706,8|0,0:0|0:0,0:0:0:0:
484,83,64863,5,4,0:0:0:0:
473,179,65013,1,0,0:0:0:0:
462,275,65163,2,0,P|459:309|469:342,1,69.0000013160706,8|0,0:0|0:0,0:0:0:0:
381,381,65463,2,0,L|312:377,1,69.0000013160706,0|0,0:0|0:0,0:0:0:0:
122,300,65763,2,0,L|190:296,1,69.0000013160706,8|0,0:0|0:0,0:0:0:0:
360,223,66063,6,0,P|326:225|293:215,1,69.0000013160706,4|0,0:0|0:0,0:0:0:0:
340,136,66363,1,8,0:0:0:0:
383,222,66513,2,0,L|379:290,1,69.0000013160706,0|0,0:0|0:0,0:0:0:0:
187,225,66813,1,0,0:0:0:0:
221,134,66963,1,8,0:0:0:0:
282,208,67113,1,0,0:0:0:0:
126,151,67263,6,0,P|93:140|58:142,1,69.0000013160706,12|0,0:0|0:0,0:0:0:0:
178,56,67563,2,0,P|210:45|245:47,1,69.0000013160706,12|0,0:0|0:0,0:0:0:0:
370,86,67863,2,0,L|406:83,3,34.5000006580353,8|0|0|0,0:0|0:0|0:0|0:0,0:0:0:0:
327,159,68163,2,0,L|291:156,3,34.5000006580353,8|0|8|0,0:0|0:0|0:0|0:0,0:0:0:0:
403,224,68463,5,4,0:0:0:0:
444,311,68613,2,0,P|446:345|436:378,1,69.0000013160706,0|8,0:0|0:0,0:0:0:0:
357,331,68913,1,0,0:0:0:0:
273,311,69063,2,0,P|308:309|341:319,1,69.0000013160706,0|0,0:0|0:0,0:0:0:0:
190,359,69363,1,8,0:0:0:0:
107,308,69513,1,0,0:0:0:0:
30,188,69663,6,0,P|28:153|39:121,1,69.0000013160706,4|0,0:0|0:0,0:0:0:0:
138,25,69963,2,0,L|134:93,1,69.0000013160706,8|0,0:0|0:0,0:0:0:0:
215,202,70263,2,0,L|211:134,1,69.0000013160706,0|0,0:0|0:0,0:0:0:0:
284,22,70563,1,8,0:0:0:0:
301,117,70713,1,0,0:0:0:0:
413,214,70863,6,0,P|445:223|480:221,1,69.0000013160706,4|0,0:0|0:0,0:0:0:0:
459,66,71163,2,0,L|455:134,1,69.0000013160706,8|0,0:0|0:0,0:0:0:0:
398,228,71463,1,0,0:0:0:0:
420,321,71613,1,0,0:0:0:0:
342,378,71763,2,0,L|274:374,1,69.0000013160706,8|0,0:0|0:0,0:0:0:0:
152,230,72063,5,4,0:0:0:0:
173,324,72213,1,0,0:0:0:0:
251,181,72363,2,0,P|260:149|258:114,1,69.0000013160706,8|0,0:0|0:0,0:0:0:0:
105,129,72663,2,0,P|138:138|173:136,1,69.0000013160706,8|0,0:0|0:0,0:0:0:0:
341,9,72963,1,8,0:0:0:0:
374,99,73113,1,0,0:0:0:0:
331,207,73263,6,0,L|335:275,1,69.0000013160706,4|0,0:0|0:0,0:0:0:0:
278,359,73563,2,0,P|245:350|210:352,1,69.0000013160706,8|0,0:0|0:0,0:0:0:0:
115,371,73863,1,0,0:0:0:0:
22,342,74013,1,0,0:0:0:0:
155,212,74163,2,0,L|151:280,1,69.0000013160706,8|0,0:0|0:0,0:0:0:0:
78,98,74463,5,4,0:0:0:0:
171,123,74613,1,0,0:0:0:0:
263,94,74763,2,0,P|297:92|330:101,1,69.0000013160706,8|0,0:0|0:0,0:0:0:0:
500,154,75063,2,0,L|496:86,1,69.0000013160706,8|0,0:0|0:0,0:0:0:0:
396,178,75363,2,0,L|392:246,1,69.0000013160706,8|0,0:0|0:0,0:0:0:0:
461,374,75663,5,4,0:0:0:0:
373,332,75813,2,0,P|339:330|306:339,1,69.0000013160706,0|8,0:0|0:0,0:0:0:0:
218,382,76113,1,8,0:0:0:0:
61,349,76263,2,0,P|94:340|129:342,1,69.0000013160706,8|8,0:0|0:0,0:0:0:0:
109,182,76563,1,8,0:0:0:0:
49,258,76713,1,8,0:0:0:0:
51,104,76863,6,0,L|55:36,1,69.0000013160706,12|0,0:0|0:0,0:0:0:0:
232,169,77163,2,0,L|228:101,1,69.0000013160706,12|0,0:0|0:0,0:0:0:0:
500,99,77463,2,0,L|496:167,1,69.0000013160706,12|0,0:0|0:0,0:0:0:0:
319,34,77763,2,0,L|323:102,1,69.0000013160706,12|0,0:0|0:0,0:0:0:0:
335,232,78063,5,4,0:0:0:0:
