osu file format v14

[General]
AudioFilename: audio.mp3
AudioLeadIn: 0
PreviewTime: 58263
Countdown: 0
SampleSet: Soft
StackLeniency: 0.3
Mode: 0
LetterboxInBreaks: 0
WidescreenStoryboard: 1

[Editor]
DistanceSpacing: 1.1
BeatDivisor: 4
GridSize: 16
TimelineZoom: 1.6

[Metadata]
Title:Inochi ni Kirawarete iru.
TitleUnicode:命に嫌われている。
Artist:quu
ArtistUnicode:quu
Creator:Cactipiller
Version:Hard
Source:
Tags:renril hated by life itself kanzaki iori カンザキ イオリ
BeatmapID:1696458
BeatmapSetID:808041

[Difficulty]
HPDrainRate:4
CircleSize:3.5
OverallDifficulty:6
ApproachRate:7.5
SliderMultiplier:1
SliderTickRate:1

[Events]
//Background and Video events
0,0,"INKI.jpg",0,0
//Break Periods
//Storyboard Layer 0 (Background)
//Storyboard Layer 1 (Fail)
//Storyboard Layer 2 (Pass)
//Storyboard Layer 3 (Foreground)
//Storyboard Sound Samples

[TimingPoints]
1263,300,4,1,0,100,1,0
11163,-133.333333333333,4,2,0,30,0,0
19563,-133.333333333333,4,2,0,35,0,0
19863,-133.333333333333,4,2,0,40,0,0
20163,-133.333333333333,4,2,0,45,0,0
20463,-133.333333333333,4,2,0,40,0,0
38763,-133.333333333333,4,2,0,45,0,0
39063,-133.333333333333,4,2,0,50,0,0
39363,-133.333333333333,4,2,0,55,0,0
39663,-117.647058823529,4,2,0,45,0,0
57663,-117.647058823529,4,1,0,60,0,0
58863,-100,4,1,0,70,0,1
78063,-80,4,1,0,70,0,0

[Colours]
Combo1 : 128,0,128
Combo2 : 0,136,45
Combo3 : 2,23,210
Combo4 : 247,4,47

[HitObjects]
41,76,10863,6,0,P|90:53|144:68,1,100,2|8,0:0|0:0,0:0:0:0:
202,114,11313,2,0,L|325:106,1,112.500004291535,0|8,0:0|0:0,0:0:0:0:
475,43,12063,5,2,0:0:0:0:
431,104,12213,2,0,L|437:222,1,112.500004291535,0|0,0:0|0:0,0:0:0:0:
446,366,12963,1,8,0:0:0:0:
304,283,13263,6,0,P|262:269|217:276,1,75.000002861023,2|8,0:0|0:0,0:0:0:0:
164,303,13713,2,0,P|141:270|152:189,1,112.500004291535,0|8,0:0|0:0,0:0:0:0:
248,65,14463,5,0,0:0:0:0:
307,110,14613,2,0,L|425:104,1,112.500004291535,0|2,0:0|0:0,0:0:0:0:
499,230,15363,1,10,0:0:0:0:
378,319,15663,6,0,L|260:313,1,112.500004291535,2|0,0:0|0:0,0:0:0:0:
40,308,16563,1,8,0:0:0:0:
92,167,16863,6,0,P|137:146|207:161,1,112.500004291535,2|0,0:0|0:0,0:0:0:0:
396,205,17763,1,8,0:0:0:0:
304,86,18063,6,0,B|285:142|304:198|304:198|322:254|304:311,1,225.000008583069,2|8,0:0|0:0,0:0:0:0:
158,340,19263,6,8,P|128:317|108:285,1,75.000002861023,2|10,0:0|0:0,0:0:0:0:
84,137,19863,2,8,P|106:107|138:87,1,75.000002861023,2|10,0:0|0:0,0:0:0:0:
357,95,20463,6,0,L|273:96,1,75.0000028610231,2|8,0:0|0:0,0:0:0:0:
218,135,20913,2,0,L|224:253,1,112.500004291535,0|8,0:0|0:0,0:0:0:0:
335,347,21663,6,0,P|387:355|419:346,1,75.000002861023,2|8,0:0|0:0,0:0:0:0:
475,316,22113,2,0,L|469:198,1,112.500004291535,0|8,0:0|0:0,0:0:0:0:
394,77,22863,6,0,L|389:159,2,75.0000028610231,2|8|0,0:0|0:0|0:0,0:0:0:0:
258,10,23763,1,8,0:0:0:0:
116,58,24063,1,2,0:0:0:0:
75,202,24363,6,0,L|-7:197,2,75.0000028610231,10|2|10,0:0|0:0|0:0,0:0:0:0:
198,288,25263,6,0,P|237:296|278:289,2,75.0000028610231,2|8|0,0:0|0:0|0:0,0:0:0:0:
240,167,26163,1,8,0:0:0:0:
332,79,26463,6,0,L|414:74,1,75.0000028610231,2|8,0:0|0:0,0:0:0:0:
472,112,26913,2,0,P|463:164|483:232,1,112.500004291535,0|8,0:0|0:0,0:0:0:0:
366,323,27663,6,0,L|283:318,2,75.0000028610231,2|8|0,0:0|0:0|0:0,0:0:0:0:
229,259,28563,1,8,0:0:0:0:
92,320,28863,6,0,L|174:315,1,75.0000028610231,0|8,0:0|0:0,0:0:0:0:
266,186,29463,2,0,P|278:128|276:107,1,75.0000028610231,2|10,0:0|0:0,0:0:0:0:
148,34,30063,6,0,L|152:116,1,75.0000028610231,2|8,0:0|0:0,0:0:0:0:
113,174,30513,2,0,P|53:173|-4:156,1,112.500004291535,0|8,0:0|0:0,0:0:0:0:
43,303,31263,5,2,0:0:0:0:
110,335,31413,2,0,P|169:334|227:317,1,112.500004291535,0|0,0:0|0:0,0:0:0:0:
345,237,32163,1,8,0:0:0:0:
468,151,32463,6,0,L|472:69,1,75.0000028610231,2|8,0:0|0:0,0:0:0:0:
433,12,32913,2,0,P|373:13|316:30,1,112.500004291535,0|8,0:0|0:0,0:0:0:0:
173,37,33663,5,2,0:0:0:0:
116,86,33813,2,0,L|109:210,1,112.500004291535,0|2,0:0|0:0,0:0:0:0:
170,335,34563,1,8,0:0:0:0:
259,214,34863,6,0,P|259:150|265:125,1,75.0000028610231,2|8,0:0|0:0,0:0:0:0:
319,91,35313,2,0,L|443:97,1,112.500004291535,0|10,0:0|0:0,0:0:0:0:
496,231,36063,6,0,P|496:295|490:320,1,75.0000028610231,2|8,0:0|0:0,0:0:0:0:
436,354,36513,2,0,L|311:347,1,112.500004291535,0|10,0:0|0:0,0:0:0:0:
178,309,37263,6,0,L|252:305,2,75.0000028610231,2|8|0,0:0|0:0|0:0,0:0:0:0:
50,229,38163,1,8,0:0:0:0:
58,79,38463,6,0,P|74:37|103:15,1,75.0000028610231,2|10,0:0|0:0,0:0:0:0:
246,14,39063,2,0,P|273:39|284:74,1,75.0000028610231,2|10,0:0|0:0,0:0:0:0:
273,244,39663,5,6,0:0:0:0:
344,290,39813,2,0,L|444:284,1,85.0000016212464,0|0,0:0|0:0,0:0:0:0:
480,216,40263,2,0,P|486:178|484:162,1,42.5000008106232,2|0,0:0|0:0,0:0:0:0:
428,110,40563,2,0,P|428:88|433:68,1,42.5000008106232,8|0,0:0|0:0,0:0:0:0:
348,65,40863,6,0,L|248:59,1,85.0000016212464,6|0,0:0|0:0,0:0:0:0:
177,57,41313,1,0,0:0:0:0:
106,104,41463,2,0,P|100:142|102:158,1,42.5000008106232,2|0,0:0|0:0,0:0:0:0:
179,195,41763,2,0,P|179:173|184:153,1,42.5000008106232,8|0,0:0|0:0,0:0:0:0:
266,184,42063,6,0,L|356:178,1,85.0000016212464,6|0,0:0|0:0,0:0:0:0:
420,227,42513,2,0,P|432:280|426:325,1,85.0000016212464,0|0,0:0|0:0,0:0:0:0:
354,350,42963,2,0,L|294:346,1,42.5000008106232,8|0,0:0|0:0,0:0:0:0:
208,337,43263,5,6,0:0:0:0:
135,292,43413,1,0,0:0:0:0:
139,207,43563,2,0,P|139:185|144:165,1,42.5000008106232,8|0,0:0|0:0,0:0:0:0:
248,227,43863,2,0,P|228:238|209:243,1,42.5000008106232,8|0,0:0|0:0,0:0:0:0:
211,123,44163,2,0,P|230:133|244:148,1,42.5000008106232,8|0,0:0|0:0,0:0:0:0:
320,186,44463,6,0,L|374:183,2,42.5000008106232,6|0|0,0:0|0:0|0:0,0:0:0:0:
244,148,44913,2,0,L|248:61,1,85.0000016212464,0|0,0:0|0:0,0:0:0:0:
177,23,45363,2,0,L|123:20,1,42.5000008106232,8|0,0:0|0:0,0:0:0:0:
41,15,45663,5,6,0:0:0:0:
16,91,45813,1,0,0:0:0:0:
59,158,45963,2,0,P|59:180|54:200,1,42.5000008106232,8|0,0:0|0:0,0:0:0:0:
34,278,46263,2,0,P|56:278|76:283,1,42.5000008106232,8|0,0:0|0:0,0:0:0:0:
147,321,46563,2,0,P|167:326|188:325,1,42.5000008106232,8|0,0:0|0:0,0:0:0:0:
287,292,46863,6,0,B|318:281|349:292|349:292|380:302|411:292,1,127.50000243187,6|0,0:0|0:0,0:0:0:0:
480,249,47463,2,0,P|490:199|483:152,1,85.0000016212464,2|8,0:0|0:0,0:0:0:0:
449,94,47913,1,0,0:0:0:0:
367,145,48063,6,0,P|345:146|325:141,1,42.5000008106232,6|0,0:0|0:0,0:0:0:0:
252,104,48363,2,0,P|231:98|210:100,1,42.5000008106232,2|0,0:0|0:0,0:0:0:0:
142,143,48663,2,0,P|140:164|145:184,1,42.5000008106232,8|0,0:0|0:0,0:0:0:0:
183,258,48963,2,0,P|188:278|186:299,1,42.5000008106232,8|0,0:0|0:0,0:0:0:0:
167,378,49263,5,6,0:0:0:0:
247,367,49413,2,0,L|347:361,1,85.0000016212464,0|0,0:0|0:0,0:0:0:0:
402,321,49863,2,0,P|403:299|398:279,1,42.5000008106232,10|0,0:0|0:0,0:0:0:0:
361,206,50163,2,0,P|355:185|357:164,1,42.5000008106232,8|0,0:0|0:0,0:0:0:0:
408,100,50463,6,0,L|458:97,2,42.5000008106232,6|0|0,0:0|0:0|0:0,0:0:0:0:
327,87,50913,1,0,0:0:0:0:
261,134,51063,2,0,L|161:128,1,85.0000016212464,10|8,0:0|0:0,0:0:0:0:
95,121,51513,1,0,0:0:0:0:
46,201,51663,6,0,P|25:207|4:205,2,42.5000008106232,6|0|0,0:0|0:0|0:0,0:0:0:0:
126,207,52113,1,0,0:0:0:0:
195,247,52263,2,0,P|241:255|291:242,1,85.0000016212464,10|8,0:0|0:0,0:0:0:0:
347,205,52713,1,0,0:0:0:0:
411,156,52863,6,0,P|432:150|453:152,2,42.5000008106232,6|0|2,0:0|0:0|0:0,0:0:0:0:
357,95,53313,1,0,0:0:0:0:
277,78,53463,2,0,L|227:75,1,42.5000008106232,8|0,0:0|0:0,0:0:0:0:
167,121,53763,2,0,L|117:124,1,42.5000008106232,8|0,0:0|0:0,0:0:0:0:
40,76,54063,6,0,L|43:26,2,42.5000008106232,6|0|0,0:0|0:0|0:0,0:0:0:0:
27,156,54513,2,0,P|21:199|26:249,1,85.0000016212464,0|0,0:0|0:0,0:0:0:0:
76,302,54963,2,0,P|97:296|118:298,1,42.5000008106232,8|0,0:0|0:0,0:0:0:0:
192,326,55263,6,0,P|213:327|233:321,1,42.5000008106232,6|0,0:0|0:0,0:0:0:0:
307,290,55563,2,0,P|327:284|348:285,1,42.5000008106232,2|0,0:0|0:0,0:0:0:0:
429,290,55863,2,0,L|426:247,1,42.5000008106232,8|0,0:0|0:0,0:0:0:0:
506,265,56163,2,0,L|508:222,1,42.5000008106232,8|0,0:0|0:0,0:0:0:0:
467,131,56463,6,0,P|465:91|435:46,1,85.0000016212464,6|0,0:0|0:0,0:0:0:0:
361,52,56913,1,0,0:0:0:0:
293,96,57063,2,0,L|193:90,1,85.0000016212464,10|8,0:0|0:0,0:0:0:0:
127,77,57513,1,0,0:0:0:0:
53,141,57663,6,0,P|49:161|51:183,1,42.5000008106232,8|0,3:1|3:1,0:0:0:0:
105,248,57963,2,0,P|106:272|100:297,1,42.5000008106232,8|0,3:1|3:1,0:0:0:0:
167,359,58263,6,0,L|226:355,1,42.5000008106232,8|8,3:1|3:1,0:0:0:0:
292,336,58563,1,8,3:1:0:0:
375,353,58713,1,8,3:1:0:0:
465,322,58863,6,0,L|468:381,2,50,4|0|8,0:0|0:0|0:0,0:0:0:0:
455,226,59313,1,0,0:0:0:0:
489,137,59463,2,0,P|488:96|479:67,1,50,0|0,0:0|0:0,0:0:0:0:
397,120,59763,2,0,P|372:123|347:122,1,50,8|0,0:0|0:0,0:0:0:0:
258,87,60063,6,0,P|261:112|260:137,1,50,4|0,0:0|0:0,0:0:0:0:
183,193,60363,2,0,P|143:183|73:190,2,100,8|0|8,0:0|0:0|0:0,0:0:0:0:
259,249,61113,1,0,0:0:0:0:
339,299,61263,6,0,P|371:318|441:311,1,100,4|8,0:0|0:0,0:0:0:0:
499,250,61713,1,0,0:0:0:0:
460,163,61863,2,0,P|462:138|470:114,2,50,0|0|8,0:0|0:0|0:0,0:0:0:0:
367,184,62313,1,0,0:0:0:0:
284,136,62463,6,0,L|225:133,1,50,4|0,0:0|0:0,0:0:0:0:
153,184,62763,2,0,L|94:187,1,50,8|0,0:0|0:0,0:0:0:0:
23,131,63063,2,0,P|13:171|20:241,1,100,8|8,0:0|0:0,0:0:0:0:
56,315,63513,1,0,0:0:0:0:
147,341,63663,6,0,L|206:338,1,50,4|0,0:0|0:0,0:0:0:0:
290,357,63963,2,0,L|349:360,1,50,8|0,0:0|0:0,0:0:0:0:
427,320,64263,2,0,P|437:280|430:210,1,100,0|8,0:0|0:0,0:0:0:0:
426,127,64713,1,0,0:0:0:0:
331,135,64863,6,0,L|272:132,1,50,4|0,0:0|0:0,0:0:0:0:
185,135,65163,2,0,P|195:175|188:245,1,100,8|0,0:0|0:0,0:0:0:0:
111,284,65613,1,0,0:0:0:0:
44,215,65763,2,0,L|47:156,1,50,8|0,0:0|0:0,0:0:0:0:
49,69,66063,6,0,P|89:59|159:66,1,100,4|8,0:0|0:0,0:0:0:0:
243,47,66513,2,0,L|302:44,1,50,0|0,0:0|0:0,0:0:0:0:
383,13,66813,2,0,P|388:51|384:78,2,50,0|8|0,0:0|0:0|0:0,0:0:0:0:
468,54,67263,6,0,L|471:113,1,50,12|0,0:0|0:0,0:0:0:0:
421,185,67563,2,0,L|418:244,1,50,12|0,0:0|0:0,0:0:0:0:
404,329,67863,2,0,P|365:320|342:323,1,50,8|0,0:0|0:0,0:0:0:0:
265,352,68163,1,8,0:0:0:0:
172,329,68313,1,8,0:0:0:0:
77,333,68463,6,0,L|80:392,2,50,4|0|8,0:0|0:0|0:0,0:0:0:0:
21,254,68913,1,0,0:0:0:0:
88,187,69063,2,0,P|97:148|94:125,1,50,0|0,0:0|0:0,0:0:0:0:
95,42,69363,2,0,P|134:51|157:48,1,50,8|0,0:0|0:0,0:0:0:0:
234,20,69663,6,0,P|258:20|282:28,1,50,4|0,0:0|0:0,0:0:0:0:
365,73,69963,2,0,L|471:67,2,100,8|0|8,0:0|0:0|0:0,0:0:0:0:
308,149,70713,1,0,0:0:0:0:
387,201,70863,6,0,P|397:241|390:311,1,100,4|8,0:0|0:0,0:0:0:0:
323,363,71313,1,0,0:0:0:0:
237,322,71463,2,0,P|213:314|188:313,1,50,0|0,0:0|0:0,0:0:0:0:
103,357,71763,2,0,P|78:356|54:348,1,50,8|0,0:0|0:0,0:0:0:0:
19,259,72063,5,4,0:0:0:0:
57,172,72213,1,0,0:0:0:0:
96,85,72363,2,0,P|46:80|-2:96,2,100,8|8|8,0:0|0:0|0:0,0:0:0:0:
187,112,73113,1,0,0:0:0:0:
271,69,73263,6,0,P|320:64|367:79,1,100,4|8,0:0|0:0,0:0:0:0:
450,126,73713,1,0,0:0:0:0:
412,213,73863,2,0,L|415:272,1,50,0|0,0:0|0:0,0:0:0:0:
369,347,74163,2,0,L|310:350,1,50,8|0,0:0|0:0,0:0:0:0:
225,331,74463,5,4,0:0:0:0:
132,352,74613,1,0,0:0:0:0:
53,298,74763,2,0,P|48:270|54:243,1,50,8|0,0:0|0:0,0:0:0:0:
119,182,75063,2,0,L|116:123,1,50,8|0,0:0|0:0,0:0:0:0:
162,48,75363,2,0,L|221:45,1,50,8|0,0:0|0:0,0:0:0:0:
306,59,75663,6,0,P|309:34|304:10,2,50,4|0|8,0:0|0:0|0:0,0:0:0:0:
282,151,76113,1,8,0:0:0:0:
331,232,76263,2,0,L|390:229,1,50,8|8,0:0|0:0,0:0:0:0:
430,311,76563,2,0,L|371:308,1,50,8|8,0:0|0:0,0:0:0:0:
265,306,76863,6,0,L|206:309,1,50,12|0,0:0|0:0,0:0:0:0:
108,244,77163,2,0,L|167:247,1,50,12|0,0:0|0:0,0:0:0:0:
265,182,77463,2,0,L|206:185,1,50,12|0,0:0|0:0,0:0:0:0:
108,120,77763,2,0,L|167:123,1,50,12|0,0:0|0:0,0:0:0:0:
261,63,78063,5,4,0:0:0:0:
