osu file format v14

[General]
AudioFilename: audio.mp3
AudioLeadIn: 0
PreviewTime: 114958
Countdown: 0
SampleSet: Soft
StackLeniency: 0.5
Mode: 0
LetterboxInBreaks: 0
WidescreenStoryboard: 1

[Editor]
Bookmarks: 2009,14809,27498,47928,59867,69972,85210,104893,125103,145331
DistanceSpacing: 1
BeatDivisor: 4
GridSize: 16
TimelineZoom: 2.3

[Metadata]
Title:Reload feat. Aran P. Ink (WangleLine's "MEGATON MISSILE" Remix)
TitleUnicode:Reload feat. Aran P. Ink (WangleLine's "MEGATON MISSILE" Remix)
Artist:queenjazz
ArtistUnicode:queenjazz
Creator:hehe
Version:Extra
Source:
Tags:electronic english dubstep drumstep gst:live2022 great singapore tournament live 2022 gstlive custom map tourney AEF asia esports festival online kallang wave mall EXP experience center gstlive2022b4 handsome
BeatmapID:3929510
BeatmapSetID:1901755

[Difficulty]
HPDrainRate:5
CircleSize:4
OverallDifficulty:8.5
ApproachRate:9.2
SliderMultiplier:1.4
SliderTickRate:1

[Events]
//Background and Video events
0,0,"dizzy.jpg",0,0
//Break Periods
//Storyboard Layer 0 (Background)
//Storyboard Layer 1 (Fail)
//Storyboard Layer 2 (Pass)
//Storyboard Layer 3 (Foreground)
//Storyboard Layer 4 (Overlay)
//Storyboard Sound Samples

[TimingPoints]
2009,400,4,2,1,40,1,0
2309,-100,4,2,2,40,0,0
2609,-100,4,2,1,40,0,0
3109,-100,4,2,2,40,0,0
3609,-100,4,2,1,40,0,0
3909,-100,4,2,2,40,0,0
4209,-100,4,2,1,40,0,0
4709,-100,4,2,2,40,0,0
5209,-100,4,2,1,40,0,0
5509,-100,4,2,2,40,0,0
5809,-100,4,2,1,40,0,0
6309,-100,4,2,2,40,0,0
6809,-100,4,2,1,40,0,0
7109,-100,4,2,2,40,0,0
7409,-100,4,2,1,40,0,0
7909,-100,4,2,2,40,0,0
8409,-100,4,2,1,40,0,0
8709,-100,4,2,2,40,0,0
9009,-100,4,2,1,40,0,0
9509,-100,4,2,2,40,0,0
10009,-100,4,2,1,40,0,0
10309,-100,4,2,2,40,0,0
10609,-100,4,2,1,40,0,0
11109,-100,4,2,2,40,0,0
11609,-100,4,2,1,40,0,0
11909,-100,4,2,2,40,0,0
12209,-100,4,2,1,40,0,0
12709,-100,4,2,2,40,0,0
13209,-100,4,2,1,40,0,0
13509,-100,4,2,2,40,0,0
13809,-100,4,2,1,40,0,0
14009,-100,4,2,1,45,0,0
14809,381.024957134692,4,2,1,50,1,0
14999,-83.3333333333333,4,2,1,50,0,0
15094,-83.3333333333333,4,2,2,50,0,0
15190,380.445120791326,4,2,2,50,1,0
15190,-83.3333333333333,4,2,2,50,0,0
15380,-83.3333333333333,4,2,1,50,0,0
15570,380.035469977198,4,2,1,50,1,0
15570,-83.3333333333333,4,2,1,50,0,0
15855,-83.3333333333333,4,2,2,50,0,0
15950,379.650721336371,4,2,2,50,1,0
16329,379.099008024262,4,2,1,50,1,0
16329,-83.3333333333333,4,2,1,50,0,0
16613,-83.3333333333333,4,2,2,50,0,0
16708,378.572780617074,4,2,2,50,1,0
16897,-100,4,2,1,50,0,0
17086,377.905145808402,4,2,1,50,1,0
17086,-83.3333333333333,4,2,1,50,0,0
17368,-83.3333333333333,4,2,2,50,0,0
17463,377.216144851,4,2,2,50,1,0
17840,376.435159043855,4,2,1,60,1,0
17840,-83.3333333333333,4,2,1,60,0,0
18122,-83.3333333333333,4,2,2,60,0,0
18216,375.492834345078,4,2,2,60,1,0
18403,-100,4,2,1,60,0,0
18591,374.508457649335,4,2,1,60,1,0
18591,-83.3333333333333,4,2,1,60,0,0
18871,-83.3333333333333,4,2,2,60,0,0
18965,373.296833198532,4,2,2,60,1,0
19338,372.000744001488,4,2,1,60,1,0
19338,-83.3333333333333,4,2,1,60,0,0
19617,-83.3333333333333,4,2,2,60,0,0
19710,370.507595405706,4,2,2,60,1,0
19895,-100,4,2,1,60,0,0
20080,368.912936546975,4,2,1,60,1,0
20080,-83.3333333333333,4,2,1,60,0,0
20356,-83.3333333333333,4,2,2,60,0,0
20448,367.017372155615,4,2,2,60,1,0
20815,364.941305273402,4,2,2,70,1,0
21179,362.603493080317,4,2,2,70,1,0
21541,359.992800143997,4,2,2,70,1,0
21900,357.100345197,4,2,2,70,1,0
22257,353.857041755131,4,2,2,70,1,0
22433,-62.5,4,2,2,70,0,0
22610,350.221807144525,4,2,2,70,1,0
22785,-62.5,4,2,2,70,0,0
22960,346.220427005193,4,2,2,70,1,0
23133,-62.5,4,2,2,70,0,0
23306,341.763499658236,4,2,2,70,1,0
23476,-62.5,4,2,2,70,0,0
23647,336.908304789713,4,2,2,70,1,0
23983,331.5649867374,4,2,2,80,1,0
24314,325.679856700863,4,2,2,80,1,0
24639,319.182891797,4,2,2,80,1,0
24972,315.789473684211,4,2,1,80,1,0
25603,-50,4,2,1,90,0,0
26235,-50,4,2,1,60,0,0
27340,-50,4,2,2,60,0,0
27498,-50,4,2,1,70,0,0
27972,-50,4,2,2,70,0,0
28445,-50,4,2,1,70,0,0
28761,-50,4,2,2,70,0,0
29393,-50,4,2,1,70,0,0
29550,-50,4,2,2,70,0,0
29708,-50,4,2,1,70,0,0
30498,-50,4,2,2,70,0,0
30972,-50,4,2,1,70,0,0
31444,-50,4,2,2,70,0,0
32550,-50,4,2,1,70,0,0
33024,-50,4,2,2,70,0,0
33498,-50,4,2,1,70,0,0
33814,-50,4,2,2,70,0,0
34445,-50,4,2,1,70,0,0
35550,-50,4,2,2,70,0,0
35866,-50,4,2,2,70,0,0
36024,-50,4,2,1,70,0,0
36497,-50,4,2,2,70,0,0
37129,-50,4,2,1,70,0,0
37287,-50,4,2,1,70,0,0
38077,-50,4,2,2,70,0,0
38550,-50,4,2,1,70,0,0
38866,-50,4,2,2,70,0,0
39498,-50,4,2,1,70,0,0
39656,-50,4,2,2,70,0,0
39813,-50,4,2,1,70,0,0
40603,-50,4,2,2,70,0,0
41077,-50,4,2,1,70,0,0
41550,-50,4,2,2,70,0,0
42656,-50,4,2,1,70,0,0
43129,-50,4,2,2,70,0,0
43603,-50,4,2,1,70,0,0
43919,-50,4,2,2,70,0,0
44550,-50,4,2,1,70,0,0
45656,-50,4,2,2,70,0,0
46129,-50,4,2,1,70,0,0
46445,347.523892267593,4,2,1,60,1,0
46792,375.234521575985,4,2,1,60,1,0
47167,380.976569940949,4,2,1,60,1,0
47547,381.995288724772,4,2,1,60,1,0
47928,382.165605095541,4,2,2,70,1,0
47928,-62.5,4,2,2,70,0,0
57099,376.789751318764,4,2,2,70,1,0
57475,366.636113657195,4,2,2,70,1,0
57841,357.121599904768,4,2,2,70,1,0
58198,348.432055749129,4,2,2,70,1,0
58546,340.290381125227,4,2,1,70,1,0
58886,332.631112096685,4,2,1,70,1,0
59218,325.662179765523,4,2,1,70,1,0
59543,318.979266347687,4,2,1,70,1,0
59867,315.789473684211,4,2,3,70,1,0
60024,-100,4,2,2,70,0,0
60498,-250,4,2,1,80,0,0
60972,-250,4,2,2,80,0,0
61130,-250,4,2,2,80,0,0
61761,-250,4,2,1,80,0,0
62708,-250,4,2,2,80,0,0
63024,-250,4,2,1,80,0,0
63497,-250,4,2,2,80,0,0
64288,-250,4,2,1,80,0,0
65077,-250,4,2,2,80,0,0
65709,-250,4,2,2,80,0,0
67445,-100,4,2,1,80,0,0
68709,-62.5,4,2,1,80,0,0
69972,476.190476190476,4,2,1,60,1,0
69972,-50,4,2,1,60,0,0
70448,-50,4,2,2,60,0,0
70567,-50,4,2,1,60,0,0
71400,-50,4,2,2,60,0,0
71519,-50,4,2,1,60,0,0
71876,-50,4,2,2,60,0,0
71995,-50,4,2,1,60,0,0
72114,-50,4,2,4,60,0,0
72233,-50,4,2,1,60,0,0
72590,-50,4,2,4,60,0,0
72709,-50,4,2,1,60,0,0
72829,-50,4,2,2,60,0,0
72948,-50,4,2,1,60,0,0
73067,-50,4,2,1,60,0,0
73305,-50,4,2,2,60,0,0
73424,-50,4,2,1,60,0,0
73543,-50,4,2,4,60,0,0
73662,-50,4,2,1,60,0,0
74257,-50,4,2,2,60,0,0
74376,-50,4,2,1,60,0,0
74733,-50,4,2,2,60,0,0
74852,-50,4,2,1,60,0,0
75210,-50,4,2,2,60,0,0
75329,-50,4,2,1,60,0,0
75448,-50,4,2,1,60,0,0
75686,-50,4,2,2,60,0,0
75805,-50,4,2,1,60,0,0
75924,-50,4,2,1,60,0,0
76162,-50,4,2,2,60,0,0
76281,-50,4,2,1,60,0,0
76400,-50,4,2,1,60,0,0
76638,-50,4,2,2,60,0,0
76757,-50,4,2,1,60,0,0
76876,-50,4,2,1,60,0,0
77114,-50,4,2,2,60,0,0
77233,-50,4,2,1,60,0,0
77352,-50,4,2,1,60,0,0
77829,-50,4,2,4,60,0,0
77948,-50,4,2,1,60,0,0
78067,-50,4,2,2,60,0,0
78186,-50,4,2,1,60,0,0
78543,-50,4,2,2,60,0,0
78662,-50,4,2,1,60,0,0
78781,-50,4,2,1,60,0,0
79019,-50,4,2,2,60,0,0
79138,-50,4,2,1,60,0,0
79257,-50,4,2,4,60,0,0
79376,-50,4,2,1,60,0,0
79495,-50,4,2,2,60,0,0
79614,-50,4,2,1,60,0,0
79733,-50,4,2,1,60,0,0
79972,-50,4,2,2,60,0,0
80091,-50,4,2,1,60,0,0
80330,-50,4,2,4,60,0,0
80449,-50,4,2,1,60,0,0
80686,-50,4,2,4,60,0,0
80805,-50,4,2,1,60,0,0
80924,-50,4,2,2,60,0,0
81043,-50,4,2,1,60,0,0
81281,-50,4,2,1,60,0,0
81400,-50,4,2,2,60,0,0
81519,-50,4,2,1,60,0,0
81638,-50,4,2,1,60,0,0
81876,-50,4,2,2,60,0,0
81995,-50,4,2,1,60,0,0
82352,-50,4,2,2,60,0,0
82471,-50,4,2,1,60,0,0
82829,-50,4,2,2,60,0,0
82948,-50,4,2,1,60,0,0
83067,-50,4,2,4,60,0,0
83186,-50,4,2,1,60,0,0
83305,-50,4,2,2,60,0,0
83424,-50,4,2,1,60,0,0
83662,-50,4,2,4,60,0,0
83781,-50,4,2,1,60,0,0
84019,-50,4,2,4,60,0,0
84138,-50,4,2,1,60,0,0
84257,-50,4,2,2,60,0,0
84376,-50,4,2,1,60,0,0
84733,-50,4,2,2,60,0,0
84852,-50,4,2,1,60,0,0
84972,-50,4,2,1,60,0,0
85210,475.473492352801,4,2,2,65,1,0
85328,-100,4,2,1,65,0,0
85447,-100,4,2,4,65,0,0
85566,-50,4,2,4,65,0,0
85684,-50,4,2,1,65,0,0
85685,474.008532153579,4,2,1,65,1,0
85803,-100,4,2,4,65,0,0
85922,-50,4,2,4,65,0,0
86040,-50,4,2,1,65,0,0
86159,472.403747736399,4,2,2,65,1,0
86277,-50,4,2,4,65,0,0
86395,-50,4,2,1,65,0,0
86513,-50,4,2,4,65,0,0
86631,470.735917150479,4,2,2,65,1,0
86631,-50,4,2,2,65,0,0
86748,-50,4,2,1,65,0,0
86866,-50,4,2,4,65,0,0
87101,469.006487923083,4,2,1,65,1,0
87336,-50,4,2,4,65,0,0
87452,-50,4,2,1,65,0,0
87570,467.398924982473,4,2,2,65,1,0
87570,-50,4,2,2,65,0,0
87686,-50,4,2,1,65,0,0
87803,-50,4,2,4,65,0,0
87920,-50,4,2,1,65,0,0
88037,465.368804777786,4,2,2,65,1,0
88153,-50,4,2,4,65,0,0
88269,-50,4,2,1,65,0,0
88386,-50,4,2,4,65,0,0
88502,463.427821116861,4,2,2,65,1,0
88502,-50,4,2,2,65,0,0
88617,-50,4,2,1,65,0,0
88733,-50,4,2,4,65,0,0
88965,461.39649338665,4,2,1,65,1,0
88965,-50,4,2,1,65,0,0
89080,-50,4,2,4,65,0,0
89195,-50,4,2,4,65,0,0
89311,-50,4,2,1,65,0,0
89426,459.277403551745,4,2,2,65,1,0
89540,-50,4,2,4,65,0,0
89654,-50,4,2,1,65,0,0
89770,-50,4,2,4,65,0,0
89885,457.073207892131,4,2,2,65,1,0
89885,-50,4,2,2,65,0,0
89999,-50,4,2,1,65,0,0
90113,-50,4,2,4,65,0,0
90341,-50,4,2,1,65,0,0
90342,454.75216007276,4,2,1,65,1,0
90455,-100,4,2,4,65,0,0
90569,-50,4,2,4,65,0,0
90682,-50,4,2,1,65,0,0
90796,452.318130418394,4,2,2,65,1,0
90910,-50,4,2,4,65,0,0
91022,-50,4,2,1,65,0,0
91135,-50,4,2,4,65,0,0
91248,449.80883124672,4,2,2,65,1,0
91360,-100,4,2,1,65,0,0
91472,-100,4,2,4,65,0,0
91697,447.260529258293,4,2,2,65,1,0
91808,-100,4,2,1,65,0,0
92144,444.411525072217,4,2,2,65,1,0
92366,-50,4,2,1,65,0,0
92588,441.728631377457,4,2,1,70,1,0
92588,-41.6666666666667,4,2,1,70,0,0
93029,438.692695766615,4,2,1,70,1,0
93029,-41.6666666666667,4,2,1,70,0,0
93467,435.666569851873,4,2,1,70,1,0
93467,-41.6666666666667,4,2,1,70,0,0
93902,432.463600980251,4,2,1,70,1,0
93902,-41.6666666666667,4,2,1,70,0,0
94326,429.123158346445,4,2,1,70,1,0
94326,-41.6666666666667,4,2,1,70,0,0
94761,425.803704492229,4,2,1,70,1,0
94761,-41.6666666666667,4,2,1,70,0,0
95188,422.237860661506,4,2,1,70,1,0
95188,-41.6666666666667,4,2,1,70,0,0
95606,418.526785714286,4,2,1,70,1,0
95606,-41.6666666666667,4,2,1,70,0,0
96014,414.708321813658,4,2,1,80,1,0
96430,410.874477847018,4,2,1,80,1,0
96852,406.752084604434,4,2,1,80,1,0
97258,402.576489533011,4,2,1,80,1,0
97660,398.327026488747,4,2,1,80,1,0
97660,-41.6666666666667,4,2,1,80,0,0
98058,393.80414807036,4,2,1,80,1,0
98058,-41.6666666666667,4,2,1,80,0,0
98451,389.307033480405,4,2,1,80,1,0
98451,-41.6666666666667,4,2,1,80,0,0
98846,384.566081271632,4,2,1,80,1,0
98846,-41.6666666666667,4,2,1,80,0,0
99234,381.460995613199,4,2,1,70,1,0
99424,-100,4,2,2,70,0,0
99615,379.963270217212,4,2,2,70,1,0
99994,378.000378000378,4,2,2,70,1,0
100183,-76.9230769230769,4,2,2,70,0,0
100372,375.869197519263,4,2,2,70,1,0
100747,373.296833198532,4,2,2,70,1,0
100933,-62.5,4,2,2,70,0,0
101120,370.30179596371,4,2,2,70,1,0
101492,366.748166259169,4,2,2,70,1,0
101675,-50,4,2,2,70,0,0
101858,362.625407953584,4,2,2,70,1,0
102220,357.867112012406,4,2,2,80,1,0
102577,352.29874933944,4,2,2,80,1,0
102929,345.901072293324,4,2,2,80,1,0
103274,338.619560923303,4,2,2,80,1,0
103612,330.305532617671,4,2,2,80,1,0
103942,320.958596341072,4,2,2,80,1,0
104262,315.789473684211,4,2,2,80,1,0
104893,315.789473684211,4,2,1,80,1,0
104893,-38.4615384615385,4,2,1,80,0,0
105050,-38.4615384615385,4,2,2,80,0,0
105366,-38.4615384615385,4,2,1,80,0,0
105523,-38.4615384615385,4,2,2,80,0,0
105840,-62.5,4,2,1,80,0,0
105998,-62.5,4,2,2,80,0,0
106156,-38.4615384615385,4,2,1,80,0,0
106314,-38.4615384615385,4,2,2,80,0,0
106629,-38.4615384615385,4,2,1,80,0,0
106787,-38.4615384615385,4,2,2,80,0,0
107103,-62.5,4,2,1,80,0,0
107261,-62.5,4,2,2,80,0,0
107419,-62.5,4,2,1,80,0,0
107497,-62.5,4,2,2,80,0,0
107893,-62.5,4,2,1,80,0,0
107971,-62.5,4,2,2,80,0,0
108366,-62.5,4,2,1,80,0,0
108524,-62.5,4,2,2,80,0,0
108682,-38.4615384615385,4,2,1,80,0,0
108840,-38.4615384615385,4,2,2,80,0,0
109156,-50,4,2,1,80,0,0
109313,-50,4,2,2,80,0,0
109629,-50,4,2,1,80,0,0
109787,-50,4,2,2,80,0,0
109945,-50,4,2,1,80,0,0
110577,-50,4,2,2,80,0,0
111208,-50,4,2,1,80,0,0
111840,-50,4,2,2,80,0,0
112156,-50,4,2,2,80,0,0
114998,-50,4,2,1,90,0,0
116419,-50,4,2,2,90,0,0
117524,-50,4,2,1,90,0,0
118945,-50,4,2,2,90,0,0
120050,-50,4,2,1,90,0,0
121471,-50,4,2,2,90,0,0
121787,-50,4,2,2,90,0,0
122577,-50,4,2,1,90,0,0
125103,-62.5,4,2,1,75,0,0
126998,-62.5,4,2,2,75,0,0
127629,-62.5,4,2,1,75,0,0
129524,-62.5,4,2,2,75,0,0
130156,-62.5,4,2,1,75,0,0
132050,-62.5,4,2,2,75,0,0
135208,-62.5,4,2,1,75,0,0
137103,-62.5,4,2,2,75,0,0
137735,-62.5,4,2,1,75,0,0
139629,-62.5,4,2,2,75,0,0
140261,-62.5,4,2,1,75,0,0
142156,-62.5,4,2,2,75,0,0
142787,-62.5,4,2,1,75,0,0
145313,-62.5,4,2,2,75,0,0

[Colours]
Combo1 : 18,124,255
Combo2 : 24,185,255
Combo3 : 223,223,223
Combo4 : 135,135,135
Combo5 : 205,255,98
Combo6 : 76,255,48
Combo7 : 255,67,246
Combo8 : 255,50,120

[HitObjects]
95,64,2009,22,0,L|114:140,1,69.9999999999999,2|0,3:2|0:0,0:0:0:0:
111,131,2309,1,2,2:2:0:0:
111,131,2409,1,2,3:2:0:0:
159,15,2609,1,2,2:2:0:0:
241,127,2809,6,0,L|222:51,1,69.9999999999999,2|0,3:2|0:0,0:0:0:0:
224,59,3109,1,2,2:2:0:0:
224,59,3209,1,2,3:2:0:0:
177,176,3409,1,2,2:2:0:0:
308,231,3609,102,0,P|291:270|286:309,1,70,2|0,3:2|0:0,0:0:0:0:
286,296,3909,1,2,2:2:0:0:
286,296,4009,1,2,3:2:0:0:
174,384,4209,1,2,2:2:0:0:
215,319,4409,6,0,L|200:263,1,35,2|0,3:2|0:0,0:0:0:0:
142,241,4609,2,0,L|153:192,4,35,0|2|2|2|2,0:0|2:2|3:2|2:2|2:2,0:0:0:0:
10,355,5209,102,0,P|43:341|76:330,1,70,2|0,3:2|0:0,0:0:0:0:
76,330,5509,1,2,2:2:0:0:
76,330,5609,1,2,3:2:0:0:
221,376,5809,1,2,2:2:0:0:
131,269,6009,6,0,P|163:282|196:293,1,70,2|0,3:2|0:0,0:0:0:0:
196,293,6309,1,2,2:2:0:0:
196,293,6409,1,2,3:2:0:0:
341,248,6609,1,2,2:2:0:0:
468,317,6809,102,0,L|366:302,1,70,2|0,3:2|0:0,0:0:0:0:
398,306,7109,1,2,2:2:0:0:
398,306,7209,1,2,3:2:0:0:
298,378,7409,1,2,2:2:0:0:
271,172,7609,6,0,L|261:230,1,35,2|0,3:2|0:0,0:0:0:0:
316,269,7809,2,0,L|330:324,4,35,0|2|2|2|2,0:0|2:2|3:2|2:2|2:2,0:0:0:0:
427,198,8409,102,0,P|433:156|452:104,1,70,2|0,3:2|0:0,0:0:0:0:
440,129,8709,1,2,2:2:0:0:
440,129,8809,1,2,3:2:0:0:
485,255,9009,1,2,2:2:0:0:
356,232,9209,6,0,P|350:274|331:326,1,70,2|0,3:2|0:0,0:0:0:0:
342,300,9509,1,2,2:2:0:0:
342,300,9609,1,2,3:2:0:0:
298,175,9809,1,2,2:2:0:0:
387,19,10009,102,0,L|476:5,1,70,2|0,3:2|0:0,0:0:0:0:
456,8,10309,1,2,2:2:0:0:
456,8,10409,1,2,3:2:0:0:
506,159,10609,1,2,2:2:0:0:
336,75,10809,6,0,L|273:64,1,35,2|0,3:2|0:0,0:0:0:0:
241,122,11009,1,0,0:0:0:0:
209,107,11109,1,2,2:2:0:0:
174,107,11209,1,2,3:2:0:0:
142,121,11309,1,2,2:2:0:0:
118,146,11409,2,0,L|112:176,2,17.5,2|0|0,2:2|0:0|0:0,0:0:0:0:
26,30,11609,102,0,P|40:79|48:118,1,70,2|0,3:2|0:0,0:0:0:0:
44,97,11909,1,2,2:2:0:0:
44,97,12009,1,2,3:2:0:0:
248,152,12209,1,2,2:2:0:0:
102,165,12409,6,0,P|88:214|80:253,1,70,2|0,3:2|0:0,0:0:0:0:
84,232,12709,1,2,2:2:0:0:
84,232,12809,1,2,3:2:0:0:
142,379,13009,1,2,2:2:0:0:
251,316,13209,102,0,P|207:304|129:297,1,105,2|2,3:2|2:2,0:0:0:0:
308,264,13609,2,0,P|352:276|430:283,1,105,2|0,3:2|0:0,0:0:0:0:
410,282,14009,1,2,3:2:0:0:
256,32,14309,5,0,3:3:0:0:
256,32,14409,2,0,L|265:89,1,35,2|0,3:2|0:0,0:0:0:0:
195,108,14609,2,0,L|186:165,1,35,2|0,3:2|0:0,0:0:0:0:
173,218,14809,101,2,3:2:0:0:
334,281,14999,2,0,L|402:264,1,41.9999987182618,0|2,0:0|2:2,0:0:0:0:
228,276,15190,2,0,P|244:321|250:373,1,83.9999974365235,2|2,3:2|2:2,0:0:0:0:
283,217,15570,6,0,L|295:117,1,83.9999974365235,2|0,3:2|0:0,0:0:0:0:
304,58,15855,1,2,2:2:0:0:
304,58,15950,1,2,3:2:0:0:
162,127,16139,1,2,2:2:0:0:
184,0,16329,102,0,P|209:38|228:94,1,83.9999974365235,2|0,3:2|0:0,0:0:0:0:
240,153,16613,1,2,2:2:0:0:
240,153,16708,1,2,3:2:0:0:
59,63,16897,1,2,2:2:0:0:
9,208,17086,6,0,L|67:193,1,41.9999987182618,2|0,3:2|0:0,0:0:0:0:
98,134,17274,1,0,0:0:0:0:
128,129,17368,1,2,2:2:0:0:
158,139,17462,1,2,3:2:0:0:
181,160,17557,1,2,2:2:0:0:
193,189,17651,1,2,2:2:0:0:
326,261,17840,102,0,L|337:158,1,83.9999974365235,2|0,3:2|0:0,0:0:0:0:
344,99,18122,1,2,2:2:0:0:
344,99,18216,1,2,3:2:0:0:
230,243,18403,1,2,2:2:0:0:
409,214,18591,6,0,L|400:312,1,83.9999974365235,2|0,3:2|0:0,0:0:0:0:
394,381,18871,1,2,2:2:0:0:
394,381,18965,1,2,3:2:0:0:
491,294,19151,1,2,2:2:0:0:
318,340,19338,102,0,P|267:318|208:315,1,83.9999974365235,2|0,3:2|0:0,0:0:0:0:
163,343,19617,1,2,2:2:0:0:
163,343,19710,1,2,3:2:0:0:
140,143,19895,1,2,2:2:0:0:
170,260,20080,6,0,L|185:202,1,41.9999987182618,2|0,3:2|0:0,0:0:0:0:
80,89,20264,1,0,0:0:0:0:
49,95,20356,1,2,2:2:0:0:
25,115,20448,1,2,3:2:0:0:
13,144,20540,1,2,2:2:0:0:
16,175,20632,1,2,2:2:0:0:
87,215,20815,101,0,3:3:0:0:
62,316,20997,1,0,3:3:0:0:
137,281,21179,5,0,3:3:0:0:
259,365,21360,1,0,3:3:0:0:
217,293,21541,101,0,3:3:0:0:
408,299,21720,1,0,3:3:0:0:
293,261,21900,5,0,3:3:0:0:
475,138,22078,1,0,3:3:0:0:
406,85,22257,101,0,3:3:0:0:
358,366,22433,2,0,L|274:350,1,56,0|0,3:3|0:0,0:0:0:0:
293,261,22610,5,0,3:3:0:0:
146,357,22785,2,0,L|101:291,1,56,0|0,3:3|0:0,0:0:0:0:
212,241,22960,101,0,3:3:0:0:
46,272,23133,2,0,L|61:209,1,56,0|0,3:3|0:0,0:0:0:0:
141,200,23306,5,0,3:3:0:0:
24,150,23476,2,0,L|75:109,1,56,0|0,3:3|0:0,0:0:0:0:
81,39,23647,101,0,3:3:0:0:
122,23,23731,1,0,3:3:0:0:
166,31,23815,1,0,3:3:0:0:
199,61,23899,1,0,3:3:0:0:
213,103,23983,5,0,3:3:0:0:
205,152,24065,1,0,0:0:0:0:
224,198,24148,1,0,3:3:0:0:
263,228,24231,1,0,3:3:0:0:
313,234,24314,101,0,3:3:0:0:
370,213,24395,1,0,0:0:0:0:
403,163,24476,1,0,3:3:0:0:
400,102,24558,1,0,3:3:0:0:
360,56,24639,5,0,3:3:0:0:
292,36,24718,1,0,0:0:0:0:
225,61,24798,1,0,3:3:0:0:
186,122,24878,1,0,3:3:0:0:
192,193,24972,86,0,L|421:229,1,210
399,225,25603,2,0,B|413:154|332:93|247:147|247:224|281:261|281:261|321:304|284:370|212:361|187:310|203:272,1,490,4|0,2:2|0:0,0:0:0:0:
203,271,26235,6,0,L|110:247,1,70,0|0,3:3|0:0,0:0:0:0:
494,343,26393,5,2,2:2:0:0:
496,337,26550,1,2,2:2:0:0:
492,337,26708,1,2,2:2:0:0:
497,342,26865,1,2,2:2:0:0:
498,339,27024,1,2,2:2:0:0:
491,340,27181,1,2,2:2:0:0:
240,351,27340,102,0,L|251:395,2,35,2|2|2,2:2|2:2|2:2,0:0:0:0:
226,354,27498,22,0,B|246:117,1,210,4|0,3:2|0:0,0:0:0:0:
190,85,27814,2,0,L|93:107,1,70,8|0,2:2|0:0,0:0:0:0:
302,5,27972,2,0,L|422:30,1,70,2|0,2:2|0:0,0:0:0:0:
201,276,28129,6,0,P|99:263|98:149,1,210,0|0,3:3|0:0,0:0:0:0:
83,171,28445,1,10,2:2:0:0:
331,256,28603,2,0,L|344:296,2,35,2|0|0,2:2|0:0|0:0,0:0:0:0:
268,151,28761,101,2,3:2:0:0:
265,168,28839,1,2,2:2:0:0:
263,185,28918,1,2,2:2:0:0:
261,203,28997,1,2,2:2:0:0:
259,220,29076,1,10,2:2:0:0:
433,262,29235,1,2,2:2:0:0:
335,82,29393,6,0,L|365:223,1,140,2|0,3:2|0:0,0:0:0:0:
498,135,29708,1,10,2:2:0:0:
273,34,29866,1,2,2:2:0:0:
512,6,30024,102,0,P|436:5|395:159,1,210,4|0,3:2|0:0,0:0:0:0:
427,170,30340,2,0,L|415:256,1,70,8|0,2:2|0:0,0:0:0:0:
231,328,30498,2,0,L|219:242,1,70,2|0,2:2|0:0,0:0:0:0:
213,180,30656,5,0,3:3:0:0:
363,320,30814,1,2,2:2:0:0:
304,376,30972,1,10,2:2:0:0:
304,376,31129,1,2,2:2:0:0:
486,107,31287,102,0,P|398:112|348:157,1,140,0|2,3:3|2:2,0:0:0:0:
358,142,31524,1,2,2:2:0:0:
358,142,31603,1,10,2:2:0:0:
258,307,31761,5,2,2:2:0:0:
258,307,31840,1,2,2:2:0:0:
258,307,31919,2,0,P|166:310|88:171,1,210,2|0,3:2|0:0,0:0:0:0:
90,228,32235,1,8,2:2:0:0:
129,52,32393,1,8,2:2:0:0:
7,279,32550,102,0,L|234:229,1,210,4|0,3:2|0:0,0:0:0:0:
273,343,32866,2,0,L|285:256,1,70,8|0,2:2|0:0,0:0:0:0:
373,132,33024,2,0,L|361:45,1,70,2|0,2:2|0:0,0:0:0:0:
249,169,33182,5,0,3:3:0:0:
249,169,33340,1,2,2:2:0:0:
288,27,33498,1,10,2:2:0:0:
159,107,33656,1,2,2:2:0:0:
209,41,33814,101,2,3:2:0:0:
243,47,33892,1,2,2:2:0:0:
277,53,33971,1,2,2:2:0:0:
312,59,34050,1,2,2:2:0:0:
346,66,34129,2,0,P|356:162|226:207,1,210,10|0,2:2|0:0,0:0:0:0:
213,155,34445,6,0,L|227:66,1,70,2|0,3:2|0:0,0:0:0:0:
136,185,34603,2,0,L|122:274,1,70
269,217,34761,102,0,L|283:306,1,70,10|0,2:2|0:0,0:0:0:0:
80,123,34919,2,0,L|66:34,1,70,2|0,2:2|0:0,0:0:0:0:
16,364,35077,6,0,P|149:352|203:259,1,210,4|0,3:2|0:0,0:0:0:0:
189,219,35393,2,0,L|113:204,1,70,8|0,2:2|0:0,0:0:0:0:
330,327,35550,2,0,L|234:349,1,70
179,361,35708,101,0,3:3:0:0:
342,249,35866,1,2,2:2:0:0:
410,349,36024,1,10,2:2:0:0:
410,349,36182,1,2,2:2:0:0:
463,169,36340,6,0,P|475:96|441:32,1,140,0|2,3:3|2:2,0:0:0:0:
447,38,36577,1,2,2:2:0:0:
447,38,36656,1,10,2:2:0:0:
222,115,36814,101,2,2:2:0:0:
222,115,36893,1,2,2:2:0:0:
222,115,36972,2,0,P|204:202|255:318,1,210,2|0,3:2|0:0,0:0:0:0:
248,311,37287,1,10,2:2:0:0:
274,50,37445,1,10,2:2:0:0:
341,334,37603,6,0,P|262:290|93:315,1,210,4|0,3:2|0:0,0:0:0:0:
90,384,37919,2,0,L|68:298,1,70,8|0,2:2|0:0,0:0:0:0:
84,149,38077,2,0,L|62:235,1,70,2|0,2:2|0:0,0:0:0:0:
47,300,38235,102,0,L|275:329,1,210,0|0,3:3|0:0,0:0:0:0:
255,326,38550,1,10,2:2:0:0:
335,131,38708,2,0,L|382:121,2,35,2|0|0,2:2|0:0|0:0,0:0:0:0:
420,181,38866,5,2,3:2:0:0:
436,173,38944,1,2,2:2:0:0:
449,162,39023,1,2,2:2:0:0:
459,147,39102,1,2,2:2:0:0:
464,130,39181,1,10,2:2:0:0:
346,36,39340,1,2,2:2:0:0:
263,238,39498,102,0,L|114:208,1,140,2|0,3:2|0:0,0:0:0:0:
296,306,39814,1,10,2:2:0:0:
254,83,39972,1,2,2:2:0:0:
226,263,40129,6,0,P|284:197|414:220,1,210,4|0,3:2|0:0,0:0:0:0:
448,275,40445,2,0,L|352:301,1,70,8|0,2:2|0:0,0:0:0:0:
512,132,40603,2,0,L|416:106,1,70,2|0,2:2|0:0,0:0:0:0:
370,89,40761,101,0,3:3:0:0:
475,201,40919,1,2,2:2:0:0:
383,323,41077,1,10,2:2:0:0:
383,323,41235,1,2,2:2:0:0:
314,145,41393,6,0,L|167:176,1,140,0|2,3:3|2:2,0:0:0:0:
177,173,41629,1,2,2:2:0:0:
177,173,41708,1,10,2:2:0:0:
11,19,41866,101,2,2:2:0:0:
11,19,41945,1,2,2:2:0:0:
11,19,42024,2,0,P|106:12|199:109,1,210,2|0,3:2|0:0,0:0:0:0:
189,82,42340,1,8,2:2:0:0:
156,318,42498,1,8,2:2:0:0:
129,42,42656,6,0,L|192:248,1,210,4|0,3:2|0:0,0:0:0:0:
265,262,42972,2,0,L|356:288,1,70,8|0,2:2|0:0,0:0:0:0:
68,350,43129,2,0,L|-23:376,1,70,2|0,2:2|0:0,0:0:0:0:
148,361,43287,101,0,3:3:0:0:
148,361,43445,1,2,2:2:0:0:
173,152,43603,1,10,2:2:0:0:
107,273,43761,1,2,2:2:0:0:
219,318,43919,5,2,3:2:0:0:
245,295,43997,1,2,2:2:0:0:
260,264,44076,1,2,2:2:0:0:
260,229,44155,1,2,2:2:0:0:
245,197,44235,2,0,L|11:166,1,210,10|0,2:2|0:0,0:0:0:0:
125,101,44550,102,0,L|140:185,1,70,2|0,3:2|0:0,0:0:0:0:
335,136,44708,2,0,L|320:52,1,70
214,152,44866,6,0,L|229:236,1,70,10|0,2:2|0:0,0:0:0:0:
424,187,45024,2,0,L|409:103,1,70,2|0,2:2|0:0,0:0:0:0:
245,295,45182,102,0,P|321:353|456:314,1,210,4|0,3:2|0:0,0:0:0:0:
512,285,45498,2,0,L|440:261,1,70,8|0,2:2|0:0,0:0:0:0:
356,65,45656,2,0,L|284:89,1,70,2|0,2:2|0:0,0:0:0:0:
219,120,45814,5,0,3:3:0:0:
149,278,45972,1,2,2:2:0:0:
74,240,46129,1,10,2:2:0:0:
74,240,46287,1,2,2:2:0:0:
23,306,46445,101,4,3:2:0:0:
23,306,46618,2,0,L|40:354,1,35,8|0,2:2|0:0,0:0:0:0:
108,367,46792,5,4,3:2:0:0:
187,352,46979,1,0,3:3:0:0:
250,289,47167,101,8,2:2:0:0:
254,171,47357,1,4,3:2:0:0:
166,81,47547,5,8,2:2:0:0:
166,81,47928,6,0,P|210:163|226:266,1,168,4|0,3:2|0:0,0:0:0:0:
228,134,48310,2,0,P|249:224|238:328,1,168,12|0,2:2|0:0,0:0:0:0:
412,384,48692,6,0,P|368:302|352:199,1,168,4|0,3:2|0:0,0:0:0:0:
350,331,49074,2,0,P|328:240|339:136,1,168,12|0,2:2|0:0,0:0:0:0:
431,138,49456,102,0,P|463:78|369:56,1,168,4|0,3:2|0:0,0:0:0:0:
389,40,49838,2,0,L|428:116,1,56,12|0,2:2|0:0,0:0:0:0:
339,110,50029,2,0,L|356:193,1,56,4|0,3:2|0:0,0:0:0:0:
271,164,50220,2,0,L|266:248,1,56,4|0,3:2|0:0,0:0:0:0:
210,104,50412,2,0,L|183:184,1,56,4|0,3:2|0:0,0:0:0:0:
166,30,50603,2,0,L|119:100,1,56,12|0,2:2|0:0,0:0:0:0:
122,73,50985,6,0,P|115:162|172:243,1,168,4|0,3:2|0:0,0:0:0:0:
136,155,51367,2,0,P|193:222|291:239,1,168,12|0,2:2|0:0,0:0:0:0:
460,179,51749,102,0,P|467:90|410:9,1,168,4|0,3:2|0:0,0:0:0:0:
446,97,52131,2,0,P|388:29|290:12,1,168,12|0,2:2|0:0,0:0:0:0:
259,65,52513,6,0,B|281:176|306:102|328:236,1,168,4|0,3:2|0:0,0:0:0:0:
310,373,52896,101,12,2:2:0:0:
366,290,52991,1,0,3:3:0:0:
266,281,53087,2,0,L|201:271,1,56,0|0,3:3|0:0,0:0:0:0:
175,344,53278,6,0,L|43:369,1,112,4|4,3:2|3:2,0:0:0:0:
0,304,53564,1,0,0:0:0:0:
59,244,53660,2,0,L|154:262,1,56,12|0,2:2|0:0,0:0:0:0:
231,190,53851,2,0,L|136:208,1,56,4|0,3:2|0:0,0:0:0:0:
309,367,54042,102,0,P|306:294|364:195,1,168,4|0,3:2|0:0,0:0:0:0:
284,258,54424,2,0,P|333:204|444:175,1,168,12|0,2:2|0:0,0:0:0:0:
218,14,54806,6,0,P|221:87|163:186,1,168,4|0,3:2|0:0,0:0:0:0:
243,123,55188,2,0,P|193:176|82:205,1,168,12|0,2:2|0:0,0:0:0:0:
34,246,55571,102,0,B|24:201|-17:179|-17:179|30:175|55:146,1,168,4|0,3:2|0:0,0:0:0:0:
54,146,55953,2,0,L|36:71,1,56,12|0,2:2|0:0,0:0:0:0:
130,177,56144,2,0,L|131:99,1,56,4|0,3:2|0:0,0:0:0:0:
194,225,56335,2,0,L|215:150,1,56,4|0,3:2|0:0,0:0:0:0:
243,289,56526,2,0,L|283:222,1,56,4|0,3:2|0:0,0:0:0:0:
274,363,56717,2,0,L|329:308,1,56,12|0,2:2|0:0,0:0:0:0:
323,328,57099,6,0,L|329:299,8,17.5,4|0|0|0|0|0|0|0|0,3:2|0:0|0:0|0:0|0:0|0:0|0:0|0:0|0:0,0:0:0:0:
240,38,58546,37,2,2:2:0:0:
267,111,58716,1,2,2:2:0:0:
210,165,58886,5,2,2:2:0:0:
189,278,59052,1,2,2:2:0:0:
324,317,59218,102,0,L|386:300,1,35,2|0,3:2|0:0,0:0:0:0:
168,360,59380,2,0,L|106:377,1,35,2|0,3:2|0:0,0:0:0:0:
99,301,59543,6,0,L|48:294,1,35,2|0,3:2|0:0,0:0:0:0:
412,361,59702,2,0,L|463:368,1,35,2|0,3:2|0:0,0:0:0:0:
254,378,59867,5,6,3:2:0:0:
306,113,60024,1,2,2:2:0:0:
252,173,60182,1,2,2:2:0:0:
252,173,60340,1,2,2:2:0:0:
207,24,60498,6,0,L|107:9,1,98,10|0,2:2|0:0,0:0:0:0:
110,9,61130,101,2,3:2:0:0:
16,192,61288,1,2,2:2:0:0:
101,218,61445,1,2,2:2:0:0:
101,218,61603,1,2,2:2:0:0:
143,147,61761,5,10,2:2:0:0:
309,261,61919,1,2,2:2:0:0:
401,83,62077,1,2,2:2:0:0:
387,98,62393,102,0,L|322:84,1,56,4|2,3:2|2:2,0:0:0:0:
405,175,62867,1,2,2:2:0:0:
181,350,63024,2,0,L|93:363,1,84,10|2,2:2|2:2,0:0:0:0:
97,362,63656,5,2,3:2:0:0:
269,375,63814,1,2,2:2:0:0:
251,293,63972,1,2,2:2:0:0:
251,293,64130,1,2,2:2:0:0:
320,246,64288,101,10,2:2:0:0:
261,57,64445,1,2,2:2:0:0:
102,180,64603,1,2,2:2:0:0:
102,180,64919,6,0,L|46:170,2,56,0|0|8,3:3|0:0|2:2,0:0:0:0:
161,237,65709,1,2,2:2:0:0:
232,156,65867,1,0,0:0:0:0:
313,216,66024,1,2,2:2:0:0:
236,312,66182,102,0,L|244:264,1,42,0|0,3:3|0:0,0:0:0:0:
276,72,66498,2,0,L|268:120,1,42
136,172,66814,2,0,L|184:180,1,42,8|0,2:2|0:0,0:0:0:0:
376,212,67130,2,0,L|328:204,1,42
280,265,67445,6,0,L|160:283,1,105,2|0,3:2|0:0,0:0:0:0:
99,299,67761,101,8,2:2:0:0:
315,346,67919,1,2,3:2:0:0:
315,346,68077,1,0,3:3:0:0:
334,205,68235,5,8,2:2:0:0:
375,283,68393,1,2,3:2:0:0:
375,283,68551,1,0,3:3:0:0:
211,374,68709,102,0,P|187:315|221:230,1,112,8|2,2:2|3:2,0:0:0:0:
194,268,68945,1,0,3:3:0:0:
194,268,69024,1,0,3:3:0:0:
231,27,69182,5,8,2:2:0:0:
258,217,69340,2,0,L|273:138,1,56,2|0,3:2|0:0,0:0:0:0:
218,41,69498,102,0,L|238:118,1,56,0|0,3:3|0:0,0:0:0:0:
289,331,69656,1,10,2:2:0:0:
36,131,69972,70,0,P|81:134|166:200,1,140,4|2,3:2|2:2,0:0:0:0:
144,269,70329,1,2,2:2:0:0:
223,297,70448,2,0,P|266:284|319:281,1,70,2|2,3:2|2:2,0:0:0:0:
444,364,70686,101,2,2:2:0:0:
386,303,70805,1,2,2:2:0:0:
453,253,70924,2,0,P|487:259|542:253,1,70,0|2,3:3|2:2,0:0:0:0:
393,188,71162,5,2,2:2:0:0:
470,108,71281,1,2,2:2:0:0:
396,23,71400,2,0,P|362:17|307:23,1,70,2|2,3:2|2:2,0:0:0:0:
230,82,71638,101,2,2:2:0:0:
251,94,71757,1,2,2:2:0:0:
264,73,71876,2,0,P|249:25|246:-14,1,70,2|2,3:2|2:2,0:0:0:0:
198,157,72114,2,0,P|213:205|216:244,1,70,2|2,2:2|2:2,0:0:0:0:
399,228,72352,5,0,3:3:0:0:
335,264,72471,1,2,2:2:0:0:
295,200,72590,2,0,P|312:169|309:108,1,70,2|2,2:2|2:2,0:0:0:0:
143,78,72829,2,0,P|125:108|128:169,1,70,2|0,3:2|0:0,0:0:0:0:
37,210,73067,101,2,2:2:0:0:
61,194,73186,1,2,2:2:0:0:
83,214,73305,2,0,P|90:241|94:304,1,70,2|2,3:2|2:2,0:0:0:0:
166,313,73543,2,0,L|158:388,2,70,2|2|0,2:2|2:2|3:3,0:0:0:0:
197,29,74019,5,2,2:2:0:0:
197,29,74138,1,2,2:2:0:0:
263,73,74257,2,0,L|353:59,1,70,2|2,3:2|2:2,0:0:0:0:
385,128,74495,101,2,2:2:0:0:
385,128,74614,1,2,2:2:0:0:
283,203,74733,2,0,L|193:189,1,70,2|2,3:2|2:2,0:0:0:0:
52,157,74972,5,2,2:2:0:0:
52,157,75091,1,2,2:2:0:0:
73,237,75210,1,2,3:2:0:0:
307,282,75448,101,2,2:2:0:0:
334,287,75567,1,2,2:2:0:0:
343,260,75686,1,2,3:2:0:0:
240,33,75924,5,2,2:2:0:0:
196,25,76043,1,2,2:2:0:0:
182,68,76162,1,2,3:2:0:0:
381,170,76400,101,2,2:2:0:0:
394,96,76519,1,2,2:2:0:0:
322,72,76638,1,2,3:2:0:0:
137,161,76876,5,2,2:2:0:0:
124,235,76995,1,2,2:2:0:0:
196,259,77114,1,2,3:2:0:0:
455,192,77352,102,0,L|466:114,1,70,2|2,2:2|2:2,0:0:0:0:
512,248,77591,6,0,P|440:241|360:312,1,140,4|2,3:2|2:2,0:0:0:0:
358,354,77948,1,2,2:2:0:0:
279,324,78067,2,0,P|266:287|267:240,1,70,2|2,3:2|2:2,0:0:0:0:
233,104,78305,101,2,2:2:0:0:
251,94,78424,1,2,2:2:0:0:
262,110,78543,2,0,P|251:155|245:276,1,140,2|2,3:2|2:2,0:0:0:0:
177,298,78900,2,0,P|164:255|166:201,1,70,2|2,2:2|3:2,0:0:0:0:
175,30,79138,5,2,2:2:0:0:
91,37,79257,1,2,2:2:0:0:
55,113,79376,1,2,2:2:0:0:
99,183,79495,2,0,P|187:187|270:232,1,140,2|2,3:2|2:2,0:0:0:0:
289,270,79852,101,2,2:2:0:0:
347,209,79972,2,0,P|336:168|334:120,1,70,2|2,3:2|2:2,0:0:0:0:
294,260,80210,5,2,2:2:0:0:
317,340,80330,2,0,P|358:350|400:373,1,70,2|0,2:2|3:3,0:0:0:0:
299,268,80566,101,2,2:2:0:0:
218,248,80686,2,0,P|187:278|147:303,1,70,2|2,2:2|2:2,0:0:0:0:
196,367,80924,6,0,P|136:322|-7:313,1,210,2|2,3:2|2:2,0:0:0:0:
4,309,81400,101,2,3:2:0:0:
98,38,81638,2,0,P|106:81|109:117,1,70,2|2,2:2|2:2,0:0:0:0:
181,141,81876,5,2,3:2:0:0:
153,220,81995,1,2,2:2:0:0:
177,300,82114,1,2,2:2:0:0:
252,337,82233,1,2,2:2:0:0:
353,271,82352,101,2,3:2:0:0:
338,253,82471,1,2,2:2:0:0:
315,250,82590,1,2,2:2:0:0:
297,263,82709,1,2,2:2:0:0:
252,337,82829,6,0,L|333:348,1,70,2|2,3:2|2:2,0:0:0:0:
246,205,83067,2,0,L|165:216,1,70,2|0,2:2|0:0,0:0:0:0:
177,367,83305,101,2,3:2:0:0:
177,367,83424,2,0,P|147:283|188:199,1,140,2|2,2:2|2:2,0:0:0:0:
302,159,83781,2,0,P|332:243|291:327,1,140,0|2,3:3|2:2,0:0:0:0:
240,247,84138,6,0,L|225:167,1,70,2|2,2:2|3:2,0:0:0:0:
336,12,84376,1,2,2:2:0:0:
336,12,84495,2,0,L|321:92,1,70,2|2,2:2|2:2,0:0:0:0:
302,159,84733,101,2,3:2:0:0:
58,133,84972,2,0,L|-15:124,2,70,2|2|2,2:2|2:2|3:2,0:0:0:0:
195,22,85447,5,2,2:2:0:0:
195,22,85566,2,0,L|208:106,1,70,2|0,2:2|3:3,0:0:0:0:
290,123,85803,1,2,2:2:0:0:
290,123,85922,2,0,L|277:39,1,70,2|2,2:2|2:2,0:0:0:0:
154,147,86159,101,2,3:2:0:0:
154,147,86277,2,0,P|129:229|177:294,1,140,2|2,2:2|2:2,0:0:0:0:
227,310,86631,2,0,P|233:276|224:225,1,70,2|2,3:2|2:2,0:0:0:0:
167,365,86866,5,2,2:2:0:0:
167,365,86984,2,0,L|65:380,1,70,2|0,2:2|3:3,0:0:0:0:
314,279,87218,1,2,2:2:0:0:
314,279,87336,2,0,L|416:294,1,70,2|0,2:2|0:0,0:0:0:0:
446,347,87570,102,0,P|512:280|481:160,1,210,2|2,3:2|2:2,0:0:0:0:
428,120,88037,5,2,3:2:0:0:
428,120,88153,2,0,L|415:41,1,70,2|2,2:2|2:2,0:0:0:0:
376,187,88386,1,2,2:2:0:0:
376,187,88502,2,0,L|389:266,1,70,2|2,3:2|2:2,0:0:0:0:
228,152,88733,102,0,P|192:152|146:143,1,70,2|2,2:2|2:2,0:0:0:0:
19,192,88965,2,0,P|127:165|181:181,1,140,0|2,3:3|2:2,0:0:0:0:
249,268,89426,5,2,3:2:0:0:
249,268,89540,2,0,L|234:364,1,70,2|2,2:2|2:2,0:0:0:0:
321,152,89770,101,2,2:2:0:0:
321,152,89885,2,0,L|390:83,1,70,2|2,3:2|2:2,0:0:0:0:
195,204,90113,5,2,2:2:0:0:
195,204,90227,2,0,L|99:219,1,70,2|0,2:2|3:3,0:0:0:0:
328,236,90455,101,2,2:2:0:0:
328,236,90569,2,0,L|414:280,1,70,2|2,2:2|2:2,0:0:0:0:
239,132,90796,5,2,3:2:0:0:
239,132,90910,2,0,P|219:68|241:-5,1,140,2|2,2:2|2:2,0:0:0:0:
238,0,91248,101,2,3:2:0:0:
252,20,91360,1,2,2:2:0:0:
263,46,91472,1,2,2:2:0:0:
262,82,91585,1,2,2:2:0:0:
236,122,91697,1,2,3:2:0:0:
210,171,91808,1,2,2:2:0:0:
197,243,91920,1,2,2:2:0:0:
214,318,92032,1,2,2:2:0:0:
266,374,92144,5,2,3:2:0:0:
306,63,92366,2,0,L|212:55,1,70,2|0,2:2|0:0,0:0:0:0:
165,23,92588,102,0,P|156:63|170:129,1,83.9999974365235,0|2,3:3|2:2,0:0:0:0:
346,214,92808,2,0,P|355:174|341:108,1,83.9999974365235,0|2,3:3|2:2,0:0:0:0:
88,133,93029,6,0,P|177:149|237:225,1,167.999994873047,0|0,3:3|3:3,0:0:0:0:
284,264,93358,1,2,2:2:0:0:
226,321,93467,102,0,L|132:313,1,83.9999974365235,0|2,3:3|2:2,0:0:0:0:
285,374,93684,2,0,L|379:382,1,83.9999974365235,0|2,3:3|2:2,0:0:0:0:
73,358,93902,6,0,L|159:343,1,83.9999974365235,4|2,3:2|2:2,0:0:0:0:
437,335,94119,2,0,L|348:350,1,83.9999974365235,0|2,3:3|2:2,0:0:0:0:
252,296,94326,102,0,P|218:216|256:87,1,167.999994873047,0|0,3:3|3:3,0:0:0:0:
299,174,94647,1,2,2:2:0:0:
297,7,94761,6,0,L|292:102,1,83.9999974365235,0|0,3:3|0:0,0:0:0:0:
208,130,94973,2,0,L|213:35,1,83.9999974365235,0|2,3:3|2:2,0:0:0:0:
367,121,95188,102,0,L|391:230,1,83.9999974365235,0|2,3:3|2:2,0:0:0:0:
152,247,95399,2,0,L|128:138,1,83.9999974365235,0|2,3:3|2:2,0:0:0:0:
453,290,95606,6,0,L|434:372,1,83.9999974365235,4|2,3:2|2:2,0:0:0:0:
48,300,95815,2,0,L|66:217,1,83.9999974365235,0|0,3:3|0:0,0:0:0:0:
202,17,96014,101,0,3:3:0:0:
206,44,96117,1,0,3:3:0:0:
210,72,96221,1,0,3:3:0:0:
215,99,96325,1,0,3:3:0:0:
292,140,96430,5,0,3:3:0:0:
294,126,96532,1,0,3:3:0:0:
296,111,96635,1,0,3:3:0:0:
298,98,96738,1,0,3:3:0:0:
160,163,96852,101,0,3:3:0:0:
161,169,96953,1,0,3:3:0:0:
162,176,97055,1,0,3:3:0:0:
163,183,97157,1,0,3:3:0:0:
349,219,97258,5,0,3:3:0:0:
349,215,97358,1,0,3:3:0:0:
349,211,97459,1,0,3:3:0:0:
350,208,97559,1,0,3:3:0:0:
211,285,97660,102,0,L|150:301,2,41.9999987182618,0|2|2,3:3|2:2|2:2,0:0:0:0:
286,261,97859,2,0,L|347:245,2,41.9999987182618,0|2|2,3:3|2:2|2:2,0:0:0:0:
166,215,98058,6,0,L|105:199,2,41.9999987182618,0|2|2,3:3|2:2|2:2,0:0:0:0:
333,331,98254,2,0,L|394:347,2,41.9999987182618,0|2|2,3:3|2:2|2:2,0:0:0:0:
80,376,98451,102,0,P|45:313|83:135,1,251.999992309571,4|0,3:2|0:0,0:0:0:0:
432,8,98846,2,0,P|467:71|429:249,1,251.999992309571,4|0,3:2|0:0,0:0:0:0:
436,240,99234,21,0,3:3:0:0:
360,347,99424,2,0,L|370:265,2,70,2|2|2,2:2|2:2|2:2,0:0:0:0:
229,356,99994,5,0,3:3:0:0:
276,210,100183,2,0,L|289:321,2,90.8,2|2|2,2:2|2:2|2:2,0:0:0:0:
131,236,100747,101,0,3:3:0:0:
191,383,100933,2,0,L|203:250,2,112,2|2|2,2:2|2:2|2:2,0:0:0:0:
44,328,101490,5,0,3:3:0:0:
98,169,101675,2,0,L|120:325,2,139.5,2|2|2,2:2|2:2|2:2,0:0:0:0:
26,130,102220,101,0,3:3:0:0:
77,70,102398,1,0,3:3:0:0:
64,54,102577,5,0,3:3:0:0:
187,78,102753,1,0,3:3:0:0:
189,36,102929,101,0,3:3:0:0:
307,139,103101,1,0,3:3:0:0:
330,94,103274,5,0,3:3:0:0:
404,282,103443,1,0,3:3:0:0:
472,242,103612,101,0,3:3:0:0:
427,237,103694,1,0,3:3:0:0:
382,233,103777,1,0,3:3:0:0:
337,229,103859,1,0,3:3:0:0:
292,225,103942,1,0,3:3:0:0:
247,221,104022,1,0,3:3:0:0:
203,217,104102,1,0,3:3:0:0:
158,213,104182,1,0,3:3:0:0:
97,266,104262,6,0,L|105:295,14,17.5,0|0|2|0|2|0|2|0|2|0|2|0|2|0|2,0:0|0:0|2:2|0:0|2:2|0:0|2:2|0:0|2:2|0:0|2:2|0:0|2:2|0:0|2:2,0:0:0:0:
23,228,104893,38,0,P|13:183|21:138,1,90.9999958343508,4|0,3:2|0:0,0:0:0:0:
76,74,105050,1,2,2:2:0:0:
76,74,105208,1,2,2:2:0:0:
357,184,105366,6,0,P|366:228|358:273,1,90.9999958343508,4|0,3:2|0:0,0:0:0:0:
304,338,105523,1,2,2:2:0:0:
304,338,105681,1,2,2:2:0:0:
139,138,105840,102,0,L|345:102,1,168,2|0,2:2|0:0,0:0:0:0:
288,78,106156,6,0,P|275:129|284:184,1,90.9999958343508,4|0,3:2|0:0,0:0:0:0:
239,283,106314,1,2,2:2:0:0:
239,283,106471,1,2,2:2:0:0:
463,373,106629,102,0,P|476:322|467:267,1,90.9999958343508,4|0,3:2|0:0,0:0:0:0:
512,168,106787,1,2,2:2:0:0:
512,168,106944,1,2,2:2:0:0:
327,325,107103,6,0,L|122:299,1,168,2|0,2:2|0:0,0:0:0:0:
146,347,107419,101,4,3:2:0:0:
141,319,107497,1,2,2:2:0:0:
130,293,107576,1,2,2:2:0:0:
112,272,107655,1,2,2:2:0:0:
89,257,107734,1,2,2:2:0:0:
250,156,107893,5,4,3:2:0:0:
254,183,107971,1,2,2:2:0:0:
265,209,108050,1,2,2:2:0:0:
283,230,108129,1,2,2:2:0:0:
306,245,108208,1,2,2:2:0:0:
150,190,108366,102,0,L|176:5,1,168,2|0,2:2|0:0,0:0:0:0:
203,52,108682,6,0,P|131:90|69:93,1,90.9999958343508,4|0,3:2|0:0,0:0:0:0:
42,56,108840,1,2,2:2:0:0:
42,56,108998,1,2,2:2:0:0:
113,287,109156,102,0,P|31:218|35:143,1,140,4|2,3:2|2:2,0:0:0:0:
288,286,109471,1,2,2:2:0:0:
31,293,109629,2,0,P|119:241|249:244,1,210,2|0,2:2|0:0,0:0:0:0:
207,267,109945,6,0,L|424:232,1,210,4|0,3:2|0:0,0:0:0:0:
414,233,110261,1,8,2:2:0:0:
333,350,110419,1,0,3:3:0:0:
498,292,110577,102,0,P|442:227|304:218,1,210,2|0,2:2|0:0,0:0:0:0:
323,210,110893,1,10,2:2:0:0:
196,289,111050,2,0,L|93:260,1,70
283,283,111208,6,0,P|234:306|179:392,1,140,4|0,3:2|0:0,0:0:0:0:
355,318,111524,1,8,2:2:0:0:
254,182,111682,2,0,P|273:282|427:374,1,280,0|0,3:3|0:0,0:0:0:0:
225,230,112156,2,0,L|248:69,1,140,10|0,2:2|0:0,0:0:0:0:
151,263,112471,101,8,2:2:0:0:
110,57,112629,1,0,3:3:0:0:
110,57,112787,1,0,3:3:0:0:
73,282,112945,5,8,2:2:0:0:
216,319,113103,1,0,3:3:0:0:
216,319,113261,1,0,3:3:0:0:
255,151,113419,101,8,2:2:0:0:
439,119,113577,1,0,3:3:0:0:
407,304,113735,6,0,P|327:267|239:268,1,140,8|0,2:2|3:3,0:0:0:0:
276,262,113971,1,0,3:3:0:0:
276,262,114050,1,0,3:3:0:0:
167,217,114208,101,8,2:2:0:0:
326,191,114366,2,0,L|422:178,1,70,0|0,3:3|0:0,0:0:0:0:
133,236,114524,6,0,L|237:257,1,70,0|0,3:3|0:0,0:0:0:0:
367,283,114682,2,0,L|379:323,6,35,8|0|0|0|0|0|0,2:2|0:0|0:0|0:0|0:0|0:0|0:0,0:0:0:0:
321,371,114998,70,0,P|401:338|430:209,1,210,4|0,3:2|0:0,0:0:0:0:
502,186,115314,1,8,2:2:0:0:
273,212,115471,2,0,L|260:127,1,70,4|0,3:2|0:0,0:0:0:0:
455,316,115629,6,0,L|483:101,1,210
402,143,115945,2,0,P|395:71|340:10,1,140,8|0,2:2|0:0,0:0:0:0:
491,52,116261,101,0,3:3:0:0:
342,202,116419,1,2,2:2:0:0:
307,130,116577,1,8,2:2:0:0:
307,130,116735,1,2,3:2:0:0:
238,177,116893,5,0,0:0:0:0:
144,38,117050,1,2,2:2:0:0:
3,136,117208,1,8,2:2:0:0:
14,151,117524,102,0,P|112:88|239:113,1,210,4|0,3:2|0:0,0:0:0:0:
258,145,117840,1,8,2:2:0:0:
206,290,117998,2,0,L|123:307,1,70,4|0,3:2|0:0,0:0:0:0:
253,33,118156,6,0,P|218:120|263:238,1,210
330,216,118471,2,0,L|311:363,1,140,8|0,2:2|0:0,0:0:0:0:
398,176,118787,101,0,3:3:0:0:
232,378,118945,1,2,2:2:0:0:
198,300,119103,1,8,2:2:0:0:
198,300,119261,1,2,3:2:0:0:
279,312,119419,5,0,0:0:0:0:
61,384,119577,1,0,0:0:0:0:
9,161,119735,1,8,2:2:0:0:
23,184,120050,102,0,P|115:180|190:67,1,210,4|0,3:2|0:0,0:0:0:0:
147,28,120366,1,8,2:2:0:0:
366,83,120524,2,0,L|355:163,1,70,4|0,3:2|0:0,0:0:0:0:
471,12,120682,6,0,L|503:230,1,210
420,213,120998,2,0,P|349:187|244:206,1,140,8|0,2:2|0:0,0:0:0:0:
27,350,121314,102,0,P|133:374|291:257,1,280,0|8,3:3|2:2,0:0:0:0:
511,384,121787,2,0,L|456:88,1,280,2|2,3:2|2:2,0:0:0:0:
327,147,122261,1,8,2:2:0:0:
387,266,122419,6,0,L|401:149,1,70,2|0,2:2|0:0,0:0:0:0:
268,16,122577,2,0,P|233:110|269:268,1,210,4|0,3:2|0:0,0:0:0:0:
286,288,122893,101,8,2:2:0:0:
108,227,123050,1,0,3:3:0:0:
108,227,123208,1,0,3:3:0:0:
243,363,123366,5,8,2:2:0:0:
370,315,123524,1,0,3:3:0:0:
370,315,123682,1,0,3:3:0:0:
194,90,123840,102,0,L|218:235,1,140,8|0,2:2|3:3,0:0:0:0:
216,228,124077,1,0,3:3:0:0:
216,228,124156,1,0,3:3:0:0:
378,173,124314,5,8,2:2:0:0:
295,286,124471,2,0,P|306:245|309:191,1,70,0|0,3:3|0:0,0:0:0:0:
289,75,124629,102,0,P|278:116|275:170,1,70,0|0,3:3|0:0,0:0:0:0:
286,364,124787,1,8,2:2:0:0:
14,217,125103,70,0,P|57:149|201:137,1,224,4|8,3:2|2:2,0:0:0:0:
267,294,125577,1,4,3:2:0:0:
208,56,125735,2,0,L|232:239,1,168
272,209,126050,2,0,P|242:282|248:350,1,112,8|0,2:2|0:0,0:0:0:0:
448,159,126366,102,0,P|381:116|225:138,1,224,4|8,3:2|2:2,0:0:0:0:
374,301,126840,1,4,3:2:0:0:
125,206,126998,2,0,L|145:73,1,112,2|0,2:2|0:0,0:0:0:0:
209,1,127314,2,0,L|229:134,1,112,10|0,2:2|0:0,0:0:0:0:
271,326,127629,6,0,P|389:322|498:384,1,224,4|8,3:2|2:2,0:0:0:0:
374,212,128103,1,4,3:2:0:0:
304,356,128261,2,0,L|99:324,1,168
137,360,128577,2,0,P|96:312|33:284,1,112,8|0,2:2|0:0,0:0:0:0:
290,240,128893,102,0,P|216:202|56:206,1,224,4|8,3:2|2:2,0:0:0:0:
266,328,129366,1,4,3:2:0:0:
340,131,129524,2,0,L|374:255,1,112,2|0,2:2|0:0,0:0:0:0:
512,276,129840,2,0,L|478:400,1,112,10|0,2:2|0:0,0:0:0:0:
218,266,130156,6,0,P|201:177|278:62,1,224,4|8,3:2|2:2,0:0:0:0:
162,202,130629,1,4,3:2:0:0:
18,19,130787,2,0,L|66:201,1,168
25,194,131103,2,0,P|81:236|106:287,1,112,8|0,2:2|0:0,0:0:0:0:
263,367,131419,102,0,L|499:303,1,224,4|8,3:2|2:2,0:0:0:0:
231,346,131893,1,4,3:2:0:0:
350,207,132050,2,0,P|345:279|308:343,1,112,2|0,2:2|0:0,0:0:0:0:
216,90,132366,2,0,P|255:144|272:203,1,112,10|0,2:2|0:0,0:0:0:0:
245,17,132682,5,8,2:2:0:0:
225,253,132840,1,0,3:3:0:0:
225,253,132998,1,0,3:3:0:0:
439,196,133156,101,8,2:2:0:0:
417,70,133314,1,0,3:3:0:0:
417,70,133471,1,0,3:3:0:0:
300,140,133629,5,8,2:2:0:0:
380,144,133787,1,0,3:3:0:0:
268,277,133945,102,0,L|147:299,1,112,8|0,2:2|3:3,0:0:0:0:
157,297,134182,1,0,3:3:0:0:
157,297,134261,1,0,3:3:0:0:
28,217,134419,5,8,2:2:0:0:
103,176,134577,2,0,L|117:255,1,56,0|0,3:3|0:0,0:0:0:0:
283,347,134735,102,0,L|288:282,1,56,0|0,3:3|0:0,0:0:0:0:
301,116,134893,1,8,2:2:0:0:
512,332,135208,6,0,P|473:273|318:227,1,224,4|8,3:2|2:2,0:0:0:0:
169,331,135682,1,4,3:2:0:0:
430,280,135840,2,0,L|259:246,1,168
258,271,136156,2,0,P|194:283|134:330,1,112,8|0,2:2|0:0,0:0:0:0:
20,209,136471,102,0,P|7:120|91:12,1,224,4|8,3:2|2:2,0:0:0:0:
251,198,136945,1,4,3:2:0:0:
84,150,137103,2,0,L|225:135,1,112,2|0,2:2|0:0,0:0:0:0:
264,223,137419,2,0,L|405:238,1,112,10|0,2:2|0:0,0:0:0:0:
65,128,137735,6,0,L|18:347,1,224,4|8,3:2|2:2,0:0:0:0:
278,289,138208,1,4,3:2:0:0:
113,375,138366,2,0,P|34:345|4:229,1,168
20,238,138682,2,0,L|157:207,1,112,8|0,2:2|0:0,0:0:0:0:
454,164,138998,102,0,P|443:258|305:316,1,224,4|8,3:2|2:2,0:0:0:0:
247,115,139471,1,4,3:2:0:0:
317,344,139629,2,0,L|334:200,1,112,2|0,2:2|0:0,0:0:0:0:
91,384,139945,2,0,L|74:240,1,112,10|0,2:2|0:0,0:0:0:0:
241,22,140261,6,0,P|188:73|183:249,1,224,4|8,3:2|2:2,0:0:0:0:
357,291,140735,1,4,3:2:0:0:
388,47,140893,2,0,L|176:75,1,168
226,101,141208,2,0,P|159:73|139:25,1,112,8|0,2:2|0:0,0:0:0:0:
252,384,141524,102,0,L|283:148,1,224,4|8,3:2|2:2,0:0:0:0:
98,171,141998,1,4,3:2:0:0:
397,272,142156,2,0,P|326:293|270:322,1,112,2|0,2:2|0:0,0:0:0:0:
83,259,142471,6,0,L|60:68,1,168,10|0,2:2|0:0,0:0:0:0:
24,88,142787,2,0,P|53:23|99:-6,1,112,4|0,3:2|0:0,0:0:0:0:
289,154,143103,101,8,2:2:0:0:
136,64,143261,1,0,3:3:0:0:
136,64,143419,1,0,3:3:0:0:
354,100,143577,5,8,2:2:0:0:
334,227,143735,1,0,3:3:0:0:
334,227,143893,1,0,3:3:0:0:
289,154,144050,102,0,L|171:177,1,112,8|0,2:2|3:3,0:0:0:0:
179,175,144287,1,0,3:3:0:0:
179,175,144366,1,0,3:3:0:0:
245,307,144524,5,0,0:0:0:0:
157,105,144682,2,0,P|144:187|169:277,1,168,4|0,3:2|0:0,0:0:0:0:
404,358,144998,2,0,P|421:250|391:130,1,224,4|4,3:2|3:2,0:0:0:0:
