osu file format v14

[General]
AudioFilename: audio.mp3
AudioLeadIn: 0
PreviewTime: 40110
Countdown: 0
SampleSet: Normal
StackLeniency: 0.7
Mode: 3
LetterboxInBreaks: 0
SpecialStyle: 0
WidescreenStoryboard: 0

[Editor]
Bookmarks: 13268,25900,40110,49584,52742,62215,65373,78005,90636,92215,101689,104847,114321,130110,142742
DistanceSpacing: 0.8
BeatDivisor: 8
GridSize: 4
TimelineZoom: 2.1

[Metadata]
Title:Re/Im
TitleUnicode:Re/Im
Artist:q/stol
ArtistUnicode:q/stol
Creator:Lude
Version:Re/Hard
Source:BMS
Tags:hi-tech full on frenz2016 bofu2016 :agine
BeatmapID:1245090
BeatmapSetID:588066

[Difficulty]
HPDrainRate:8
CircleSize:4
OverallDifficulty:7.5
ApproachRate:5
SliderMultiplier:1.4
SliderTickRate:1

[Events]
//Background and Video events
0,0,"BG1.png",0,0
//Break Periods
//Storyboard Layer 0 (Background)
//Storyboard Layer 1 (Fail)
//Storyboard Layer 2 (Pass)
//Storyboard Layer 3 (Foreground)
//Storyboard Sound Samples

[TimingPoints]
637,394.736842105263,4,1,1,30,1,0
40110,-100,4,1,1,30,0,1
49584,-100,4,1,1,30,0,0
52742,-100,4,1,1,30,0,1
62215,-100,4,1,1,30,0,0
92215,-100,4,1,1,30,0,1
101689,-100,4,1,1,30,0,0
104847,-100,4,1,1,30,0,1
114321,-100,4,1,1,30,0,0

[HitObjects]
64,192,637,5,2,0:0:0:0:
448,192,637,1,4,0:0:0:0:
192,192,1426,1,0,0:0:0:0:
192,192,3005,128,0,3597:0:0:0:0:
64,192,3597,128,0,3794:0:0:0:0:
448,192,3794,128,2,4584:0:0:0:0:
192,192,3794,1,0,0:0:0:0:
192,192,4090,1,0,0:0:0:0:
192,192,4386,1,0,0:0:0:0:
64,192,4584,1,0,0:0:0:0:
320,192,4979,1,0,0:0:0:0:
64,192,5077,1,0,0:0:0:0:
192,192,5373,128,0,6558:0:0:0:0:
64,192,6163,128,0,6558:0:0:0:0:
320,192,6360,128,0,6558:0:0:0:0:
448,192,6558,1,0,0:0:0:0:
320,192,6656,1,0,0:0:0:0:
64,192,6952,1,0,0:0:0:0:
192,192,7742,1,0,0:0:0:0:
320,192,8531,1,0,0:0:0:0:
448,192,9321,1,0,0:0:0:0:
64,192,10110,1,0,0:0:0:0:
192,192,10900,1,0,0:0:0:0:
448,192,11689,1,0,0:0:0:0:
64,192,12281,1,2,0:0:0:0:
192,192,12281,1,2,0:0:0:0:
320,192,12380,1,2,0:0:0:0:
448,192,12380,1,2,0:0:0:0:
64,192,12479,128,0,12873:0:0:0:0:
192,192,12479,1,0,0:0:0:0:
64,192,13268,128,4,13761:0:0:0:0:
192,192,13268,128,2,13761:0:0:0:0:
448,192,13268,128,0,13761:0:0:0:0:
64,192,13860,128,2,14354:0:0:0:0:
320,192,13860,128,4,14354:0:0:0:0:
448,192,13860,128,0,14354:0:0:0:0:
64,192,14452,128,2,15538:0:0:0:0:
192,192,14452,128,4,15538:0:0:0:0:
448,192,14452,128,0,15538:0:0:0:0:
320,192,14452,128,0,15538:0:0:0:0:
64,192,15636,1,0,0:0:0:0:
320,192,15735,1,0,0:0:0:0:
64,192,15834,1,0,0:0:0:0:
192,192,15933,1,0,0:0:0:0:
448,192,16031,128,0,16360:0:0:0:0:
320,192,16163,128,0,16360:0:0:0:0:
64,192,16426,128,2,16919:0:0:0:0:
320,192,16426,128,4,16919:0:0:0:0:
448,192,16426,128,0,16919:0:0:0:0:
64,192,17018,128,4,17511:0:0:0:0:
192,192,17018,128,2,17511:0:0:0:0:
320,192,17018,128,0,17511:0:0:0:0:
64,192,17610,128,4,18696:0:0:0:0:
448,192,17610,128,2,18696:0:0:0:0:
192,192,17610,128,0,18696:0:0:0:0:
320,192,17610,128,0,18696:0:0:0:0:
64,192,18794,1,0,0:0:0:0:
192,192,18893,1,0,0:0:0:0:
320,192,18992,1,0,0:0:0:0:
448,192,19090,1,0,0:0:0:0:
64,192,19189,1,0,0:0:0:0:
192,192,19288,1,0,0:0:0:0:
320,192,19386,1,0,0:0:0:0:
448,192,19485,1,0,0:0:0:0:
64,192,19584,128,2,20077:0:0:0:0:
192,192,19584,128,4,20077:0:0:0:0:
320,192,19584,128,0,20077:0:0:0:0:
64,192,20176,128,4,20669:0:0:0:0:
320,192,20176,128,2,20669:0:0:0:0:
448,192,20176,128,0,20669:0:0:0:0:
64,192,20768,128,4,21854:0:0:0:0:
192,192,20768,128,2,21854:0:0:0:0:
320,192,20768,128,0,21854:0:0:0:0:
448,192,20768,128,0,21854:0:0:0:0:
448,192,21952,1,0,0:0:0:0:
320,192,22051,1,0,0:0:0:0:
192,192,22150,1,0,0:0:0:0:
320,192,22248,1,0,0:0:0:0:
192,192,22347,1,0,0:0:0:0:
64,192,22446,1,0,0:0:0:0:
320,192,22544,1,0,0:0:0:0:
192,192,22643,1,0,0:0:0:0:
64,192,22742,128,4,23235:0:0:0:0:
320,192,22742,128,2,23235:0:0:0:0:
448,192,22742,128,0,23235:0:0:0:0:
64,192,23334,128,2,23827:0:0:0:0:
192,192,23334,128,4,23827:0:0:0:0:
448,192,23334,128,0,23827:0:0:0:0:
64,192,23926,128,4,25011:0:0:0:0:
192,192,23926,128,2,25011:0:0:0:0:
320,192,23926,128,0,25011:0:0:0:0:
448,192,23926,128,0,25011:0:0:0:0:
64,192,25110,1,8,0:0:0:0:
192,192,25110,1,8,0:0:0:0:
448,192,25110,128,0,25801:0:0:0:0:
320,192,25505,128,0,25801:0:0:0:0:
64,192,25900,1,2,0:0:0:0:
320,192,25900,1,4,0:0:0:0:
448,192,25900,1,0,0:0:0:0:
192,192,26097,1,0,0:0:0:0:
320,192,26196,1,0,0:0:0:0:
448,192,26294,1,8,0:0:0:0:
64,192,26294,1,2,0:0:0:0:
320,192,26492,1,0,0:0:0:0:
192,192,26590,1,0,0:0:0:0:
64,192,26689,1,2,0:0:0:0:
448,192,26689,1,8,0:0:0:0:
448,192,26886,1,0,0:0:0:0:
320,192,26985,1,0,0:0:0:0:
192,192,27084,1,8,0:0:0:0:
64,192,27084,1,2,0:0:0:0:
64,192,27281,1,0,0:0:0:0:
320,192,27380,1,0,0:0:0:0:
192,192,27479,1,8,0:0:0:0:
448,192,27479,1,2,0:0:0:0:
448,192,27676,1,0,0:0:0:0:
320,192,27775,1,0,0:0:0:0:
192,192,27873,1,8,0:0:0:0:
64,192,27873,1,2,0:0:0:0:
320,192,28071,1,0,0:0:0:0:
192,192,28169,1,0,0:0:0:0:
64,192,28268,1,2,0:0:0:0:
448,192,28268,1,8,0:0:0:0:
192,192,28367,1,0,0:0:0:0:
320,192,28465,1,0,0:0:0:0:
448,192,28465,1,0,0:0:0:0:
192,192,28564,1,0,0:0:0:0:
64,192,28663,1,2,0:0:0:0:
448,192,28663,1,8,0:0:0:0:
320,192,28761,1,0,0:0:0:0:
192,192,28860,1,0,0:0:0:0:
64,192,28860,1,0,0:0:0:0:
320,192,28959,1,0,0:0:0:0:
64,192,29058,1,8,0:0:0:0:
448,192,29058,1,2,0:0:0:0:
192,192,29255,1,0,0:0:0:0:
320,192,29354,1,0,0:0:0:0:
448,192,29452,1,8,0:0:0:0:
64,192,29452,1,2,0:0:0:0:
320,192,29650,1,0,0:0:0:0:
192,192,29748,1,0,0:0:0:0:
64,192,29847,1,2,0:0:0:0:
448,192,29847,1,8,0:0:0:0:
448,192,30044,1,0,0:0:0:0:
320,192,30143,1,0,0:0:0:0:
192,192,30242,1,8,0:0:0:0:
64,192,30242,1,2,0:0:0:0:
64,192,30439,1,0,0:0:0:0:
192,192,30538,1,0,0:0:0:0:
320,192,30636,1,8,0:0:0:0:
448,192,30636,1,2,0:0:0:0:
64,192,30834,1,0,0:0:0:0:
320,192,30933,1,0,0:0:0:0:
192,192,31031,1,8,0:0:0:0:
448,192,31031,1,2,0:0:0:0:
320,192,31229,1,0,0:0:0:0:
448,192,31327,1,0,0:0:0:0:
192,192,31426,1,8,0:0:0:0:
64,192,31426,1,2,0:0:0:0:
320,192,31623,1,0,0:0:0:0:
192,192,31722,1,0,0:0:0:0:
64,192,31821,1,2,0:0:0:0:
448,192,31821,1,8,0:0:0:0:
192,192,32018,1,0,0:0:0:0:
320,192,32117,1,0,0:0:0:0:
64,192,32215,1,2,0:0:0:0:
448,192,32215,1,8,0:0:0:0:
192,192,32314,1,8,0:0:0:0:
448,192,32413,1,8,0:0:0:0:
320,192,32413,1,0,0:0:0:0:
192,192,32511,1,8,0:0:0:0:
64,192,32610,1,2,0:0:0:0:
448,192,32610,1,8,0:0:0:0:
320,192,32709,1,8,0:0:0:0:
192,192,32808,1,8,0:0:0:0:
64,192,32808,1,0,0:0:0:0:
320,192,32906,1,8,0:0:0:0:
448,192,33005,1,2,0:0:0:0:
64,192,33005,1,8,0:0:0:0:
320,192,33104,1,8,0:0:0:0:
64,192,33202,1,8,0:0:0:0:
448,192,33202,1,0,0:0:0:0:
192,192,33301,1,8,0:0:0:0:
64,192,33400,1,2,0:0:0:0:
448,192,33400,1,8,0:0:0:0:
320,192,33498,1,8,0:0:0:0:
64,192,33597,1,8,0:0:0:0:
448,192,33597,1,0,0:0:0:0:
192,192,33696,1,8,0:0:0:0:
320,192,33794,1,8,0:0:0:0:
448,192,33794,1,2,0:0:0:0:
64,192,33893,1,8,0:0:0:0:
320,192,33992,1,8,0:0:0:0:
448,192,33992,1,0,0:0:0:0:
192,192,34090,1,8,0:0:0:0:
448,192,34189,1,2,0:0:0:0:
320,192,34189,1,8,0:0:0:0:
64,192,34288,1,8,0:0:0:0:
320,192,34386,1,8,0:0:0:0:
448,192,34386,1,0,0:0:0:0:
192,192,34485,1,8,0:0:0:0:
64,192,34584,1,2,0:0:0:0:
448,192,34584,1,8,0:0:0:0:
320,192,34683,1,8,0:0:0:0:
192,192,34781,1,8,0:0:0:0:
64,192,34781,1,0,0:0:0:0:
320,192,34880,1,8,0:0:0:0:
448,192,34979,1,2,0:0:0:0:
64,192,34979,1,8,0:0:0:0:
192,192,35077,1,8,0:0:0:0:
320,192,35176,1,8,0:0:0:0:
448,192,35176,1,0,0:0:0:0:
192,192,35275,1,8,0:0:0:0:
64,192,35373,1,2,0:0:0:0:
448,192,35373,1,8,0:0:0:0:
320,192,35472,1,0,0:0:0:0:
64,192,35571,1,0,0:0:0:0:
192,192,35669,1,0,0:0:0:0:
320,192,35768,1,2,0:0:0:0:
448,192,35768,1,2,0:0:0:0:
64,192,35867,1,0,0:0:0:0:
192,192,35965,1,0,0:0:0:0:
320,192,36064,1,0,0:0:0:0:
448,192,36163,1,2,0:0:0:0:
64,192,36163,1,2,0:0:0:0:
320,192,36261,1,0,0:0:0:0:
192,192,36360,1,0,0:0:0:0:
64,192,36459,1,0,0:0:0:0:
320,192,36558,1,2,0:0:0:0:
448,192,36558,1,2,0:0:0:0:
64,192,36656,1,0,0:0:0:0:
192,192,36755,128,0,37150:0:0:0:0:
448,192,37150,128,0,37347:0:0:0:0:
64,192,37347,128,0,37544:0:0:0:0:
320,192,37544,128,0,38433:0:0:0:0:
64,192,38038,128,0,38433:0:0:0:0:
192,192,38136,128,0,38433:0:0:0:0:
448,192,38235,128,0,38433:0:0:0:0:
64,192,38531,128,0,39617:0:0:0:0:
192,192,38630,128,0,39617:0:0:0:0:
320,192,38729,128,0,39617:0:0:0:0:
448,192,38827,128,0,39617:0:0:0:0:
64,192,39715,1,8,0:0:0:0:
192,192,39715,1,8,0:0:0:0:
448,192,39715,1,2,0:0:0:0:
320,192,39715,1,0,0:0:0:0:
64,192,40110,1,2,0:0:0:0:
448,192,40110,1,2,0:0:0:0:
320,192,40110,1,4,0:0:0:0:
192,192,40308,1,0,0:0:0:0:
320,192,40406,1,0,0:0:0:0:
64,192,40505,1,8,0:0:0:0:
192,192,40505,1,8,0:0:0:0:
448,192,40505,1,0,0:0:0:0:
320,192,40604,1,0,0:0:0:0:
64,192,40702,1,0,0:0:0:0:
192,192,40801,1,0,0:0:0:0:
448,192,40900,1,2,0:0:0:0:
64,192,40900,1,2,0:0:0:0:
320,192,40998,1,0,0:0:0:0:
192,192,41097,1,0,0:0:0:0:
320,192,41196,1,0,0:0:0:0:
64,192,41294,1,8,0:0:0:0:
192,192,41294,1,8,0:0:0:0:
448,192,41294,1,0,0:0:0:0:
320,192,41393,1,0,0:0:0:0:
192,192,41492,128,0,41689:0:0:0:0:
64,192,41689,1,2,0:0:0:0:
448,192,41689,1,2,0:0:0:0:
320,192,41788,1,0,0:0:0:0:
64,192,41886,1,0,0:0:0:0:
192,192,41985,1,0,0:0:0:0:
320,192,42084,1,8,0:0:0:0:
448,192,42084,1,8,0:0:0:0:
64,192,42084,1,0,0:0:0:0:
192,192,42183,1,0,0:0:0:0:
320,192,42281,1,0,0:0:0:0:
448,192,42380,1,0,0:0:0:0:
192,192,42479,1,2,0:0:0:0:
64,192,42479,128,2,42873:0:0:0:0:
320,192,42577,1,0,0:0:0:0:
448,192,42676,1,0,0:0:0:0:
320,192,42775,1,0,0:0:0:0:
192,192,42873,1,8,0:0:0:0:
448,192,42873,1,8,0:0:0:0:
64,192,42972,1,0,0:0:0:0:
192,192,43071,128,0,43268:0:0:0:0:
448,192,43268,1,2,0:0:0:0:
64,192,43268,1,2,0:0:0:0:
320,192,43465,1,0,0:0:0:0:
64,192,43663,1,8,0:0:0:0:
192,192,43663,1,8,0:0:0:0:
448,192,43663,1,0,0:0:0:0:
320,192,43761,1,0,0:0:0:0:
64,192,43860,1,0,0:0:0:0:
192,192,43959,1,0,0:0:0:0:
448,192,44058,1,0,0:0:0:0:
320,192,44058,1,0,0:0:0:0:
320,192,44189,1,0,0:0:0:0:
320,192,44321,1,0,0:0:0:0:
64,192,44452,1,8,0:0:0:0:
192,192,44452,1,8,0:0:0:0:
448,192,44452,1,0,0:0:0:0:
320,192,44551,1,0,0:0:0:0:
192,192,44650,1,0,0:0:0:0:
320,192,44748,1,0,0:0:0:0:
64,192,44847,128,2,45044:0:0:0:0:
448,192,44847,128,2,45044:0:0:0:0:
192,192,45044,1,0,0:0:0:0:
64,192,45143,128,2,45340:0:0:0:0:
320,192,45143,128,2,45340:0:0:0:0:
448,192,45340,1,0,0:0:0:0:
64,192,45439,128,2,45636:0:0:0:0:
192,192,45439,128,2,45636:0:0:0:0:
320,192,45636,1,2,0:0:0:0:
448,192,45636,1,2,0:0:0:0:
192,192,45735,1,0,0:0:0:0:
320,192,45834,1,0,0:0:0:0:
192,192,45933,1,0,0:0:0:0:
448,192,46031,1,8,0:0:0:0:
320,192,46031,1,8,0:0:0:0:
64,192,46031,1,0,0:0:0:0:
192,192,46130,1,0,0:0:0:0:
320,192,46229,1,0,0:0:0:0:
192,192,46327,1,0,0:0:0:0:
320,192,46426,1,4,0:0:0:0:
448,192,46426,1,2,0:0:0:0:
64,192,46426,1,2,0:0:0:0:
64,192,46558,1,0,0:0:0:0:
64,192,46689,1,0,0:0:0:0:
64,192,46821,1,8,0:0:0:0:
192,192,46821,1,8,0:0:0:0:
448,192,46821,1,0,0:0:0:0:
320,192,46919,1,0,0:0:0:0:
192,192,47018,1,0,0:0:0:0:
64,192,47117,1,0,0:0:0:0:
448,192,47215,128,2,47610:0:0:0:0:
320,192,47215,1,2,0:0:0:0:
64,192,47314,1,0,0:0:0:0:
192,192,47413,1,0,0:0:0:0:
320,192,47511,1,0,0:0:0:0:
192,192,47610,1,8,0:0:0:0:
64,192,47610,1,8,0:0:0:0:
320,192,47709,1,0,0:0:0:0:
448,192,47808,1,0,0:0:0:0:
320,192,47906,1,0,0:0:0:0:
64,192,48005,128,2,48202:0:0:0:0:
192,192,48005,1,2,0:0:0:0:
320,192,48202,1,0,0:0:0:0:
192,192,48301,1,0,0:0:0:0:
64,192,48400,1,8,0:0:0:0:
320,192,48400,1,8,0:0:0:0:
448,192,48400,1,0,0:0:0:0:
192,192,48498,1,0,0:0:0:0:
320,192,48597,1,0,0:0:0:0:
448,192,48696,1,0,0:0:0:0:
64,192,48794,1,2,0:0:0:0:
192,192,48794,1,2,0:0:0:0:
320,192,48893,1,0,0:0:0:0:
64,192,48992,1,0,0:0:0:0:
192,192,49090,1,0,0:0:0:0:
320,192,49189,1,8,0:0:0:0:
448,192,49189,1,8,0:0:0:0:
64,192,49189,1,0,0:0:0:0:
192,192,49288,1,0,0:0:0:0:
448,192,49386,1,0,0:0:0:0:
320,192,49485,1,0,0:0:0:0:
64,192,49584,128,4,50077:0:0:0:0:
192,192,49584,128,2,50077:0:0:0:0:
448,192,49584,128,2,50077:0:0:0:0:
64,192,50176,128,2,50669:0:0:0:0:
320,192,50176,128,2,50669:0:0:0:0:
448,192,50176,128,4,50669:0:0:0:0:
64,192,50768,128,2,51064:0:0:0:0:
192,192,50768,128,2,51064:0:0:0:0:
320,192,50768,128,4,51064:0:0:0:0:
448,192,50768,128,0,51064:0:0:0:0:
64,192,51163,1,0,0:0:0:0:
448,192,51163,1,0,0:0:0:0:
64,192,51360,1,2,0:0:0:0:
448,192,51360,1,0,0:0:0:0:
320,192,51459,1,0,0:0:0:0:
64,192,51755,1,8,0:0:0:0:
448,192,51755,1,0,0:0:0:0:
64,192,51952,1,2,0:0:0:0:
192,192,51952,1,2,0:0:0:0:
320,192,52051,1,2,0:0:0:0:
64,192,52150,1,2,0:0:0:0:
448,192,52150,1,2,0:0:0:0:
192,192,52248,1,0,0:0:0:0:
448,192,52347,1,8,0:0:0:0:
320,192,52347,1,8,0:0:0:0:
192,192,52446,1,0,0:0:0:0:
64,192,52544,1,8,0:0:0:0:
448,192,52544,1,8,0:0:0:0:
320,192,52643,1,0,0:0:0:0:
64,192,52742,1,2,0:0:0:0:
192,192,52742,1,2,0:0:0:0:
448,192,52742,1,4,0:0:0:0:
320,192,52939,1,0,0:0:0:0:
64,192,53136,1,8,0:0:0:0:
192,192,53136,1,8,0:0:0:0:
448,192,53136,1,0,0:0:0:0:
320,192,53235,1,0,0:0:0:0:
192,192,53334,1,0,0:0:0:0:
64,192,53433,1,0,0:0:0:0:
320,192,53531,1,2,0:0:0:0:
448,192,53531,1,2,0:0:0:0:
64,192,53630,1,0,0:0:0:0:
192,192,53729,1,0,0:0:0:0:
320,192,53827,1,0,0:0:0:0:
64,192,53926,128,8,54222:0:0:0:0:
448,192,53926,128,8,54222:0:0:0:0:
192,192,53926,1,0,0:0:0:0:
64,192,54321,1,2,0:0:0:0:
448,192,54321,1,2,0:0:0:0:
192,192,54518,1,0,0:0:0:0:
320,192,54584,1,0,0:0:0:0:
64,192,54715,1,8,0:0:0:0:
448,192,54715,1,8,0:0:0:0:
192,192,54715,1,0,0:0:0:0:
320,192,54913,1,0,0:0:0:0:
192,192,54979,1,0,0:0:0:0:
64,192,55110,128,2,55900:0:0:0:0:
448,192,55110,1,2,0:0:0:0:
192,192,55308,1,0,0:0:0:0:
320,192,55406,1,0,0:0:0:0:
448,192,55505,1,8,0:0:0:0:
192,192,55505,1,8,0:0:0:0:
448,192,55702,1,0,0:0:0:0:
320,192,55801,1,0,0:0:0:0:
192,192,55900,1,2,0:0:0:0:
448,192,55900,1,2,0:0:0:0:
320,192,56097,1,0,0:0:0:0:
64,192,56294,1,8,0:0:0:0:
192,192,56294,1,8,0:0:0:0:
448,192,56294,1,0,0:0:0:0:
320,192,56393,1,0,0:0:0:0:
192,192,56492,1,0,0:0:0:0:
320,192,56590,1,0,0:0:0:0:
64,192,56689,1,4,0:0:0:0:
192,192,56689,1,2,0:0:0:0:
448,192,56689,1,2,0:0:0:0:
320,192,56886,1,0,0:0:0:0:
64,192,56985,1,2,0:0:0:0:
192,192,56985,1,4,0:0:0:0:
448,192,56985,1,4,0:0:0:0:
192,192,57183,1,0,0:0:0:0:
64,192,57281,1,2,0:0:0:0:
320,192,57281,1,2,0:0:0:0:
448,192,57281,1,4,0:0:0:0:
64,192,57479,1,2,0:0:0:0:
320,192,57479,1,2,0:0:0:0:
320,192,57610,1,0,0:0:0:0:
320,192,57742,1,0,0:0:0:0:
64,192,57873,1,8,0:0:0:0:
448,192,57873,1,8,0:0:0:0:
192,192,57873,1,0,0:0:0:0:
192,192,58005,1,0,0:0:0:0:
192,192,58136,1,0,0:0:0:0:
64,192,58268,1,2,0:0:0:0:
448,192,58268,1,2,0:0:0:0:
448,192,58400,1,0,0:0:0:0:
448,192,58531,1,0,0:0:0:0:
64,192,58663,1,8,0:0:0:0:
192,192,58663,1,8,0:0:0:0:
320,192,58663,1,0,0:0:0:0:
192,192,58794,1,0,0:0:0:0:
192,192,58926,1,0,0:0:0:0:
64,192,59058,1,2,0:0:0:0:
320,192,59058,1,4,0:0:0:0:
448,192,59058,1,2,0:0:0:0:
192,192,59255,1,0,0:0:0:0:
64,192,59452,1,8,0:0:0:0:
192,192,59452,1,8,0:0:0:0:
448,192,59452,1,0,0:0:0:0:
320,192,59551,1,0,0:0:0:0:
64,192,59650,1,0,0:0:0:0:
192,192,59748,1,0,0:0:0:0:
320,192,59847,1,2,0:0:0:0:
448,192,59847,1,2,0:0:0:0:
64,192,60044,1,0,0:0:0:0:
192,192,60143,1,0,0:0:0:0:
320,192,60242,1,8,0:0:0:0:
448,192,60242,1,8,0:0:0:0:
64,192,60242,1,0,0:0:0:0:
192,192,60340,1,0,0:0:0:0:
320,192,60439,1,0,0:0:0:0:
192,192,60538,1,0,0:0:0:0:
64,192,60636,1,2,0:0:0:0:
448,192,60636,1,2,0:0:0:0:
320,192,60834,1,0,0:0:0:0:
64,192,61031,1,8,0:0:0:0:
192,192,61031,1,8,0:0:0:0:
448,192,61031,1,0,0:0:0:0:
320,192,61130,1,0,0:0:0:0:
192,192,61229,1,0,0:0:0:0:
64,192,61327,1,0,0:0:0:0:
320,192,61426,1,2,0:0:0:0:
448,192,61426,1,2,0:0:0:0:
192,192,61623,1,0,0:0:0:0:
320,192,61722,1,0,0:0:0:0:
448,192,61821,1,8,0:0:0:0:
192,192,61821,1,8,0:0:0:0:
64,192,61821,1,0,0:0:0:0:
320,192,61919,1,0,0:0:0:0:
64,192,62018,1,0,0:0:0:0:
192,192,62117,1,0,0:0:0:0:
64,192,62215,128,2,62709:0:0:0:0:
320,192,62215,128,2,62709:0:0:0:0:
448,192,62215,128,4,62709:0:0:0:0:
64,192,62808,128,2,63301:0:0:0:0:
192,192,62808,128,2,63301:0:0:0:0:
320,192,62808,128,4,63301:0:0:0:0:
64,192,63400,128,4,63893:0:0:0:0:
192,192,63400,128,2,63893:0:0:0:0:
320,192,63400,128,2,63893:0:0:0:0:
448,192,63400,128,0,63893:0:0:0:0:
64,192,63992,1,2,0:0:0:0:
448,192,63992,1,2,0:0:0:0:
320,192,64189,1,8,0:0:0:0:
192,192,64189,1,0,0:0:0:0:
448,192,64386,1,0,0:0:0:0:
64,192,64584,1,2,0:0:0:0:
192,192,64584,1,2,0:0:0:0:
320,192,64781,1,0,0:0:0:0:
192,192,64880,1,2,0:0:0:0:
64,192,64880,1,2,0:0:0:0:
320,192,64979,1,8,0:0:0:0:
448,192,64979,1,8,0:0:0:0:
64,192,65176,1,2,0:0:0:0:
192,192,65176,1,2,0:0:0:0:
64,192,65373,1,2,0:0:0:0:
320,192,65373,1,2,0:0:0:0:
448,192,65373,1,4,0:0:0:0:
192,192,65571,1,0,0:0:0:0:
64,192,65768,1,8,0:0:0:0:
192,192,65768,1,8,0:0:0:0:
448,192,65768,1,0,0:0:0:0:
320,192,65965,1,0,0:0:0:0:
64,192,66163,1,2,0:0:0:0:
448,192,66163,1,2,0:0:0:0:
320,192,66360,1,0,0:0:0:0:
64,192,66558,1,8,0:0:0:0:
192,192,66558,1,8,0:0:0:0:
448,192,66558,1,0,0:0:0:0:
192,192,66755,1,0,0:0:0:0:
320,192,66952,1,2,0:0:0:0:
448,192,66952,1,2,0:0:0:0:
64,192,67150,1,0,0:0:0:0:
64,192,67347,1,8,0:0:0:0:
192,192,67347,1,8,0:0:0:0:
448,192,67347,1,0,0:0:0:0:
320,192,67544,1,0,0:0:0:0:
192,192,67742,1,2,0:0:0:0:
448,192,67742,1,2,0:0:0:0:
320,192,67939,1,0,0:0:0:0:
64,192,68136,1,8,0:0:0:0:
192,192,68136,1,8,0:0:0:0:
448,192,68136,1,0,0:0:0:0:
320,192,68334,1,0,0:0:0:0:
64,192,68531,1,2,0:0:0:0:
448,192,68531,1,2,0:0:0:0:
64,192,68630,1,0,0:0:0:0:
192,192,68729,1,0,0:0:0:0:
64,192,68926,1,8,0:0:0:0:
320,192,68926,1,8,0:0:0:0:
448,192,68926,1,0,0:0:0:0:
192,192,69123,1,0,0:0:0:0:
64,192,69321,1,2,0:0:0:0:
320,192,69321,1,2,0:0:0:0:
448,192,69518,1,0,0:0:0:0:
64,192,69715,1,8,0:0:0:0:
192,192,69715,1,8,0:0:0:0:
448,192,69715,1,0,0:0:0:0:
192,192,69913,1,0,0:0:0:0:
64,192,70110,1,2,0:0:0:0:
448,192,70110,1,2,0:0:0:0:
320,192,70308,1,0,0:0:0:0:
64,192,70505,1,8,0:0:0:0:
192,192,70505,1,8,0:0:0:0:
448,192,70505,1,0,0:0:0:0:
192,192,70702,1,0,0:0:0:0:
320,192,70900,1,2,0:0:0:0:
448,192,70900,1,2,0:0:0:0:
64,192,71097,1,0,0:0:0:0:
192,192,71294,1,8,0:0:0:0:
64,192,71294,1,8,0:0:0:0:
448,192,71294,1,0,0:0:0:0:
320,192,71492,1,0,0:0:0:0:
64,192,71689,128,2,72873:0:0:0:0:
448,192,71689,1,2,0:0:0:0:
320,192,71886,1,0,0:0:0:0:
192,192,72084,1,8,0:0:0:0:
448,192,72084,1,8,0:0:0:0:
320,192,72084,1,0,0:0:0:0:
448,192,72281,1,0,0:0:0:0:
192,192,72479,1,2,0:0:0:0:
320,192,72479,1,2,0:0:0:0:
448,192,72676,1,0,0:0:0:0:
320,192,72873,128,8,73071:0:0:0:0:
192,192,72873,1,8,0:0:0:0:
448,192,72873,1,0,0:0:0:0:
64,192,73071,128,0,73465:0:0:0:0:
192,192,73268,1,2,0:0:0:0:
448,192,73268,1,2,0:0:0:0:
448,192,73465,128,0,73663:0:0:0:0:
192,192,73663,128,8,73860:0:0:0:0:
320,192,73663,1,8,0:0:0:0:
64,192,73663,1,0,0:0:0:0:
320,192,73860,128,0,74255:0:0:0:0:
64,192,74058,1,2,0:0:0:0:
448,192,74058,1,2,0:0:0:0:
192,192,74255,128,0,74452:0:0:0:0:
64,192,74452,128,8,74650:0:0:0:0:
320,192,74452,1,8,0:0:0:0:
448,192,74452,1,0,0:0:0:0:
448,192,74650,128,0,74847:0:0:0:0:
320,192,74847,128,2,75044:0:0:0:0:
64,192,74847,1,2,0:0:0:0:
192,192,74946,1,0,0:0:0:0:
64,192,75044,128,0,75242:0:0:0:0:
192,192,75242,128,8,75636:0:0:0:0:
320,192,75242,1,8,0:0:0:0:
448,192,75242,1,0,0:0:0:0:
320,192,75439,1,0,0:0:0:0:
448,192,75636,128,2,75834:0:0:0:0:
64,192,75636,1,2,0:0:0:0:
320,192,75834,128,0,76229:0:0:0:0:
64,192,76031,1,8,0:0:0:0:
192,192,76031,1,8,0:0:0:0:
448,192,76031,1,0,0:0:0:0:
192,192,76229,128,0,76426:0:0:0:0:
64,192,76426,128,2,76623:0:0:0:0:
448,192,76426,1,2,0:0:0:0:
192,192,76623,128,0,77018:0:0:0:0:
64,192,76821,1,8,0:0:0:0:
320,192,76821,1,8,0:0:0:0:
448,192,76821,1,0,0:0:0:0:
320,192,77018,128,0,78005:0:0:0:0:
64,192,77215,1,2,0:0:0:0:
192,192,77215,1,2,0:0:0:0:
448,192,77413,1,0,0:0:0:0:
64,192,77610,1,8,0:0:0:0:
192,192,77610,1,8,0:0:0:0:
448,192,77610,1,0,0:0:0:0:
192,192,77808,1,0,0:0:0:0:
64,192,78005,1,8,0:0:0:0:
192,192,78005,1,8,0:0:0:0:
448,192,78005,1,4,0:0:0:0:
320,192,78202,1,0,0:0:0:0:
64,192,78400,1,8,0:0:0:0:
448,192,78400,1,0,0:0:0:0:
64,192,78794,1,8,0:0:0:0:
192,192,78992,1,0,0:0:0:0:
64,192,79189,1,8,0:0:0:0:
320,192,79189,1,0,0:0:0:0:
448,192,79386,1,0,0:0:0:0:
64,192,79584,1,8,0:0:0:0:
320,192,79781,1,0,0:0:0:0:
64,192,79979,1,8,0:0:0:0:
192,192,79979,1,0,0:0:0:0:
320,192,80176,1,0,0:0:0:0:
64,192,80373,1,8,0:0:0:0:
64,192,80768,1,8,0:0:0:0:
192,192,81163,1,8,0:0:0:0:
320,192,81163,1,0,0:0:0:0:
448,192,81360,1,0,0:0:0:0:
192,192,81558,1,8,0:0:0:0:
64,192,81558,1,0,0:0:0:0:
192,192,81952,1,8,0:0:0:0:
320,192,82150,1,0,0:0:0:0:
192,192,82347,1,8,0:0:0:0:
448,192,82347,1,0,0:0:0:0:
320,192,82544,1,0,0:0:0:0:
192,192,82742,1,8,0:0:0:0:
64,192,82939,1,0,0:0:0:0:
192,192,83136,1,8,0:0:0:0:
448,192,83136,1,0,0:0:0:0:
320,192,83334,1,0,0:0:0:0:
192,192,83531,1,8,0:0:0:0:
192,192,83926,1,8,0:0:0:0:
64,192,84321,1,8,0:0:0:0:
448,192,84321,1,0,0:0:0:0:
192,192,84419,1,8,0:0:0:0:
320,192,84518,1,8,0:0:0:0:
448,192,84518,1,0,0:0:0:0:
192,192,84617,1,8,0:0:0:0:
64,192,84715,1,8,0:0:0:0:
448,192,84715,1,0,0:0:0:0:
320,192,84814,1,8,0:0:0:0:
64,192,84913,1,8,0:0:0:0:
192,192,85011,1,8,0:0:0:0:
320,192,85110,1,8,0:0:0:0:
448,192,85209,1,8,0:0:0:0:
64,192,85308,1,8,0:0:0:0:
192,192,85308,1,0,0:0:0:0:
320,192,85406,1,8,0:0:0:0:
448,192,85505,1,8,0:0:0:0:
64,192,85505,1,0,0:0:0:0:
192,192,85604,1,8,0:0:0:0:
320,192,85702,1,8,0:0:0:0:
448,192,85702,1,0,0:0:0:0:
192,192,85801,1,8,0:0:0:0:
64,192,85900,1,8,0:0:0:0:
448,192,85998,1,8,0:0:0:0:
320,192,86097,1,8,0:0:0:0:
192,192,86097,1,0,0:0:0:0:
64,192,86196,1,8,0:0:0:0:
448,192,86294,1,8,0:0:0:0:
320,192,86294,1,0,0:0:0:0:
192,192,86393,1,8,0:0:0:0:
64,192,86492,1,8,0:0:0:0:
448,192,86492,1,0,0:0:0:0:
320,192,86590,1,8,0:0:0:0:
192,192,86689,1,8,0:0:0:0:
64,192,86788,1,8,0:0:0:0:
320,192,86886,1,8,0:0:0:0:
448,192,86985,1,8,0:0:0:0:
64,192,87084,1,8,0:0:0:0:
192,192,87183,1,8,0:0:0:0:
320,192,87281,1,8,0:0:0:0:
448,192,87380,1,8,0:0:0:0:
64,192,87479,1,8,0:0:0:0:
192,192,87479,1,0,0:0:0:0:
320,192,87577,1,8,0:0:0:0:
448,192,87676,1,8,0:0:0:0:
64,192,87676,1,0,0:0:0:0:
192,192,87775,1,8,0:0:0:0:
320,192,87873,1,8,0:0:0:0:
448,192,87873,1,0,0:0:0:0:
192,192,87972,1,8,0:0:0:0:
64,192,88071,1,8,0:0:0:0:
448,192,88169,1,8,0:0:0:0:
320,192,88268,1,8,0:0:0:0:
192,192,88367,1,8,0:0:0:0:
64,192,88465,1,8,0:0:0:0:
448,192,88465,1,0,0:0:0:0:
320,192,88564,1,8,0:0:0:0:
64,192,88663,1,8,0:0:0:0:
192,192,88663,1,0,0:0:0:0:
320,192,88761,1,8,0:0:0:0:
64,192,88860,1,8,0:0:0:0:
448,192,88860,1,0,0:0:0:0:
192,192,88959,1,8,0:0:0:0:
320,192,89058,1,8,0:0:0:0:
448,192,89156,1,0,0:0:0:0:
192,192,89255,1,0,0:0:0:0:
64,192,89354,1,0,0:0:0:0:
448,192,89452,1,0,0:0:0:0:
320,192,89551,1,0,0:0:0:0:
192,192,89650,1,0,0:0:0:0:
64,192,89748,1,0,0:0:0:0:
320,192,89847,1,0,0:0:0:0:
448,192,89946,1,0,0:0:0:0:
64,192,90044,1,0,0:0:0:0:
192,192,90143,1,0,0:0:0:0:
320,192,90242,1,0,0:0:0:0:
448,192,90340,1,0,0:0:0:0:
64,192,90439,1,0,0:0:0:0:
192,192,90538,1,0,0:0:0:0:
448,192,90636,1,2,0:0:0:0:
320,192,90636,1,4,0:0:0:0:
64,192,90636,1,0,0:0:0:0:
192,192,90834,1,0,0:0:0:0:
320,192,90933,1,0,0:0:0:0:
448,192,91031,1,8,0:0:0:0:
64,192,91031,1,8,0:0:0:0:
320,192,91229,1,0,0:0:0:0:
192,192,91327,1,0,0:0:0:0:
64,192,91426,1,8,0:0:0:0:
448,192,91426,1,8,0:0:0:0:
320,192,91525,1,8,0:0:0:0:
192,192,91525,1,8,0:0:0:0:
448,192,91623,1,8,0:0:0:0:
64,192,91623,1,8,0:0:0:0:
192,192,91821,1,2,0:0:0:0:
64,192,91821,1,2,0:0:0:0:
448,192,92018,1,8,0:0:0:0:
320,192,92018,1,8,0:0:0:0:
64,192,92215,1,2,0:0:0:0:
192,192,92215,1,4,0:0:0:0:
448,192,92215,1,2,0:0:0:0:
320,192,92413,1,0,0:0:0:0:
192,192,92511,1,0,0:0:0:0:
320,192,92610,1,8,0:0:0:0:
448,192,92610,1,8,0:0:0:0:
64,192,92610,128,0,92808:0:0:0:0:
192,192,92808,1,0,0:0:0:0:
320,192,92906,1,0,0:0:0:0:
64,192,93005,1,2,0:0:0:0:
448,192,93005,1,2,0:0:0:0:
320,192,93104,1,0,0:0:0:0:
64,192,93202,1,0,0:0:0:0:
192,192,93301,1,0,0:0:0:0:
320,192,93400,1,8,0:0:0:0:
448,192,93400,1,8,0:0:0:0:
64,192,93400,1,0,0:0:0:0:
192,192,93498,1,0,0:0:0:0:
320,192,93597,128,0,93794:0:0:0:0:
448,192,93794,1,2,0:0:0:0:
64,192,93794,128,2,93992:0:0:0:0:
192,192,93992,1,0,0:0:0:0:
448,192,94090,128,0,94288:0:0:0:0:
192,192,94189,1,8,0:0:0:0:
64,192,94189,1,8,0:0:0:0:
320,192,94288,1,0,0:0:0:0:
64,192,94386,128,0,94584:0:0:0:0:
320,192,94485,1,0,0:0:0:0:
192,192,94584,1,2,0:0:0:0:
448,192,94584,1,2,0:0:0:0:
320,192,94683,1,0,0:0:0:0:
64,192,94781,1,0,0:0:0:0:
192,192,94880,1,0,0:0:0:0:
320,192,94979,1,8,0:0:0:0:
448,192,94979,1,8,0:0:0:0:
64,192,94979,1,0,0:0:0:0:
192,192,95077,1,0,0:0:0:0:
320,192,95176,128,0,95373:0:0:0:0:
448,192,95373,1,2,0:0:0:0:
64,192,95373,128,2,95571:0:0:0:0:
192,192,95571,1,0,0:0:0:0:
320,192,95669,1,0,0:0:0:0:
448,192,95768,1,8,0:0:0:0:
192,192,95768,1,8,0:0:0:0:
64,192,95768,1,0,0:0:0:0:
320,192,95867,1,0,0:0:0:0:
192,192,95965,1,0,0:0:0:0:
64,192,96064,1,0,0:0:0:0:
448,192,96163,1,2,0:0:0:0:
320,192,96163,128,2,96360:0:0:0:0:
64,192,96360,1,0,0:0:0:0:
192,192,96459,1,0,0:0:0:0:
320,192,96558,1,8,0:0:0:0:
448,192,96558,1,8,0:0:0:0:
64,192,96558,1,0,0:0:0:0:
192,192,96656,1,0,0:0:0:0:
448,192,96755,1,0,0:0:0:0:
320,192,96854,1,0,0:0:0:0:
192,192,96952,1,2,0:0:0:0:
64,192,96952,128,2,97150:0:0:0:0:
320,192,97150,1,0,0:0:0:0:
192,192,97248,1,0,0:0:0:0:
64,192,97347,1,8,0:0:0:0:
320,192,97347,1,8,0:0:0:0:
448,192,97347,1,0,0:0:0:0:
192,192,97446,1,0,0:0:0:0:
320,192,97544,1,0,0:0:0:0:
448,192,97643,1,0,0:0:0:0:
64,192,97742,128,2,97939:0:0:0:0:
192,192,97742,1,2,0:0:0:0:
320,192,97939,1,0,0:0:0:0:
192,192,98038,1,0,0:0:0:0:
64,192,98136,1,8,0:0:0:0:
320,192,98136,1,8,0:0:0:0:
448,192,98136,1,0,0:0:0:0:
192,192,98235,1,0,0:0:0:0:
448,192,98334,1,0,0:0:0:0:
320,192,98433,1,0,0:0:0:0:
64,192,98531,1,2,0:0:0:0:
192,192,98531,1,4,0:0:0:0:
448,192,98531,1,2,0:0:0:0:
192,192,98663,1,0,0:0:0:0:
192,192,98794,1,0,0:0:0:0:
64,192,98926,1,8,0:0:0:0:
320,192,98926,1,8,0:0:0:0:
448,192,98926,1,0,0:0:0:0:
192,192,99025,1,0,0:0:0:0:
320,192,99123,1,0,0:0:0:0:
192,192,99222,1,0,0:0:0:0:
64,192,99321,128,2,99715:0:0:0:0:
448,192,99321,1,2,0:0:0:0:
192,192,99419,1,0,0:0:0:0:
448,192,99518,1,0,0:0:0:0:
320,192,99617,1,0,0:0:0:0:
192,192,99715,1,8,0:0:0:0:
448,192,99715,1,8,0:0:0:0:
320,192,99814,1,0,0:0:0:0:
64,192,99913,1,0,0:0:0:0:
192,192,100011,1,0,0:0:0:0:
448,192,100110,1,2,0:0:0:0:
64,192,100110,1,2,0:0:0:0:
320,192,100209,1,0,0:0:0:0:
192,192,100308,1,0,0:0:0:0:
320,192,100406,1,0,0:0:0:0:
64,192,100505,1,8,0:0:0:0:
448,192,100505,1,8,0:0:0:0:
192,192,100604,1,0,0:0:0:0:
320,192,100702,1,0,0:0:0:0:
192,192,100801,1,0,0:0:0:0:
64,192,100900,128,2,101294:0:0:0:0:
448,192,100900,1,2,0:0:0:0:
320,192,101097,1,0,0:0:0:0:
448,192,101196,1,0,0:0:0:0:
192,192,101294,1,8,0:0:0:0:
320,192,101294,1,8,0:0:0:0:
448,192,101393,1,0,0:0:0:0:
320,192,101492,1,0,0:0:0:0:
192,192,101590,1,0,0:0:0:0:
64,192,101689,128,2,102183:0:0:0:0:
320,192,101689,128,2,102183:0:0:0:0:
448,192,101689,128,4,102183:0:0:0:0:
64,192,102281,128,2,102775:0:0:0:0:
192,192,102281,128,2,102775:0:0:0:0:
320,192,102281,128,4,102775:0:0:0:0:
64,192,102873,128,2,103169:0:0:0:0:
192,192,102873,128,4,103169:0:0:0:0:
320,192,102873,128,2,103169:0:0:0:0:
448,192,102873,128,0,103169:0:0:0:0:
64,192,103268,1,8,0:0:0:0:
192,192,103268,1,0,0:0:0:0:
320,192,103465,1,0,0:0:0:0:
448,192,103465,1,2,0:0:0:0:
192,192,103564,1,0,0:0:0:0:
64,192,103564,1,8,0:0:0:0:
320,192,103860,1,0,0:0:0:0:
448,192,103860,1,8,0:0:0:0:
64,192,104058,1,2,0:0:0:0:
192,192,104058,1,0,0:0:0:0:
320,192,104156,1,0,0:0:0:0:
448,192,104156,1,8,0:0:0:0:
192,192,104255,1,8,0:0:0:0:
64,192,104452,1,0,0:0:0:0:
448,192,104452,1,8,0:0:0:0:
192,192,104551,1,0,0:0:0:0:
320,192,104650,1,0,0:0:0:0:
448,192,104650,1,8,0:0:0:0:
64,192,104847,1,4,0:0:0:0:
192,192,104847,1,2,0:0:0:0:
448,192,104847,1,2,0:0:0:0:
320,192,105044,1,0,0:0:0:0:
448,192,105242,1,8,0:0:0:0:
64,192,105242,1,8,0:0:0:0:
320,192,105242,1,0,0:0:0:0:
192,192,105340,1,0,0:0:0:0:
64,192,105439,1,0,0:0:0:0:
320,192,105538,1,0,0:0:0:0:
64,192,105636,1,2,0:0:0:0:
448,192,105636,1,2,0:0:0:0:
192,192,105735,1,0,0:0:0:0:
448,192,105834,1,0,0:0:0:0:
320,192,105933,1,0,0:0:0:0:
64,192,106031,128,8,106426:0:0:0:0:
448,192,106031,1,8,0:0:0:0:
192,192,106031,1,0,0:0:0:0:
448,192,106229,1,0,0:0:0:0:
320,192,106327,1,0,0:0:0:0:
192,192,106426,1,2,0:0:0:0:
448,192,106426,1,2,0:0:0:0:
192,192,106623,1,0,0:0:0:0:
320,192,106689,1,0,0:0:0:0:
192,192,106821,1,8,0:0:0:0:
64,192,106821,1,8,0:0:0:0:
448,192,106821,1,0,0:0:0:0:
192,192,107018,1,0,0:0:0:0:
320,192,107084,1,0,0:0:0:0:
64,192,107215,1,2,0:0:0:0:
448,192,107215,1,2,0:0:0:0:
192,192,107314,1,0,0:0:0:0:
448,192,107413,1,0,0:0:0:0:
64,192,107413,1,0,0:0:0:0:
320,192,107511,1,0,0:0:0:0:
64,192,107610,1,8,0:0:0:0:
448,192,107610,1,8,0:0:0:0:
192,192,107610,128,0,108005:0:0:0:0:
64,192,108005,1,2,0:0:0:0:
320,192,108005,1,4,0:0:0:0:
448,192,108005,1,0,0:0:0:0:
192,192,108104,1,0,0:0:0:0:
320,192,108202,128,0,108400:0:0:0:0:
64,192,108400,1,8,0:0:0:0:
192,192,108400,1,8,0:0:0:0:
448,192,108400,1,0,0:0:0:0:
320,192,108597,1,0,0:0:0:0:
192,192,108696,1,0,0:0:0:0:
64,192,108794,1,2,0:0:0:0:
448,192,108794,1,2,0:0:0:0:
320,192,108893,1,0,0:0:0:0:
64,192,108992,1,0,0:0:0:0:
192,192,109090,1,0,0:0:0:0:
64,192,109189,1,8,0:0:0:0:
320,192,109189,1,8,0:0:0:0:
448,192,109189,128,0,109584:0:0:0:0:
192,192,109386,1,0,0:0:0:0:
64,192,109584,128,2,109979:0:0:0:0:
320,192,109584,1,2,0:0:0:0:
192,192,109781,1,0,0:0:0:0:
448,192,109979,128,8,110077:0:0:0:0:
192,192,109979,1,8,0:0:0:0:
320,192,109979,1,0,0:0:0:0:
64,192,110077,1,0,0:0:0:0:
320,192,110176,128,0,110275:0:0:0:0:
64,192,110275,1,0,0:0:0:0:
448,192,110373,1,2,0:0:0:0:
192,192,110373,128,2,110768:0:0:0:0:
320,192,110571,1,0,0:0:0:0:
64,192,110768,1,8,0:0:0:0:
320,192,110768,1,8,0:0:0:0:
448,192,110768,1,0,0:0:0:0:
192,192,110867,1,0,0:0:0:0:
320,192,110965,1,0,0:0:0:0:
192,192,111064,1,0,0:0:0:0:
64,192,111163,1,2,0:0:0:0:
448,192,111163,128,2,111952:0:0:0:0:
192,192,111360,1,0,0:0:0:0:
64,192,111558,1,8,0:0:0:0:
320,192,111558,1,8,0:0:0:0:
192,192,111656,1,0,0:0:0:0:
320,192,111755,1,0,0:0:0:0:
192,192,111854,1,0,0:0:0:0:
64,192,111952,128,2,112742:0:0:0:0:
320,192,111952,1,2,0:0:0:0:
192,192,112150,1,0,0:0:0:0:
448,192,112248,1,0,0:0:0:0:
320,192,112347,1,8,0:0:0:0:
192,192,112347,1,8,0:0:0:0:
448,192,112446,1,0,0:0:0:0:
192,192,112544,1,0,0:0:0:0:
320,192,112643,1,0,0:0:0:0:
448,192,112742,128,2,112939:0:0:0:0:
192,192,112742,1,2,0:0:0:0:
320,192,112939,1,0,0:0:0:0:
64,192,113038,128,0,113235:0:0:0:0:
192,192,113136,1,8,0:0:0:0:
448,192,113136,1,8,0:0:0:0:
320,192,113235,1,0,0:0:0:0:
448,192,113334,128,0,113531:0:0:0:0:
64,192,113334,1,0,0:0:0:0:
320,192,113433,1,0,0:0:0:0:
192,192,113531,1,2,0:0:0:0:
64,192,113531,1,2,0:0:0:0:
320,192,113630,128,0,113827:0:0:0:0:
192,192,113729,1,0,0:0:0:0:
64,192,113827,1,0,0:0:0:0:
448,192,113926,128,8,114123:0:0:0:0:
192,192,113926,1,8,0:0:0:0:
64,192,114025,1,0,0:0:0:0:
192,192,114123,1,0,0:0:0:0:
320,192,114222,1,0,0:0:0:0:
64,192,114321,128,2,114814:0:0:0:0:
192,192,114321,128,2,114814:0:0:0:0:
448,192,114321,128,4,114814:0:0:0:0:
192,192,114913,128,2,115406:0:0:0:0:
320,192,114913,128,2,115406:0:0:0:0:
448,192,114913,128,4,115406:0:0:0:0:
64,192,115505,128,4,115998:0:0:0:0:
192,192,115505,128,2,115998:0:0:0:0:
448,192,115505,128,2,115998:0:0:0:0:
320,192,115505,128,0,115998:0:0:0:0:
192,192,116097,1,2,0:0:0:0:
320,192,116097,1,2,0:0:0:0:
64,192,116294,1,8,0:0:0:0:
448,192,116294,1,8,0:0:0:0:
320,192,116492,1,0,0:0:0:0:
64,192,116689,1,2,0:0:0:0:
192,192,116689,1,2,0:0:0:0:
320,192,116886,128,0,117084:0:0:0:0:
64,192,117084,1,8,0:0:0:0:
448,192,117084,1,8,0:0:0:0:
192,192,117183,128,0,117380:0:0:0:0:
64,192,117479,1,4,0:0:0:0:
192,192,117479,1,2,0:0:0:0:
448,192,117479,1,2,0:0:0:0:
320,192,117676,1,0,0:0:0:0:
64,192,117873,1,8,0:0:0:0:
192,192,117873,1,8,0:0:0:0:
448,192,117873,1,0,0:0:0:0:
320,192,118005,128,0,118268:0:0:0:0:
64,192,118268,1,2,0:0:0:0:
448,192,118268,1,2,0:0:0:0:
192,192,118367,1,0,0:0:0:0:
320,192,118465,1,0,0:0:0:0:
192,192,118564,1,0,0:0:0:0:
64,192,118663,1,8,0:0:0:0:
320,192,118663,1,8,0:0:0:0:
448,192,118663,1,0,0:0:0:0:
192,192,118761,1,0,0:0:0:0:
320,192,118860,128,0,119058:0:0:0:0:
64,192,119058,1,2,0:0:0:0:
448,192,119058,1,2,0:0:0:0:
192,192,119156,1,0,0:0:0:0:
64,192,119255,1,0,0:0:0:0:
320,192,119354,1,0,0:0:0:0:
64,192,119452,1,8,0:0:0:0:
192,192,119452,1,8,0:0:0:0:
448,192,119452,1,0,0:0:0:0:
320,192,119551,1,0,0:0:0:0:
64,192,119650,1,0,0:0:0:0:
192,192,119748,1,0,0:0:0:0:
320,192,119847,1,2,0:0:0:0:
448,192,119847,1,2,0:0:0:0:
192,192,119946,1,0,0:0:0:0:
64,192,120044,1,0,0:0:0:0:
448,192,120143,1,0,0:0:0:0:
64,192,120242,1,8,0:0:0:0:
192,192,120242,1,8,0:0:0:0:
320,192,120242,1,0,0:0:0:0:
448,192,120340,1,0,0:0:0:0:
192,192,120439,128,0,120636:0:0:0:0:
64,192,120636,1,2,0:0:0:0:
448,192,120636,1,2,0:0:0:0:
320,192,120834,1,0,0:0:0:0:
64,192,121031,1,8,0:0:0:0:
192,192,121031,1,8,0:0:0:0:
448,192,121031,1,0,0:0:0:0:
320,192,121130,1,0,0:0:0:0:
192,192,121229,1,0,0:0:0:0:
64,192,121327,1,0,0:0:0:0:
448,192,121426,1,2,0:0:0:0:
320,192,121426,1,2,0:0:0:0:
320,192,121558,1,0,0:0:0:0:
320,192,121689,1,0,0:0:0:0:
64,192,121821,1,8,0:0:0:0:
192,192,121821,1,8,0:0:0:0:
448,192,121821,1,0,0:0:0:0:
320,192,121919,1,0,0:0:0:0:
64,192,122018,1,0,0:0:0:0:
192,192,122117,1,0,0:0:0:0:
448,192,122215,1,2,0:0:0:0:
64,192,122215,1,2,0:0:0:0:
320,192,122413,1,0,0:0:0:0:
448,192,122413,1,0,0:0:0:0:
192,192,122511,1,0,0:0:0:0:
64,192,122610,1,8,0:0:0:0:
320,192,122610,1,8,0:0:0:0:
448,192,122610,1,0,0:0:0:0:
192,192,122709,1,0,0:0:0:0:
64,192,122808,1,0,0:0:0:0:
320,192,122906,1,0,0:0:0:0:
64,192,123005,1,2,0:0:0:0:
448,192,123005,1,2,0:0:0:0:
192,192,123104,1,0,0:0:0:0:
448,192,123202,1,0,0:0:0:0:
320,192,123301,1,0,0:0:0:0:
64,192,123400,1,8,0:0:0:0:
192,192,123400,1,8,0:0:0:0:
448,192,123400,1,0,0:0:0:0:
320,192,123498,1,0,0:0:0:0:
192,192,123597,1,0,0:0:0:0:
320,192,123696,1,0,0:0:0:0:
64,192,123794,1,4,0:0:0:0:
192,192,123794,1,2,0:0:0:0:
448,192,123794,1,2,0:0:0:0:
192,192,123926,1,0,0:0:0:0:
192,192,124058,1,0,0:0:0:0:
64,192,124189,1,8,0:0:0:0:
320,192,124189,1,8,0:0:0:0:
448,192,124189,1,0,0:0:0:0:
192,192,124288,1,0,0:0:0:0:
320,192,124386,1,0,0:0:0:0:
448,192,124485,1,0,0:0:0:0:
64,192,124584,128,2,124979:0:0:0:0:
192,192,124584,1,2,0:0:0:0:
448,192,124683,1,0,0:0:0:0:
192,192,124781,1,0,0:0:0:0:
320,192,124880,1,0,0:0:0:0:
192,192,124979,1,8,0:0:0:0:
448,192,124979,1,8,0:0:0:0:
320,192,125077,1,0,0:0:0:0:
64,192,125176,1,0,0:0:0:0:
192,192,125275,1,0,0:0:0:0:
448,192,125373,1,2,0:0:0:0:
320,192,125373,128,2,125571:0:0:0:0:
64,192,125571,1,0,0:0:0:0:
192,192,125669,1,0,0:0:0:0:
64,192,125768,1,8,0:0:0:0:
320,192,125768,1,8,0:0:0:0:
448,192,125768,1,0,0:0:0:0:
192,192,125867,1,0,0:0:0:0:
320,192,125965,1,0,0:0:0:0:
448,192,126064,1,0,0:0:0:0:
64,192,126163,1,2,0:0:0:0:
192,192,126163,1,2,0:0:0:0:
320,192,126261,1,0,0:0:0:0:
64,192,126360,1,0,0:0:0:0:
192,192,126459,1,0,0:0:0:0:
320,192,126558,1,8,0:0:0:0:
448,192,126558,1,8,0:0:0:0:
64,192,126558,1,0,0:0:0:0:
192,192,126656,1,0,0:0:0:0:
448,192,126755,1,0,0:0:0:0:
320,192,126854,1,0,0:0:0:0:
64,192,126952,1,2,0:0:0:0:
192,192,126952,1,2,0:0:0:0:
320,192,127051,1,0,0:0:0:0:
64,192,127150,1,0,0:0:0:0:
192,192,127248,1,0,0:0:0:0:
320,192,127347,1,8,0:0:0:0:
448,192,127347,1,8,0:0:0:0:
64,192,127347,1,0,0:0:0:0:
192,192,127446,1,0,0:0:0:0:
320,192,127544,128,0,127742:0:0:0:0:
64,192,127742,1,2,0:0:0:0:
448,192,127742,1,2,0:0:0:0:
192,192,127939,1,0,0:0:0:0:
64,192,128136,1,8,0:0:0:0:
320,192,128136,1,8,0:0:0:0:
448,192,128136,1,0,0:0:0:0:
192,192,128235,1,0,0:0:0:0:
448,192,128334,1,0,0:0:0:0:
320,192,128433,1,0,0:0:0:0:
192,192,128531,1,2,0:0:0:0:
64,192,128531,128,2,128926:0:0:0:0:
448,192,128729,1,0,0:0:0:0:
320,192,128827,1,0,0:0:0:0:
192,192,128926,5,8,0:0:0:0:
448,192,128926,1,8,0:0:0:0:
64,192,129025,1,0,0:0:0:0:
192,192,129123,1,0,0:0:0:0:
320,192,129222,1,0,0:0:0:0:
64,192,129321,1,2,0:0:0:0:
448,192,129321,1,2,0:0:0:0:
192,192,129419,1,0,0:0:0:0:
320,192,129518,1,0,0:0:0:0:
192,192,129617,1,0,0:0:0:0:
64,192,129715,1,8,0:0:0:0:
448,192,129715,1,0,0:0:0:0:
320,192,129814,1,0,0:0:0:0:
192,192,129913,1,0,0:0:0:0:
320,192,130011,1,0,0:0:0:0:
64,192,130110,5,2,0:0:0:0:
192,192,130110,1,2,0:0:0:0:
448,192,130110,1,4,0:0:0:0:
320,192,130308,1,0,0:0:0:0:
64,192,130505,1,8,0:0:0:0:
320,192,130505,128,8,130702:0:0:0:0:
192,192,130702,128,0,130900:0:0:0:0:
448,192,130900,1,8,0:0:0:0:
64,192,130900,128,2,131097:0:0:0:0:
448,192,131097,128,0,131294:0:0:0:0:
64,192,131294,1,2,0:0:0:0:
192,192,131294,128,8,131492:0:0:0:0:
320,192,131492,128,0,131886:0:0:0:0:
64,192,131689,1,2,0:0:0:0:
448,192,131689,1,8,0:0:0:0:
192,192,131886,128,0,132084:0:0:0:0:
448,192,132084,1,8,0:0:0:0:
320,192,132084,128,2,132281:0:0:0:0:
192,192,132281,128,0,132676:0:0:0:0:
64,192,132479,1,8,0:0:0:0:
448,192,132479,1,2,0:0:0:0:
320,192,132676,128,0,132873:0:0:0:0:
448,192,132873,1,2,0:0:0:0:
64,192,132873,128,8,133071:0:0:0:0:
320,192,133071,128,0,133268:0:0:0:0:
64,192,133268,1,2,0:0:0:0:
448,192,133268,1,8,0:0:0:0:
320,192,133367,1,0,0:0:0:0:
192,192,133465,128,0,133663:0:0:0:0:
448,192,133663,1,2,0:0:0:0:
320,192,133663,128,8,133860:0:0:0:0:
192,192,133860,128,0,134058:0:0:0:0:
448,192,134058,1,2,0:0:0:0:
64,192,134058,128,8,134255:0:0:0:0:
320,192,134255,128,0,134452:0:0:0:0:
448,192,134452,128,8,134650:0:0:0:0:
192,192,134452,1,2,0:0:0:0:
64,192,134650,128,0,134847:0:0:0:0:
448,192,134847,1,8,0:0:0:0:
192,192,134847,128,2,135242:0:0:0:0:
320,192,135044,1,0,0:0:0:0:
448,192,135242,1,8,0:0:0:0:
64,192,135242,128,2,135439:0:0:0:0:
448,192,135439,128,0,135735:0:0:0:0:
192,192,135636,1,2,0:0:0:0:
64,192,135636,1,8,0:0:0:0:
448,192,135834,128,0,136031:0:0:0:0:
64,192,136031,1,8,0:0:0:0:
320,192,136031,128,2,136426:0:0:0:0:
192,192,136229,1,0,0:0:0:0:
64,192,136426,1,2,0:0:0:0:
448,192,136426,1,8,0:0:0:0:
192,192,136623,1,0,0:0:0:0:
64,192,136821,1,2,0:0:0:0:
320,192,136821,128,8,137018:0:0:0:0:
192,192,137018,128,0,137215:0:0:0:0:
448,192,137215,128,2,137413:0:0:0:0:
64,192,137215,1,8,0:0:0:0:
64,192,137413,128,0,137610:0:0:0:0:
320,192,137610,128,2,137808:0:0:0:0:
448,192,137610,1,8,0:0:0:0:
192,192,137808,128,0,138202:0:0:0:0:
64,192,138005,1,2,0:0:0:0:
448,192,138005,1,8,0:0:0:0:
448,192,138202,128,0,138400:0:0:0:0:
64,192,138400,128,2,138597:0:0:0:0:
192,192,138400,1,8,0:0:0:0:
320,192,138597,128,0,138992:0:0:0:0:
64,192,138794,1,8,0:0:0:0:
448,192,138794,1,2,0:0:0:0:
192,192,138992,128,0,139189:0:0:0:0:
64,192,139189,128,8,139386:0:0:0:0:
448,192,139189,1,2,0:0:0:0:
320,192,139386,128,0,139584:0:0:0:0:
64,192,139584,1,8,0:0:0:0:
448,192,139584,1,2,0:0:0:0:
320,192,139683,1,0,0:0:0:0:
192,192,139781,128,0,139979:0:0:0:0:
448,192,139979,128,8,140176:0:0:0:0:
64,192,139979,1,2,0:0:0:0:
64,192,140176,128,0,140373:0:0:0:0:
320,192,140373,128,2,140571:0:0:0:0:
448,192,140373,1,8,0:0:0:0:
192,192,140571,128,0,140768:0:0:0:0:
448,192,140768,128,2,140965:0:0:0:0:
64,192,140768,1,8,0:0:0:0:
64,192,140965,128,0,141163:0:0:0:0:
320,192,141163,128,8,141558:0:0:0:0:
448,192,141163,1,2,0:0:0:0:
192,192,141558,128,2,141755:0:0:0:0:
64,192,141558,1,8,0:0:0:0:
320,192,141755,128,8,142150:0:0:0:0:
448,192,141755,1,2,0:0:0:0:
192,192,142150,128,2,142347:0:0:0:0:
64,192,142150,1,8,0:0:0:0:
320,192,142347,128,2,142742:0:0:0:0:
448,192,142347,1,8,0:0:0:0:
64,192,142742,1,2,0:0:0:0:
192,192,142742,1,4,0:0:0:0:
448,192,142742,1,0,0:0:0:0:
