osu file format v14

[General]
AudioFilename: audio.mp3
AudioLeadIn: 0
PreviewTime: 40110
Countdown: 0
SampleSet: Normal
StackLeniency: 0.7
Mode: 3
LetterboxInBreaks: 0
SpecialStyle: 0
WidescreenStoryboard: 0

[Editor]
Bookmarks: 13268,25900,40110,49584,52742,62215,65373,78005,90636,92215,101689,104847,114321,117479,130110,142742
DistanceSpacing: 0.8
BeatDivisor: 4
GridSize: 4
TimelineZoom: 2.72

[Metadata]
Title:Re/Im
TitleUnicode:Re/Im
Artist:q/stol
ArtistUnicode:q/stol
Creator:Lude
Version:Re/Extreme
Source:BMS
Tags:hi-tech full on frenz2016 bofu2016 :agine
BeatmapID:1245089
BeatmapSetID:588066

[Difficulty]
HPDrainRate:8.5
CircleSize:4
OverallDifficulty:7.5
ApproachRate:5
SliderMultiplier:1.4
SliderTickRate:1

[Events]
//Background and Video events
0,0,"BG1.png",0,0
//Break Periods
//Storyboard Layer 0 (Background)
//Storyboard Layer 1 (Fail)
//Storyboard Layer 2 (Pass)
//Storyboard Layer 3 (Foreground)
//Storyboard Sound Samples

[TimingPoints]
637,394.736842105263,4,1,1,30,1,0
3005,-100,4,1,1,30,0,0
3030,-90.9090909090909,4,1,1,30,0,0
3054,-83.3333333333333,4,1,1,30,0,0
3079,-76.9230769230769,4,1,1,30,0,0
3104,-71.4285714285714,4,1,1,30,0,0
3128,-66.6666666666667,4,1,1,30,0,0
3153,-62.5,4,1,1,30,0,0
3178,-58.8235294117647,4,1,1,30,0,0
3202,-55.5555555555556,4,1,1,30,0,0
3227,-52.6315789473684,4,1,1,30,0,0
3252,-1000,4,1,1,30,0,0
3276,-52.6315789473684,4,1,1,30,0,0
3301,-1000,4,1,1,30,0,0
3326,-52.6315789473684,4,1,1,30,0,0
3351,-1000,4,1,1,30,0,0
3375,-52.6315789473684,4,1,1,30,0,0
3400,-1000,4,1,1,30,0,0
3424,-52.6315789473684,4,1,1,30,0,0
3449,-1000,4,1,1,30,0,0
3474,-52.6315789473684,4,1,1,30,0,0
3499,-1000,4,1,1,30,0,0
3523,-52.6315789473684,4,1,1,30,0,0
3548,-1000,4,1,1,30,0,0
3572,-52.6315789473684,4,1,1,30,0,0
3597,-1000,4,1,1,30,0,0
3622,-52.6315789473684,4,1,1,30,0,0
3647,-1000,4,1,1,30,0,0
3671,-52.6315789473684,4,1,1,30,0,0
3696,-1000,4,1,1,30,0,0
3720,-52.6315789473684,4,1,1,30,0,0
3745,-1000,4,1,1,30,0,0
3770,-52.6315789473684,4,1,1,30,0,0
3795,-66.6666666666667,4,1,1,30,0,0
3819,-200,4,1,1,30,0,0
3844,-66.6666666666667,4,1,1,30,0,0
3868,-200,4,1,1,30,0,0
3893,-66.6666666666667,4,1,1,30,0,0
3917,-200,4,1,1,30,0,0
3942,-52.6315789473684,4,1,1,30,0,0
3967,-1000,4,1,1,30,0,0
3992,-52.6315789473684,4,1,1,30,0,0
4017,-1000,4,1,1,30,0,0
4041,-52.6315789473684,4,1,1,30,0,0
4066,-1000,4,1,1,30,0,0
4090,-66.6666666666667,4,1,1,30,0,0
4114,-200,4,1,1,30,0,0
4140,-66.6666666666667,4,1,1,30,0,0
4164,-200,4,1,1,30,0,0
4189,-66.6666666666667,4,1,1,30,0,0
4213,-200,4,1,1,30,0,0
4238,-52.6315789473684,4,1,1,30,0,0
4263,-1000,4,1,1,30,0,0
4288,-52.6315789473684,4,1,1,30,0,0
4313,-1000,4,1,1,30,0,0
4337,-52.6315789473684,4,1,1,30,0,0
4362,-1000,4,1,1,30,0,0
4386,-66.6666666666667,4,1,1,30,0,0
4410,-200,4,1,1,30,0,0
4436,-66.6666666666667,4,1,1,30,0,0
4460,-200,4,1,1,30,0,0
4485,-66.6666666666667,4,1,1,30,0,0
4509,-200,4,1,1,30,0,0
4535,-52.6315789473684,4,1,1,30,0,0
4560,-1000,4,1,1,30,0,0
4584,-100,4,1,1,30,0,0
5373,-100,4,1,1,30,0,0
5398,-90.9090909090909,4,1,1,30,0,0
5422,-83.3333333333333,4,1,1,30,0,0
5447,-76.9230769230769,4,1,1,30,0,0
5472,-71.4285714285714,4,1,1,30,0,0
5496,-66.6666666666667,4,1,1,30,0,0
5521,-62.5,4,1,1,30,0,0
5546,-58.8235294117647,4,1,1,30,0,0
5570,-55.5555555555556,4,1,1,30,0,0
5595,-52.6315789473684,4,1,1,30,0,0
5620,-1000,4,1,1,30,0,0
5644,-52.6315789473684,4,1,1,30,0,0
5669,-1000,4,1,1,30,0,0
5694,-52.6315789473684,4,1,1,30,0,0
5719,-1000,4,1,1,30,0,0
5743,-52.6315789473684,4,1,1,30,0,0
5768,-1000,4,1,1,30,0,0
5792,-52.6315789473684,4,1,1,30,0,0
5817,-1000,4,1,1,30,0,0
5842,-52.6315789473684,4,1,1,30,0,0
5867,-1000,4,1,1,30,0,0
5891,-52.6315789473684,4,1,1,30,0,0
5916,-1000,4,1,1,30,0,0
5940,-52.6315789473684,4,1,1,30,0,0
5965,-1000,4,1,1,30,0,0
5990,-52.6315789473684,4,1,1,30,0,0
6015,-1000,4,1,1,30,0,0
6039,-52.6315789473684,4,1,1,30,0,0
6064,-1000,4,1,1,30,0,0
6088,-52.6315789473684,4,1,1,30,0,0
6113,-1000,4,1,1,30,0,0
6138,-52.6315789473684,4,1,1,30,0,0
6163,-1000,4,1,1,30,0,0
6187,-52.6315789473684,4,1,1,30,0,0
6212,-1000,4,1,1,30,0,0
6237,-52.6315789473684,4,1,1,30,0,0
6262,-1000,4,1,1,30,0,0
6286,-52.6315789473684,4,1,1,30,0,0
6311,-1000,4,1,1,30,0,0
6336,-52.6315789473684,4,1,1,30,0,0
6361,-1000,4,1,1,30,0,0
6385,-52.6315789473684,4,1,1,30,0,0
6410,-1000,4,1,1,30,0,0
6434,-52.6315789473684,4,1,1,30,0,0
6459,-1000,4,1,1,30,0,0
6484,-52.6315789473684,4,1,1,30,0,0
6509,-1000,4,1,1,30,0,0
6533,-52.6315789473684,4,1,1,30,0,0
6558,-100,4,1,1,30,0,0
12281,-52.6315789473684,4,1,1,30,0,0
12331,-1000,4,1,1,30,0,0
12380,-52.6315789473684,4,1,1,30,0,0
12430,-1000,4,1,1,30,0,0
12479,-52.6315789473684,4,1,1,30,0,0
12503,-1000,4,1,1,30,0,0
12528,-52.6315789473684,4,1,1,30,0,0
12552,-1000,4,1,1,30,0,0
12577,-52.6315789473684,4,1,1,30,0,0
12601,-1000,4,1,1,30,0,0
12627,-52.6315789473684,4,1,1,30,0,0
12651,-1000,4,1,1,30,0,0
12676,-52.6315789473684,4,1,1,30,0,0
12700,-1000,4,1,1,30,0,0
12725,-52.6315789473684,4,1,1,30,0,0
12749,-1000,4,1,1,30,0,0
12775,-52.6315789473684,4,1,1,30,0,0
12799,-1000,4,1,1,30,0,0
12824,-52.6315789473684,4,1,1,30,0,0
12848,-1000,4,1,1,30,0,0
12873,-20,4,1,1,30,0,0
12898,-131.578947368421,4,1,1,30,0,0
13268,-55.5555555555556,4,1,1,30,0,0
13317,-500,4,1,1,30,0,0
13367,-100,4,1,1,30,0,0
13860,-55.5555555555556,4,1,1,30,0,0
13909,-500,4,1,1,30,0,0
13959,-100,4,1,1,30,0,0
14452,-55.5555555555556,4,1,1,30,0,0
14501,-500,4,1,1,30,0,0
14551,-100,4,1,1,30,0,0
16426,-55.5555555555556,4,1,1,30,0,0
16475,-500,4,1,1,30,0,0
16525,-100,4,1,1,30,0,0
17018,-55.5555555555556,4,1,1,30,0,0
17067,-500,4,1,1,30,0,0
17117,-100,4,1,1,30,0,0
17610,-55.5555555555556,4,1,1,30,0,0
17659,-500,4,1,1,30,0,0
17709,-100,4,1,1,30,0,0
19584,-55.5555555555556,4,1,1,30,0,0
19633,-500,4,1,1,30,0,0
19683,-100,4,1,1,30,0,0
20176,-55.5555555555556,4,1,1,30,0,0
20225,-500,4,1,1,30,0,0
20275,-100,4,1,1,30,0,0
20768,-55.5555555555556,4,1,1,30,0,0
20817,-500,4,1,1,30,0,0
20867,-100,4,1,1,30,0,0
22742,-55.5555555555556,4,1,1,30,0,0
22791,-500,4,1,1,30,0,0
22841,-100,4,1,1,30,0,0
23334,-55.5555555555556,4,1,1,30,0,0
23383,-500,4,1,1,30,0,0
23433,-100,4,1,1,30,0,0
23926,-55.5555555555556,4,1,1,30,0,0
23975,-500,4,1,1,30,0,0
24025,-100,4,1,1,30,0,0
25110,-55.5555555555556,4,1,1,30,0,0
25159,-500,4,1,1,30,0,0
25209,-100,4,1,1,30,0,0
25505,-20,4,1,1,30,0,0
25530,-131.578947368421,4,1,1,30,0,0
25900,-100,4,1,1,30,0,0
28268,-52.6315789473684,4,1,1,30,0,0
28293,-1000,4,1,1,30,0,0
28317,-52.6315789473684,4,1,1,30,0,0
28342,-1000,4,1,1,30,0,0
28367,-52.6315789473684,4,1,1,30,0,0
28392,-1000,4,1,1,30,0,0
28416,-52.6315789473684,4,1,1,30,0,0
28441,-1000,4,1,1,30,0,0
28465,-52.6315789473684,4,1,1,30,0,0
28490,-1000,4,1,1,30,0,0
28515,-52.6315789473684,4,1,1,30,0,0
28540,-1000,4,1,1,30,0,0
28564,-52.6315789473684,4,1,1,30,0,0
28589,-1000,4,1,1,30,0,0
28613,-52.6315789473684,4,1,1,30,0,0
28638,-1000,4,1,1,30,0,0
28663,-52.6315789473684,4,1,1,30,0,0
28688,-1000,4,1,1,30,0,0
28712,-52.6315789473684,4,1,1,30,0,0
28737,-1000,4,1,1,30,0,0
28762,-52.6315789473684,4,1,1,30,0,0
28787,-1000,4,1,1,30,0,0
28811,-52.6315789473684,4,1,1,30,0,0
28836,-1000,4,1,1,30,0,0
28860,-52.6315789473684,4,1,1,30,0,0
28885,-1000,4,1,1,30,0,0
28910,-52.6315789473684,4,1,1,30,0,0
28935,-1000,4,1,1,30,0,0
28959,-52.6315789473684,4,1,1,30,0,0
28984,-1000,4,1,1,30,0,0
29008,-52.6315789473684,4,1,1,30,0,0
29033,-1000,4,1,1,30,0,0
29058,-100,4,1,1,30,0,0
32215,-76.9230769230769,4,1,1,30,0,0
32265,-142.857142857143,4,1,1,30,0,0
32314,-76.9230769230769,4,1,1,30,0,0
32363,-142.857142857143,4,1,1,30,0,0
32413,-71.4285714285714,4,1,1,30,0,0
32462,-166.666666666667,4,1,1,30,0,0
32511,-71.4285714285714,4,1,1,30,0,0
32560,-166.666666666667,4,1,1,30,0,0
32610,-66.6666666666667,4,1,1,30,0,0
32659,-200,4,1,1,30,0,0
32709,-66.6666666666667,4,1,1,30,0,0
32758,-200,4,1,1,30,0,0
32808,-62.5,4,1,1,30,0,0
32857,-250,4,1,1,30,0,0
32907,-62.5,4,1,1,30,0,0
32956,-250,4,1,1,30,0,0
33005,-58.8235294117647,4,1,1,30,0,0
33054,-333.333333333333,4,1,1,30,0,0
33104,-58.8235294117647,4,1,1,30,0,0
33153,-333.333333333333,4,1,1,30,0,0
33202,-58.8235294117647,4,1,1,30,0,0
33251,-333.333333333333,4,1,1,30,0,0
33301,-58.8235294117647,4,1,1,30,0,0
33350,-333.333333333333,4,1,1,30,0,0
33400,-58.8235294117647,4,1,1,30,0,0
33449,-333.333333333333,4,1,1,30,0,0
33499,-58.8235294117647,4,1,1,30,0,0
33548,-333.333333333333,4,1,1,30,0,0
33597,-58.8235294117647,4,1,1,30,0,0
33646,-333.333333333333,4,1,1,30,0,0
33696,-58.8235294117647,4,1,1,30,0,0
33745,-333.333333333333,4,1,1,30,0,0
33794,-58.8235294117647,4,1,1,30,0,0
33843,-333.333333333333,4,1,1,30,0,0
33893,-58.8235294117647,4,1,1,30,0,0
33942,-333.333333333333,4,1,1,30,0,0
33992,-58.8235294117647,4,1,1,30,0,0
34041,-333.333333333333,4,1,1,30,0,0
34091,-58.8235294117647,4,1,1,30,0,0
34140,-333.333333333333,4,1,1,30,0,0
34189,-58.8235294117647,4,1,1,30,0,0
34238,-333.333333333333,4,1,1,30,0,0
34288,-58.8235294117647,4,1,1,30,0,0
34337,-333.333333333333,4,1,1,30,0,0
34386,-58.8235294117647,4,1,1,30,0,0
34435,-333.333333333333,4,1,1,30,0,0
34485,-58.8235294117647,4,1,1,30,0,0
34534,-333.333333333333,4,1,1,30,0,0
34584,-58.8235294117647,4,1,1,30,0,0
34633,-333.333333333333,4,1,1,30,0,0
34683,-58.8235294117647,4,1,1,30,0,0
34732,-333.333333333333,4,1,1,30,0,0
34781,-58.8235294117647,4,1,1,30,0,0
34830,-333.333333333333,4,1,1,30,0,0
34880,-58.8235294117647,4,1,1,30,0,0
34929,-333.333333333333,4,1,1,30,0,0
34979,-58.8235294117647,4,1,1,30,0,0
35028,-333.333333333333,4,1,1,30,0,0
35078,-58.8235294117647,4,1,1,30,0,0
35127,-333.333333333333,4,1,1,30,0,0
35176,-58.8235294117647,4,1,1,30,0,0
35225,-333.333333333333,4,1,1,30,0,0
35275,-58.8235294117647,4,1,1,30,0,0
35324,-333.333333333333,4,1,1,30,0,0
35373,-76.9230769230769,4,1,1,30,0,0
35423,-142.857142857143,4,1,1,30,0,0
35472,-76.9230769230769,4,1,1,30,0,0
35522,-142.857142857143,4,1,1,30,0,0
35571,-76.9230769230769,4,1,1,30,0,0
35621,-142.857142857143,4,1,1,30,0,0
35669,-76.9230769230769,4,1,1,30,0,0
35719,-142.857142857143,4,1,1,30,0,0
35768,-76.9230769230769,4,1,1,30,0,0
35818,-142.857142857143,4,1,1,30,0,0
35867,-76.9230769230769,4,1,1,30,0,0
35917,-142.857142857143,4,1,1,30,0,0
35965,-76.9230769230769,4,1,1,30,0,0
36015,-142.857142857143,4,1,1,30,0,0
36064,-76.9230769230769,4,1,1,30,0,0
36114,-142.857142857143,4,1,1,30,0,0
36163,-76.9230769230769,4,1,1,30,0,0
36213,-142.857142857143,4,1,1,30,0,0
36261,-76.9230769230769,4,1,1,30,0,0
36311,-142.857142857143,4,1,1,30,0,0
36360,-76.9230769230769,4,1,1,30,0,0
36410,-142.857142857143,4,1,1,30,0,0
36459,-76.9230769230769,4,1,1,30,0,0
36509,-142.857142857143,4,1,1,30,0,0
36558,-76.9230769230769,4,1,1,30,0,0
36608,-142.857142857143,4,1,1,30,0,0
36656,-76.9230769230769,4,1,1,30,0,0
36706,-142.857142857143,4,1,1,30,0,0
36755,-100,4,1,1,30,0,0
38531,-55.5555555555556,4,1,1,30,0,0
38556,-500,4,1,1,30,0,0
38581,-55.5555555555556,4,1,1,30,0,0
38606,-500,4,1,1,30,0,0
38630,-55.5555555555556,4,1,1,30,0,0
38655,-500,4,1,1,30,0,0
38679,-55.5555555555556,4,1,1,30,0,0
38704,-500,4,1,1,30,0,0
38729,-55.5555555555556,4,1,1,30,0,0
38754,-500,4,1,1,30,0,0
38778,-55.5555555555556,4,1,1,30,0,0
38803,-500,4,1,1,30,0,0
38827,-55.5555555555556,4,1,1,30,0,0
38852,-500,4,1,1,30,0,0
38877,-55.5555555555556,4,1,1,30,0,0
38902,-500,4,1,1,30,0,0
38926,-55.5555555555556,4,1,1,30,0,0
38951,-500,4,1,1,30,0,0
38975,-55.5555555555556,4,1,1,30,0,0
39000,-500,4,1,1,30,0,0
39025,-55.5555555555556,4,1,1,30,0,0
39050,-500,4,1,1,30,0,0
39074,-55.5555555555556,4,1,1,30,0,0
39099,-500,4,1,1,30,0,0
39123,-55.5555555555556,4,1,1,30,0,0
39148,-500,4,1,1,30,0,0
39173,-55.5555555555556,4,1,1,30,0,0
39198,-500,4,1,1,30,0,0
39222,-55.5555555555556,4,1,1,30,0,0
39247,-500,4,1,1,30,0,0
39271,-55.5555555555556,4,1,1,30,0,0
39296,-500,4,1,1,30,0,0
39321,-55.5555555555556,4,1,1,30,0,0
39346,-500,4,1,1,30,0,0
39370,-55.5555555555556,4,1,1,30,0,0
39395,-500,4,1,1,30,0,0
39419,-55.5555555555556,4,1,1,30,0,0
39444,-500,4,1,1,30,0,0
39469,-55.5555555555556,4,1,1,30,0,0
39494,-500,4,1,1,30,0,0
39518,-55.5555555555556,4,1,1,30,0,0
39543,-500,4,1,1,30,0,0
39567,-55.5555555555556,4,1,1,30,0,0
39592,-500,4,1,1,30,0,0
39617,-55.5555555555556,4,1,1,30,0,0
39666,-1000,4,1,1,30,0,0
39715,-20,4,1,1,30,0,0
39740,-131.578947368421,4,1,1,30,0,0
40110,-66.6666666666667,4,1,1,30,0,1
40209,-200,4,1,1,30,0,1
40308,-100,4,1,1,30,0,1
40900,-66.6666666666667,4,1,1,30,0,1
40949,-200,4,1,1,30,0,1
40998,-66.6666666666667,4,1,1,30,0,1
41047,-200,4,1,1,30,0,1
41097,-66.6666666666667,4,1,1,30,0,1
41146,-200,4,1,1,30,0,1
41196,-66.6666666666667,4,1,1,30,0,1
41245,-200,4,1,1,30,0,1
41294,-100,4,1,1,30,0,1
41492,-50,4,1,1,30,0,1
41516,-131.578947368421,4,1,1,30,0,1
41689,-66.6666666666667,4,1,1,30,0,1
41738,-200,4,1,1,30,0,1
41788,-66.6666666666667,4,1,1,30,0,1
41837,-200,4,1,1,30,0,1
41886,-66.6666666666667,4,1,1,30,0,1
41935,-200,4,1,1,30,0,1
41985,-66.6666666666667,4,1,1,30,0,1
42034,-200,4,1,1,30,0,1
42084,-66.6666666666667,4,1,1,30,0,1
42133,-200,4,1,1,30,0,1
42183,-66.6666666666667,4,1,1,30,0,1
42232,-200,4,1,1,30,0,1
42281,-66.6666666666667,4,1,1,30,0,1
42330,-200,4,1,1,30,0,1
42380,-66.6666666666667,4,1,1,30,0,1
42429,-200,4,1,1,30,0,1
42479,-50,4,1,1,30,0,1
42503,-131.578947368421,4,1,1,30,0,1
42676,-100,4,1,1,30,0,1
43071,-50,4,1,1,30,0,1
43095,-131.578947368421,4,1,1,30,0,1
43268,-66.6666666666667,4,1,1,30,0,1
43367,-200,4,1,1,30,0,1
43466,-100,4,1,1,30,0,1
43663,-66.6666666666667,4,1,1,30,0,1
43712,-200,4,1,1,30,0,1
43761,-66.6666666666667,4,1,1,30,0,1
43810,-200,4,1,1,30,0,1
43860,-66.6666666666667,4,1,1,30,0,1
43909,-200,4,1,1,30,0,1
43959,-66.6666666666667,4,1,1,30,0,1
44008,-200,4,1,1,30,0,1
44057,-100,4,1,1,30,0,1
44452,-66.6666666666667,4,1,1,30,0,1
44501,-200,4,1,1,30,0,1
44550,-66.6666666666667,4,1,1,30,0,1
44599,-200,4,1,1,30,0,1
44649,-66.6666666666667,4,1,1,30,0,1
44698,-200,4,1,1,30,0,1
44748,-66.6666666666667,4,1,1,30,0,1
44797,-200,4,1,1,30,0,1
44846,-66.6666666666667,4,1,1,30,0,1
44946,-133.333333333333,4,1,1,30,0,1
45143,-66.6666666666667,4,1,1,30,0,1
45243,-133.333333333333,4,1,1,30,0,1
45439,-66.6666666666667,4,1,1,30,0,1
45539,-133.333333333333,4,1,1,30,0,1
45636,-66.6666666666667,4,1,1,30,0,1
45685,-200,4,1,1,30,0,1
45734,-66.6666666666667,4,1,1,30,0,1
45783,-200,4,1,1,30,0,1
45833,-66.6666666666667,4,1,1,30,0,1
45882,-200,4,1,1,30,0,1
45932,-66.6666666666667,4,1,1,30,0,1
45981,-200,4,1,1,30,0,1
46031,-66.6666666666667,4,1,1,30,0,1
46080,-200,4,1,1,30,0,1
46129,-66.6666666666667,4,1,1,30,0,1
46178,-200,4,1,1,30,0,1
46228,-66.6666666666667,4,1,1,30,0,1
46277,-200,4,1,1,30,0,1
46327,-66.6666666666667,4,1,1,30,0,1
46376,-200,4,1,1,30,0,1
46426,-100,4,1,1,30,0,1
46491,-66.6666666666667,4,1,1,30,0,1
46524,-200,4,1,1,30,0,1
46557,-100,4,1,1,30,0,1
46623,-66.6666666666667,4,1,1,30,0,1
46656,-200,4,1,1,30,0,1
46689,-100,4,1,1,30,0,1
46755,-66.6666666666667,4,1,1,30,0,1
46788,-200,4,1,1,30,0,1
46821,-100,4,1,1,30,0,1
47215,-52.6315789473684,4,1,1,30,0,1
47240,-1000,4,1,1,30,0,1
47264,-52.6315789473684,4,1,1,30,0,1
47289,-1000,4,1,1,30,0,1
47314,-52.6315789473684,4,1,1,30,0,1
47339,-1000,4,1,1,30,0,1
47363,-52.6315789473684,4,1,1,30,0,1
47388,-1000,4,1,1,30,0,1
47412,-52.6315789473684,4,1,1,30,0,1
47437,-1000,4,1,1,30,0,1
47462,-52.6315789473684,4,1,1,30,0,1
47487,-1000,4,1,1,30,0,1
47511,-52.6315789473684,4,1,1,30,0,1
47536,-1000,4,1,1,30,0,1
47560,-52.6315789473684,4,1,1,30,0,1
47585,-1000,4,1,1,30,0,1
47610,-100,4,1,1,30,0,1
48005,-35.7142857142857,4,1,1,30,0,1
48030,-100,4,1,1,30,0,1
48794,-66.6666666666667,4,1,1,30,0,1
48843,-200,4,1,1,30,0,1
48892,-66.6666666666667,4,1,1,30,0,1
48941,-200,4,1,1,30,0,1
48991,-66.6666666666667,4,1,1,30,0,1
49040,-200,4,1,1,30,0,1
49090,-66.6666666666667,4,1,1,30,0,1
49139,-200,4,1,1,30,0,1
49189,-66.6666666666667,4,1,1,30,0,1
49238,-200,4,1,1,30,0,1
49287,-66.6666666666667,4,1,1,30,0,1
49336,-200,4,1,1,30,0,1
49386,-66.6666666666667,4,1,1,30,0,1
49435,-200,4,1,1,30,0,1
49485,-66.6666666666667,4,1,1,30,0,1
49534,-200,4,1,1,30,0,1
49584,-55.5555555555556,4,1,1,30,0,0
49633,-500,4,1,1,30,0,0
49683,-100,4,1,1,30,0,0
50176,-55.5555555555556,4,1,1,30,0,0
50225,-500,4,1,1,30,0,0
50275,-100,4,1,1,30,0,0
50768,-55.5555555555556,4,1,1,30,0,0
50817,-500,4,1,1,30,0,0
50867,-100,4,1,1,30,0,0
51952,-66.6666666666667,4,1,1,30,0,0
52001,-200,4,1,1,30,0,0
52050,-66.6666666666667,4,1,1,30,0,0
52099,-200,4,1,1,30,0,0
52149,-66.6666666666667,4,1,1,30,0,0
52198,-200,4,1,1,30,0,0
52248,-66.6666666666667,4,1,1,30,0,0
52297,-200,4,1,1,30,0,0
52347,-66.6666666666667,4,1,1,30,0,0
52396,-200,4,1,1,30,0,0
52445,-66.6666666666667,4,1,1,30,0,0
52494,-200,4,1,1,30,0,0
52544,-66.6666666666667,4,1,1,30,0,0
52593,-200,4,1,1,30,0,0
52643,-66.6666666666667,4,1,1,30,0,0
52692,-200,4,1,1,30,0,0
52742,-66.6666666666667,4,1,1,30,0,1
52841,-200,4,1,1,30,0,1
52939,-66.6666666666667,4,1,1,30,0,1
53038,-200,4,1,1,30,0,1
53137,-100,4,1,1,30,0,1
53926,-52.6315789473684,4,1,1,30,0,1
53951,-1000,4,1,1,30,0,1
53975,-52.6315789473684,4,1,1,30,0,1
54000,-1000,4,1,1,30,0,1
54025,-52.6315789473684,4,1,1,30,0,1
54050,-1000,4,1,1,30,0,1
54074,-52.6315789473684,4,1,1,30,0,1
54099,-1000,4,1,1,30,0,1
54123,-52.6315789473684,4,1,1,30,0,1
54148,-1000,4,1,1,30,0,1
54173,-52.6315789473684,4,1,1,30,0,1
54198,-1000,4,1,1,30,0,1
54222,-52.6315789473684,4,1,1,30,0,1
54247,-1000,4,1,1,30,0,1
54271,-52.6315789473684,4,1,1,30,0,1
54296,-1000,4,1,1,30,0,1
54321,-66.6666666666667,4,1,1,30,0,1
54420,-200,4,1,1,30,0,1
54519,-100,4,1,1,30,0,1
54715,-66.6666666666667,4,1,1,30,0,1
54814,-200,4,1,1,30,0,1
54913,-100,4,1,1,30,0,1
56689,-66.6666666666667,4,1,1,30,0,1
56788,-200,4,1,1,30,0,1
56886,-66.6666666666667,4,1,1,30,0,1
56936,-200,4,1,1,30,0,1
56985,-66.6666666666667,4,1,1,30,0,1
57035,-200,4,1,1,30,0,1
57084,-66.6666666666667,4,1,1,30,0,1
57134,-200,4,1,1,30,0,1
57183,-66.6666666666667,4,1,1,30,0,1
57233,-200,4,1,1,30,0,1
57281,-66.6666666666667,4,1,1,30,0,1
57380,-200,4,1,1,30,0,1
57479,-100,4,1,1,30,0,1
57544,-66.6666666666667,4,1,1,30,0,1
57577,-200,4,1,1,30,0,1
57610,-100,4,1,1,30,0,1
57676,-66.6666666666667,4,1,1,30,0,1
57709,-200,4,1,1,30,0,1
57742,-100,4,1,1,30,0,1
57808,-66.6666666666667,4,1,1,30,0,1
57841,-200,4,1,1,30,0,1
57874,-66.6666666666667,4,1,1,30,0,1
57939,-200,4,1,1,30,0,1
58005,-66.6666666666667,4,1,1,30,0,1
58070,-200,4,1,1,30,0,1
58136,-66.6666666666667,4,1,1,30,0,1
58201,-200,4,1,1,30,0,1
58268,-100,4,1,1,30,0,1
58334,-66.6666666666667,4,1,1,30,0,1
58367,-200,4,1,1,30,0,1
58400,-100,4,1,1,30,0,1
58465,-66.6666666666667,4,1,1,30,0,1
58498,-200,4,1,1,30,0,1
58531,-100,4,1,1,30,0,1
58597,-66.6666666666667,4,1,1,30,0,1
58630,-200,4,1,1,30,0,1
58663,-66.6666666666667,4,1,1,30,0,1
58728,-200,4,1,1,30,0,1
58794,-66.6666666666667,4,1,1,30,0,1
58859,-200,4,1,1,30,0,1
58926,-66.6666666666667,4,1,1,30,0,1
58991,-200,4,1,1,30,0,1
59058,-100,4,1,1,30,0,1
62215,-55.5555555555556,4,1,1,30,0,0
62264,-500,4,1,1,30,0,0
62314,-100,4,1,1,30,0,0
62808,-55.5555555555556,4,1,1,30,0,0
62857,-500,4,1,1,30,0,0
62907,-100,4,1,1,30,0,0
63400,-55.5555555555556,4,1,1,30,0,0
63449,-500,4,1,1,30,0,0
63499,-100,4,1,1,30,0,0
64584,-66.6666666666667,4,1,1,30,0,0
64683,-133.333333333333,4,1,1,30,0,0
64880,-66.6666666666667,4,1,1,30,0,0
64979,-133.333333333333,4,1,1,30,0,0
65176,-66.6666666666667,4,1,1,30,0,0
65275,-200,4,1,1,30,0,0
65373,-100,4,1,1,30,0,0
78005,-125,4,1,1,30,0,0
84099,-123.456790123457,4,1,1,30,0,0
84123,-121.951219512195,4,1,1,30,0,0
84148,-120.481927710843,4,1,1,30,0,0
84173,-119.047619047619,4,1,1,30,0,0
84197,-117.647058823529,4,1,1,30,0,0
84222,-116.279069767442,4,1,1,30,0,0
84247,-114.942528735632,4,1,1,30,0,0
84271,-113.636363636364,4,1,1,30,0,0
84296,-112.359550561798,4,1,1,30,0,0
84321,-111.111111111111,4,1,1,30,0,0
87257,-109.89010989011,4,1,1,30,0,0
87281,-108.695652173913,4,1,1,30,0,0
87306,-107.52688172043,4,1,1,30,0,0
87331,-106.382978723404,4,1,1,30,0,0
87355,-105.263157894737,4,1,1,30,0,0
87380,-104.166666666667,4,1,1,30,0,0
87405,-103.092783505155,4,1,1,30,0,0
87429,-102.040816326531,4,1,1,30,0,0
87454,-101.010101010101,4,1,1,30,0,0
87479,-100,4,1,1,30,0,0
90636,-66.6666666666667,4,1,1,30,0,0
90735,-200,4,1,1,30,0,0
90834,-66.6666666666667,4,1,1,30,0,0
90883,-200,4,1,1,30,0,0
90933,-66.6666666666667,4,1,1,30,0,0
90982,-200,4,1,1,30,0,0
91031,-66.6666666666667,4,1,1,30,0,0
91130,-200,4,1,1,30,0,0
91229,-66.6666666666667,4,1,1,30,0,0
91278,-200,4,1,1,30,0,0
91327,-66.6666666666667,4,1,1,30,0,0
91376,-200,4,1,1,30,0,0
91426,-66.6666666666667,4,1,1,30,0,0
91475,-200,4,1,1,30,0,0
91525,-66.6666666666667,4,1,1,30,0,0
91574,-200,4,1,1,30,0,0
91623,-66.6666666666667,4,1,1,30,0,0
91722,-200,4,1,1,30,0,0
91821,-66.6666666666667,4,1,1,30,0,0
91919,-200,4,1,1,30,0,0
92018,-66.6666666666667,4,1,1,30,0,0
92117,-200,4,1,1,30,0,0
92215,-66.6666666666667,4,1,1,30,0,1
92314,-200,4,1,1,30,0,1
92413,-100,4,1,1,30,0,1
92610,-50,4,1,1,30,0,1
92635,-131.578947368421,4,1,1,30,0,1
92808,-100,4,1,1,30,0,1
93005,-66.6666666666667,4,1,1,30,0,1
93054,-200,4,1,1,30,0,1
93103,-66.6666666666667,4,1,1,30,0,1
93152,-200,4,1,1,30,0,1
93202,-66.6666666666667,4,1,1,30,0,1
93251,-200,4,1,1,30,0,1
93301,-66.6666666666667,4,1,1,30,0,1
93350,-200,4,1,1,30,0,1
93399,-100,4,1,1,30,0,1
93597,-35.7142857142857,4,1,1,30,0,1
93622,-100,4,1,1,30,0,1
94584,-66.6666666666667,4,1,1,30,0,1
94633,-200,4,1,1,30,0,1
94682,-66.6666666666667,4,1,1,30,0,1
94731,-200,4,1,1,30,0,1
94781,-100,4,1,1,30,0,1
95176,-50,4,1,1,30,0,1
95200,-131.578947368421,4,1,1,30,0,1
95373,-66.6666666666667,4,1,1,30,0,1
95472,-200,4,1,1,30,0,1
95571,-100,4,1,1,30,0,1
96163,-66.6666666666667,4,1,1,30,0,1
96262,-200,4,1,1,30,0,1
96361,-100,4,1,1,30,0,1
96952,-66.6666666666667,4,1,1,30,0,1
97051,-200,4,1,1,30,0,1
97150,-100,4,1,1,30,0,1
97742,-66.6666666666667,4,1,1,30,0,1
97841,-200,4,1,1,30,0,1
97940,-100,4,1,1,30,0,1
98531,-100,4,1,1,30,0,1
98596,-66.6666666666667,4,1,1,30,0,1
98629,-200,4,1,1,30,0,1
98662,-100,4,1,1,30,0,1
98728,-66.6666666666667,4,1,1,30,0,1
98761,-200,4,1,1,30,0,1
98794,-100,4,1,1,30,0,1
98860,-66.6666666666667,4,1,1,30,0,1
98893,-200,4,1,1,30,0,1
98926,-100,4,1,1,30,0,1
99320,-52.6315789473684,4,1,1,30,0,1
99345,-1000,4,1,1,30,0,1
99369,-52.6315789473684,4,1,1,30,0,1
99394,-1000,4,1,1,30,0,1
99419,-52.6315789473684,4,1,1,30,0,1
99444,-1000,4,1,1,30,0,1
99468,-52.6315789473684,4,1,1,30,0,1
99493,-1000,4,1,1,30,0,1
99517,-52.6315789473684,4,1,1,30,0,1
99542,-1000,4,1,1,30,0,1
99567,-52.6315789473684,4,1,1,30,0,1
99592,-1000,4,1,1,30,0,1
99616,-52.6315789473684,4,1,1,30,0,1
99641,-1000,4,1,1,30,0,1
99665,-52.6315789473684,4,1,1,30,0,1
99690,-1000,4,1,1,30,0,1
99715,-100,4,1,1,30,0,1
100110,-66.6666666666667,4,1,1,30,0,1
100159,-200,4,1,1,30,0,1
100208,-66.6666666666667,4,1,1,30,0,1
100257,-200,4,1,1,30,0,1
100308,-66.6666666666667,4,1,1,30,0,1
100357,-200,4,1,1,30,0,1
100406,-66.6666666666667,4,1,1,30,0,1
100455,-200,4,1,1,30,0,1
100505,-66.6666666666667,4,1,1,30,0,1
100554,-200,4,1,1,30,0,1
100603,-66.6666666666667,4,1,1,30,0,1
100652,-200,4,1,1,30,0,1
100702,-66.6666666666667,4,1,1,30,0,1
100751,-200,4,1,1,30,0,1
100800,-66.6666666666667,4,1,1,30,0,1
100849,-200,4,1,1,30,0,1
100900,-52.6315789473684,4,1,1,30,0,1
100924,-1000,4,1,1,30,0,1
100949,-52.6315789473684,4,1,1,30,0,1
100973,-1000,4,1,1,30,0,1
100998,-52.6315789473684,4,1,1,30,0,1
101022,-1000,4,1,1,30,0,1
101048,-52.6315789473684,4,1,1,30,0,1
101072,-1000,4,1,1,30,0,1
101097,-52.6315789473684,4,1,1,30,0,1
101121,-1000,4,1,1,30,0,1
101146,-52.6315789473684,4,1,1,30,0,1
101170,-1000,4,1,1,30,0,1
101196,-52.6315789473684,4,1,1,30,0,1
101220,-1000,4,1,1,30,0,1
101245,-52.6315789473684,4,1,1,30,0,1
101269,-1000,4,1,1,30,0,1
101294,-100,4,1,1,30,0,0
103268,-66.6666666666667,4,1,1,30,0,0
103367,-200,4,1,1,30,0,0
103465,-66.6666666666667,4,1,1,30,0,0
103515,-200,4,1,1,30,0,0
103564,-66.6666666666667,4,1,1,30,0,0
103712,-200,4,1,1,30,0,0
103860,-66.6666666666667,4,1,1,30,0,0
103959,-200,4,1,1,30,0,0
104058,-100,4,1,1,30,0,0
104255,-66.6666666666667,4,1,1,30,0,0
104353,-200,4,1,1,30,0,0
104452,-66.6666666666667,4,1,1,30,0,0
104502,-200,4,1,1,30,0,0
104550,-66.6666666666667,4,1,1,30,0,0
104600,-200,4,1,1,30,0,0
104650,-66.6666666666667,4,1,1,30,0,0
104748,-200,4,1,1,30,0,0
104847,-66.6666666666667,4,1,1,30,0,1
104946,-200,4,1,1,30,0,1
105044,-66.6666666666667,4,1,1,30,0,1
105143,-200,4,1,1,30,0,1
105242,-66.6666666666667,4,1,1,30,0,1
105291,-200,4,1,1,30,0,1
105340,-66.6666666666667,4,1,1,30,0,1
105389,-200,4,1,1,30,0,1
105439,-66.6666666666667,4,1,1,30,0,1
105488,-200,4,1,1,30,0,1
105537,-66.6666666666667,4,1,1,30,0,1
105586,-200,4,1,1,30,0,1
105636,-66.6666666666667,4,1,1,30,0,1
105685,-200,4,1,1,30,0,1
105734,-66.6666666666667,4,1,1,30,0,1
105783,-200,4,1,1,30,0,1
105834,-66.6666666666667,4,1,1,30,0,1
105883,-200,4,1,1,30,0,1
105932,-66.6666666666667,4,1,1,30,0,1
105981,-200,4,1,1,30,0,1
106031,-52.6315789473684,4,1,1,30,0,1
106056,-1000,4,1,1,30,0,1
106080,-52.6315789473684,4,1,1,30,0,1
106105,-1000,4,1,1,30,0,1
106130,-52.6315789473684,4,1,1,30,0,1
106155,-1000,4,1,1,30,0,1
106179,-52.6315789473684,4,1,1,30,0,1
106204,-1000,4,1,1,30,0,1
106228,-52.6315789473684,4,1,1,30,0,1
106253,-1000,4,1,1,30,0,1
106278,-52.6315789473684,4,1,1,30,0,1
106303,-1000,4,1,1,30,0,1
106327,-52.6315789473684,4,1,1,30,0,1
106352,-1000,4,1,1,30,0,1
106376,-52.6315789473684,4,1,1,30,0,1
106401,-1000,4,1,1,30,0,1
106426,-66.6666666666667,4,1,1,30,0,1
106525,-200,4,1,1,30,0,1
106623,-100,4,1,1,30,0,1
106821,-66.6666666666667,4,1,1,30,0,1
106920,-200,4,1,1,30,0,1
107018,-100,4,1,1,30,0,1
107215,-66.6666666666667,4,1,1,30,0,1
107264,-200,4,1,1,30,0,1
107313,-66.6666666666667,4,1,1,30,0,1
107362,-200,4,1,1,30,0,1
107412,-66.6666666666667,4,1,1,30,0,1
107461,-200,4,1,1,30,0,1
107511,-66.6666666666667,4,1,1,30,0,1
107560,-200,4,1,1,30,0,1
107610,-52.6315789473684,4,1,1,30,0,1
107635,-1000,4,1,1,30,0,1
107659,-52.6315789473684,4,1,1,30,0,1
107684,-1000,4,1,1,30,0,1
107709,-52.6315789473684,4,1,1,30,0,1
107734,-1000,4,1,1,30,0,1
107758,-52.6315789473684,4,1,1,30,0,1
107783,-1000,4,1,1,30,0,1
107807,-52.6315789473684,4,1,1,30,0,1
107832,-1000,4,1,1,30,0,1
107857,-52.6315789473684,4,1,1,30,0,1
107882,-1000,4,1,1,30,0,1
107906,-52.6315789473684,4,1,1,30,0,1
107931,-1000,4,1,1,30,0,1
107955,-52.6315789473684,4,1,1,30,0,1
107980,-1000,4,1,1,30,0,1
108005,-100,4,1,1,30,0,1
108202,-50,4,1,1,30,0,1
108227,-131.578947368421,4,1,1,30,0,1
108400,-100,4,1,1,30,0,1
109189,-52.6315789473684,4,1,1,30,0,1
109214,-1000,4,1,1,30,0,1
109238,-52.6315789473684,4,1,1,30,0,1
109263,-1000,4,1,1,30,0,1
109288,-52.6315789473684,4,1,1,30,0,1
109313,-1000,4,1,1,30,0,1
109337,-52.6315789473684,4,1,1,30,0,1
109362,-1000,4,1,1,30,0,1
109386,-52.6315789473684,4,1,1,30,0,1
109411,-1000,4,1,1,30,0,1
109436,-52.6315789473684,4,1,1,30,0,1
109461,-1000,4,1,1,30,0,1
109485,-52.6315789473684,4,1,1,30,0,1
109510,-1000,4,1,1,30,0,1
109534,-52.6315789473684,4,1,1,30,0,1
109559,-1000,4,1,1,30,0,1
109584,-52.6315789473684,4,1,1,30,0,1
109609,-1000,4,1,1,30,0,1
109633,-52.6315789473684,4,1,1,30,0,1
109658,-1000,4,1,1,30,0,1
109683,-52.6315789473684,4,1,1,30,0,1
109708,-1000,4,1,1,30,0,1
109732,-52.6315789473684,4,1,1,30,0,1
109757,-1000,4,1,1,30,0,1
109781,-52.6315789473684,4,1,1,30,0,1
109806,-1000,4,1,1,30,0,1
109831,-52.6315789473684,4,1,1,30,0,1
109856,-1000,4,1,1,30,0,1
109880,-52.6315789473684,4,1,1,30,0,1
109905,-1000,4,1,1,30,0,1
109929,-52.6315789473684,4,1,1,30,0,1
109954,-1000,4,1,1,30,0,1
109979,-100,4,1,1,30,0,1
111952,-52.6315789473684,4,1,1,30,0,1
111977,-1000,4,1,1,30,0,1
112001,-52.6315789473684,4,1,1,30,0,1
112026,-1000,4,1,1,30,0,1
112051,-52.6315789473684,4,1,1,30,0,1
112076,-1000,4,1,1,30,0,1
112100,-52.6315789473684,4,1,1,30,0,1
112125,-1000,4,1,1,30,0,1
112149,-52.6315789473684,4,1,1,30,0,1
112174,-1000,4,1,1,30,0,1
112199,-52.6315789473684,4,1,1,30,0,1
112224,-1000,4,1,1,30,0,1
112248,-52.6315789473684,4,1,1,30,0,1
112273,-1000,4,1,1,30,0,1
112297,-52.6315789473684,4,1,1,30,0,1
112322,-1000,4,1,1,30,0,1
112347,-52.6315789473684,4,1,1,30,0,1
112372,-1000,4,1,1,30,0,1
112396,-52.6315789473684,4,1,1,30,0,1
112421,-1000,4,1,1,30,0,1
112446,-52.6315789473684,4,1,1,30,0,1
112471,-1000,4,1,1,30,0,1
112495,-52.6315789473684,4,1,1,30,0,1
112520,-1000,4,1,1,30,0,1
112544,-52.6315789473684,4,1,1,30,0,1
112569,-1000,4,1,1,30,0,1
112594,-52.6315789473684,4,1,1,30,0,1
112619,-1000,4,1,1,30,0,1
112643,-52.6315789473684,4,1,1,30,0,1
112668,-1000,4,1,1,30,0,1
112692,-52.6315789473684,4,1,1,30,0,1
112717,-1000,4,1,1,30,0,1
112742,-100,4,1,1,30,0,1
114321,-55.5555555555556,4,1,1,30,0,0
114370,-500,4,1,1,30,0,0
114419,-100,4,1,1,30,0,0
114913,-55.5555555555556,4,1,1,30,0,0
114962,-500,4,1,1,30,0,0
115011,-100,4,1,1,30,0,0
115505,-55.5555555555556,4,1,1,30,0,0
115554,-500,4,1,1,30,0,0
115603,-100,4,1,1,30,0,0
116689,-66.6666666666667,4,1,1,30,0,0
116788,-200,4,1,1,30,0,0
116886,-66.6666666666667,4,1,1,30,0,0
116985,-200,4,1,1,30,0,0
117084,-66.6666666666667,4,1,1,30,0,0
117183,-200,4,1,1,30,0,0
117281,-66.6666666666667,4,1,1,30,0,0
117380,-200,4,1,1,30,0,0
117479,-66.6666666666667,4,1,1,30,0,0
117577,-200,4,1,1,30,0,0
117676,-100,4,1,1,30,0,0
118268,-66.6666666666667,4,1,1,30,0,0
118317,-200,4,1,1,30,0,0
118366,-66.6666666666667,4,1,1,30,0,0
118415,-200,4,1,1,30,0,0
118465,-66.6666666666667,4,1,1,30,0,0
118514,-200,4,1,1,30,0,0
118563,-66.6666666666667,4,1,1,30,0,0
118612,-200,4,1,1,30,0,0
118663,-100,4,1,1,30,0,0
118860,-50,4,1,1,30,0,0
118885,-131.578947368421,4,1,1,30,0,0
119058,-66.6666666666667,4,1,1,30,0,0
119107,-200,4,1,1,30,0,0
119156,-66.6666666666667,4,1,1,30,0,0
119205,-200,4,1,1,30,0,0
119255,-66.6666666666667,4,1,1,30,0,0
119304,-200,4,1,1,30,0,0
119354,-66.6666666666667,4,1,1,30,0,0
119403,-200,4,1,1,30,0,0
119452,-66.6666666666667,4,1,1,30,0,0
119501,-200,4,1,1,30,0,0
119551,-66.6666666666667,4,1,1,30,0,0
119600,-200,4,1,1,30,0,0
119650,-66.6666666666667,4,1,1,30,0,0
119699,-200,4,1,1,30,0,0
119748,-66.6666666666667,4,1,1,30,0,0
119797,-200,4,1,1,30,0,0
119847,-100,4,1,1,30,0,0
120439,-50,4,1,1,30,0,0
120464,-131.578947368421,4,1,1,30,0,0
120636,-66.6666666666667,4,1,1,30,0,0
120735,-200,4,1,1,30,0,0
120834,-66.6666666666667,4,1,1,30,0,0
120933,-200,4,1,1,30,0,0
121031,-66.6666666666667,4,1,1,30,0,0
121081,-200,4,1,1,30,0,0
121130,-66.6666666666667,4,1,1,30,0,0
121180,-200,4,1,1,30,0,0
121229,-66.6666666666667,4,1,1,30,0,0
121279,-200,4,1,1,30,0,0
121327,-66.6666666666667,4,1,1,30,0,0
121377,-200,4,1,1,30,0,0
121426,-100,4,1,1,30,0,0
121821,-66.6666666666667,4,1,1,30,0,0
121871,-200,4,1,1,30,0,0
121919,-66.6666666666667,4,1,1,30,0,0
121969,-200,4,1,1,30,0,0
122018,-66.6666666666667,4,1,1,30,0,0
122068,-200,4,1,1,30,0,0
122117,-66.6666666666667,4,1,1,30,0,0
122167,-200,4,1,1,30,0,0
122215,-66.6666666666667,4,1,1,30,0,0
122314,-200,4,1,1,30,0,0
122413,-66.6666666666667,4,1,1,30,0,0
122463,-200,4,1,1,30,0,0
122511,-66.6666666666667,4,1,1,30,0,0
122561,-200,4,1,1,30,0,0
122610,-66.6666666666667,4,1,1,30,0,0
122660,-200,4,1,1,30,0,0
122709,-66.6666666666667,4,1,1,30,0,0
122759,-200,4,1,1,30,0,0
122808,-66.6666666666667,4,1,1,30,0,0
122858,-200,4,1,1,30,0,0
122906,-66.6666666666667,4,1,1,30,0,0
122956,-200,4,1,1,30,0,0
123005,-100,4,1,1,30,0,0
123794,-100,4,1,1,30,0,0
123859,-66.6666666666667,4,1,1,30,0,0
123892,-200,4,1,1,30,0,0
123925,-100,4,1,1,30,0,0
123991,-66.6666666666667,4,1,1,30,0,0
124024,-200,4,1,1,30,0,0
124057,-100,4,1,1,30,0,0
124123,-66.6666666666667,4,1,1,30,0,0
124156,-200,4,1,1,30,0,0
124189,-100,4,1,1,30,0,0
124583,-52.6315789473684,4,1,1,30,0,0
124608,-1000,4,1,1,30,0,0
124632,-52.6315789473684,4,1,1,30,0,0
124657,-1000,4,1,1,30,0,0
124682,-52.6315789473684,4,1,1,30,0,0
124707,-1000,4,1,1,30,0,0
124731,-52.6315789473684,4,1,1,30,0,0
124756,-1000,4,1,1,30,0,0
124780,-52.6315789473684,4,1,1,30,0,0
124805,-1000,4,1,1,30,0,0
124830,-52.6315789473684,4,1,1,30,0,0
124855,-1000,4,1,1,30,0,0
124879,-52.6315789473684,4,1,1,30,0,0
124904,-1000,4,1,1,30,0,0
124928,-52.6315789473684,4,1,1,30,0,0
124953,-1000,4,1,1,30,0,0
124978,-66.6666666666667,4,1,1,30,0,0
125077,-200,4,1,1,30,0,0
125176,-66.6666666666667,4,1,1,30,0,0
125275,-200,4,1,1,30,0,0
125373,-50,4,1,1,30,0,0
125398,-131.578947368421,4,1,1,30,0,0
125571,-100,4,1,1,30,0,0
126163,-66.6666666666667,4,1,1,30,0,0
126212,-200,4,1,1,30,0,0
126261,-66.6666666666667,4,1,1,30,0,0
126310,-200,4,1,1,30,0,0
126360,-66.6666666666667,4,1,1,30,0,0
126409,-200,4,1,1,30,0,0
126458,-66.6666666666667,4,1,1,30,0,0
126507,-200,4,1,1,30,0,0
126558,-66.6666666666667,4,1,1,30,0,0
126607,-200,4,1,1,30,0,0
126656,-66.6666666666667,4,1,1,30,0,0
126705,-200,4,1,1,30,0,0
126755,-66.6666666666667,4,1,1,30,0,0
126804,-200,4,1,1,30,0,0
126853,-66.6666666666667,4,1,1,30,0,0
126902,-200,4,1,1,30,0,0
126952,-100,4,1,1,30,0,0
127742,-66.6666666666667,4,1,1,30,0,0
127841,-200,4,1,1,30,0,0
127939,-66.6666666666667,4,1,1,30,0,0
128038,-200,4,1,1,30,0,0
128136,-66.6666666666667,4,1,1,30,0,0
128185,-200,4,1,1,30,0,0
128234,-66.6666666666667,4,1,1,30,0,0
128283,-200,4,1,1,30,0,0
128334,-66.6666666666667,4,1,1,30,0,0
128383,-200,4,1,1,30,0,0
128432,-66.6666666666667,4,1,1,30,0,0
128481,-200,4,1,1,30,0,0
128531,-66.6666666666667,4,1,1,30,0,0
128630,-200,4,1,1,30,0,0
128729,-66.6666666666667,4,1,1,30,0,0
128828,-200,4,1,1,30,0,0
128926,-100,4,1,1,30,0,0
129321,-66.6666666666667,4,1,1,30,0,0
129370,-200,4,1,1,30,0,0
129419,-66.6666666666667,4,1,1,30,0,0
129468,-200,4,1,1,30,0,0
129518,-66.6666666666667,4,1,1,30,0,0
129567,-200,4,1,1,30,0,0
129616,-66.6666666666667,4,1,1,30,0,0
129665,-200,4,1,1,30,0,0
129715,-66.6666666666667,4,1,1,30,0,0
129764,-200,4,1,1,30,0,0
129813,-66.6666666666667,4,1,1,30,0,0
129862,-200,4,1,1,30,0,0
129913,-66.6666666666667,4,1,1,30,0,0
129962,-200,4,1,1,30,0,0
130011,-66.6666666666667,4,1,1,30,0,0
130060,-200,4,1,1,30,0,0
130110,-55.5555555555556,4,1,1,30,0,0
130160,-500,4,1,1,30,0,0
130209,-100,4,1,1,30,0,0
130505,-55.5555555555556,4,1,1,30,0,0
130555,-500,4,1,1,30,0,0
130604,-100,4,1,1,30,0,0
130900,-55.5555555555556,4,1,1,30,0,0
130950,-500,4,1,1,30,0,0
130999,-100,4,1,1,30,0,0
131294,-55.5555555555556,4,1,1,30,0,0
131344,-500,4,1,1,30,0,0
131393,-100,4,1,1,30,0,0
131689,-55.5555555555556,4,1,1,30,0,0
131739,-500,4,1,1,30,0,0
131788,-100,4,1,1,30,0,0
132084,-55.5555555555556,4,1,1,30,0,0
132134,-500,4,1,1,30,0,0
132183,-100,4,1,1,30,0,0
132479,-55.5555555555556,4,1,1,30,0,0
132529,-500,4,1,1,30,0,0
132578,-100,4,1,1,30,0,0
132873,-55.5555555555556,4,1,1,30,0,0
132923,-500,4,1,1,30,0,0
132972,-100,4,1,1,30,0,0
133268,-55.5555555555556,4,1,1,30,0,0
133318,-500,4,1,1,30,0,0
133367,-100,4,1,1,30,0,0
133663,-55.5555555555556,4,1,1,30,0,0
133713,-500,4,1,1,30,0,0
133762,-100,4,1,1,30,0,0
134058,-55.5555555555556,4,1,1,30,0,0
134108,-500,4,1,1,30,0,0
134157,-100,4,1,1,30,0,0
134452,-55.5555555555556,4,1,1,30,0,0
134502,-500,4,1,1,30,0,0
134551,-100,4,1,1,30,0,0
134847,-55.5555555555556,4,1,1,30,0,0
134897,-500,4,1,1,30,0,0
134946,-100,4,1,1,30,0,0
135242,-55.5555555555556,4,1,1,30,0,0
135292,-500,4,1,1,30,0,0
135341,-100,4,1,1,30,0,0
135636,-55.5555555555556,4,1,1,30,0,0
135686,-500,4,1,1,30,0,0
135735,-100,4,1,1,30,0,0
136031,-55.5555555555556,4,1,1,30,0,0
136081,-500,4,1,1,30,0,0
136130,-100,4,1,1,30,0,0
136426,-55.5555555555556,4,1,1,30,0,0
136476,-500,4,1,1,30,0,0
136525,-100,4,1,1,30,0,0
136821,-55.5555555555556,4,1,1,30,0,0
136871,-500,4,1,1,30,0,0
136920,-100,4,1,1,30,0,0
137215,-55.5555555555556,4,1,1,30,0,0
137265,-500,4,1,1,30,0,0
137314,-100,4,1,1,30,0,0
137610,-55.5555555555556,4,1,1,30,0,0
137660,-500,4,1,1,30,0,0
137709,-100,4,1,1,30,0,0
138005,-55.5555555555556,4,1,1,30,0,0
138055,-500,4,1,1,30,0,0
138104,-100,4,1,1,30,0,0
138400,-55.5555555555556,4,1,1,30,0,0
138450,-500,4,1,1,30,0,0
138499,-100,4,1,1,30,0,0
138794,-55.5555555555556,4,1,1,30,0,0
138844,-500,4,1,1,30,0,0
138893,-100,4,1,1,30,0,0
139189,-55.5555555555556,4,1,1,30,0,0
139239,-500,4,1,1,30,0,0
139288,-100,4,1,1,30,0,0
139584,-55.5555555555556,4,1,1,30,0,0
139634,-500,4,1,1,30,0,0
139683,-100,4,1,1,30,0,0
139979,-55.5555555555556,4,1,1,30,0,0
140029,-500,4,1,1,30,0,0
140078,-100,4,1,1,30,0,0
140373,-55.5555555555556,4,1,1,30,0,0
140423,-500,4,1,1,30,0,0
140472,-100,4,1,1,30,0,0
140768,-55.5555555555556,4,1,1,30,0,0
140818,-500,4,1,1,30,0,0
140867,-100,4,1,1,30,0,0
141163,-66.6666666666667,4,1,1,30,0,0
141360,-200,4,1,1,30,0,0
141558,-66.6666666666667,4,1,1,30,0,0
141656,-200,4,1,1,30,0,0
141755,-66.6666666666667,4,1,1,30,0,0
141952,-200,4,1,1,30,0,0
142150,-66.6666666666667,4,1,1,30,0,0
142248,-200,4,1,1,30,0,0
142347,-66.6666666666667,4,1,1,30,0,0
142544,-200,4,1,1,30,0,0
142742,-100,4,1,1,30,0,0

[HitObjects]
64,192,637,5,2,0:0:0:0:
320,192,637,1,4,0:0:0:0:
448,192,1426,1,0,0:0:0:0:
64,192,3005,128,0,3498:0:0:0:0:
64,192,3597,128,0,3794:0:0:0:0:
448,192,3794,128,2,4584:0:0:0:0:
192,192,3794,128,0,3893:0:0:0:0:
192,192,4090,128,0,4189:0:0:0:0:
192,192,4386,128,0,4485:0:0:0:0:
64,192,4584,1,0,0:0:0:0:
320,192,4979,1,0,0:0:0:0:
448,192,5003,1,0,0:0:0:0:
192,192,5077,1,0,0:0:0:0:
320,192,5373,1,0,0:0:0:0:
448,192,5472,128,0,6558:0:0:0:0:
320,192,6163,128,0,6558:0:0:0:0:
192,192,6360,128,0,6558:0:0:0:0:
64,192,6558,1,0,0:0:0:0:
192,192,6656,1,0,0:0:0:0:
448,192,6952,1,0,0:0:0:0:
320,192,7742,1,0,0:0:0:0:
192,192,8531,1,0,0:0:0:0:
64,192,9321,1,0,0:0:0:0:
448,192,10110,1,0,0:0:0:0:
192,192,10900,1,0,0:0:0:0:
320,192,11689,1,0,0:0:0:0:
64,192,12281,1,2,0:0:0:0:
192,192,12281,1,2,0:0:0:0:
64,192,12380,1,2,0:0:0:0:
192,192,12380,1,2,0:0:0:0:
320,192,12479,128,0,12873:0:0:0:0:
448,192,12479,128,0,12873:0:0:0:0:
192,192,13268,1,0,0:0:0:0:
64,192,13268,128,4,13663:0:0:0:0:
448,192,13268,128,2,13663:0:0:0:0:
320,192,13465,128,0,13663:0:0:0:0:
192,192,13663,128,0,13860:0:0:0:0:
320,192,13860,1,0,0:0:0:0:
64,192,13860,128,2,14255:0:0:0:0:
448,192,13860,128,4,14255:0:0:0:0:
192,192,14255,128,0,14452:0:0:0:0:
64,192,14452,1,2,0:0:0:0:
448,192,14452,1,0,0:0:0:0:
320,192,14452,128,4,15044:0:0:0:0:
192,192,14650,128,0,15044:0:0:0:0:
448,192,15044,128,0,15242:0:0:0:0:
64,192,15242,128,0,15439:0:0:0:0:
320,192,15439,128,0,15636:0:0:0:0:
64,192,15636,128,0,15735:0:0:0:0:
448,192,15636,128,0,15735:0:0:0:0:
192,192,15735,128,0,15834:0:0:0:0:
448,192,15834,128,0,15933:0:0:0:0:
320,192,15834,128,0,15933:0:0:0:0:
192,192,15933,128,0,16031:0:0:0:0:
64,192,16031,128,0,16360:0:0:0:0:
448,192,16031,128,0,16360:0:0:0:0:
320,192,16163,128,0,16360:0:0:0:0:
64,192,16426,1,0,0:0:0:0:
320,192,16426,128,2,16821:0:0:0:0:
448,192,16426,128,4,16821:0:0:0:0:
192,192,16623,128,0,16821:0:0:0:0:
64,192,16821,128,0,17018:0:0:0:0:
192,192,17018,1,0,0:0:0:0:
448,192,17018,128,4,17413:0:0:0:0:
320,192,17018,128,2,17413:0:0:0:0:
192,192,17413,128,0,17610:0:0:0:0:
320,192,17610,1,4,0:0:0:0:
64,192,17610,1,0,0:0:0:0:
448,192,17610,128,2,18202:0:0:0:0:
320,192,17808,128,0,18202:0:0:0:0:
192,192,18202,128,0,18400:0:0:0:0:
64,192,18400,128,0,18597:0:0:0:0:
320,192,18597,128,0,18794:0:0:0:0:
448,192,18794,1,0,0:0:0:0:
64,192,18794,1,0,0:0:0:0:
64,192,18893,1,0,0:0:0:0:
320,192,18992,1,0,0:0:0:0:
320,192,19090,1,0,0:0:0:0:
448,192,19189,1,0,0:0:0:0:
448,192,19288,1,0,0:0:0:0:
192,192,19386,1,0,0:0:0:0:
192,192,19485,1,0,0:0:0:0:
320,192,19584,1,0,0:0:0:0:
64,192,19584,128,2,19979:0:0:0:0:
448,192,19584,128,4,19979:0:0:0:0:
192,192,19781,128,0,19979:0:0:0:0:
320,192,19979,128,0,20176:0:0:0:0:
192,192,20176,1,4,0:0:0:0:
64,192,20176,128,2,20571:0:0:0:0:
448,192,20176,128,0,20571:0:0:0:0:
192,192,20571,128,0,20768:0:0:0:0:
448,192,20768,1,4,0:0:0:0:
64,192,20768,1,0,0:0:0:0:
320,192,20768,128,2,21360:0:0:0:0:
448,192,20965,128,0,21360:0:0:0:0:
64,192,21360,128,0,21952:0:0:0:0:
192,192,21558,128,0,21952:0:0:0:0:
320,192,21755,128,0,21952:0:0:0:0:
448,192,21952,1,0,0:0:0:0:
320,192,22051,1,0,0:0:0:0:
64,192,22150,1,0,0:0:0:0:
192,192,22248,1,0,0:0:0:0:
320,192,22347,1,0,0:0:0:0:
192,192,22446,1,0,0:0:0:0:
448,192,22544,1,0,0:0:0:0:
320,192,22643,1,0,0:0:0:0:
192,192,22742,128,4,23136:0:0:0:0:
64,192,22742,128,2,23136:0:0:0:0:
448,192,22742,1,2,0:0:0:0:
448,192,22939,128,0,23136:0:0:0:0:
320,192,23136,128,0,23334:0:0:0:0:
192,192,23334,1,0,0:0:0:0:
448,192,23334,128,2,23729:0:0:0:0:
64,192,23334,128,4,23729:0:0:0:0:
192,192,23729,128,0,23926:0:0:0:0:
448,192,23926,1,0,0:0:0:0:
320,192,23926,1,4,0:0:0:0:
64,192,23926,128,2,24518:0:0:0:0:
192,192,24123,128,0,24518:0:0:0:0:
448,192,24518,128,0,24715:0:0:0:0:
64,192,24715,128,0,24913:0:0:0:0:
192,192,24913,128,0,25110:0:0:0:0:
448,192,25110,5,8,0:0:0:0:
320,192,25110,1,8,0:0:0:0:
64,192,25110,128,0,25505:0:0:0:0:
192,192,25242,128,0,25505:0:0:0:0:
320,192,25505,128,0,25900:0:0:0:0:
64,192,25900,1,2,0:0:0:0:
192,192,25900,1,4,0:0:0:0:
448,192,25900,1,0,0:0:0:0:
320,192,26097,1,0,0:0:0:0:
192,192,26196,1,0,0:0:0:0:
64,192,26294,1,8,0:0:0:0:
320,192,26294,1,2,0:0:0:0:
448,192,26294,1,2,0:0:0:0:
192,192,26492,1,0,0:0:0:0:
320,192,26590,1,0,0:0:0:0:
64,192,26689,1,2,0:0:0:0:
192,192,26689,1,2,0:0:0:0:
448,192,26689,1,8,0:0:0:0:
448,192,26886,1,0,0:0:0:0:
320,192,26985,1,0,0:0:0:0:
192,192,27084,1,2,0:0:0:0:
64,192,27084,1,2,0:0:0:0:
448,192,27084,1,8,0:0:0:0:
64,192,27281,1,0,0:0:0:0:
192,192,27380,1,0,0:0:0:0:
64,192,27479,1,8,0:0:0:0:
320,192,27479,1,2,0:0:0:0:
448,192,27479,1,2,0:0:0:0:
320,192,27676,1,0,0:0:0:0:
192,192,27775,1,0,0:0:0:0:
64,192,27873,1,8,0:0:0:0:
320,192,27873,1,2,0:0:0:0:
448,192,27873,1,2,0:0:0:0:
448,192,28071,1,0,0:0:0:0:
320,192,28169,1,0,0:0:0:0:
64,192,28268,128,2,28367:0:0:0:0:
192,192,28268,128,2,28367:0:0:0:0:
448,192,28268,128,8,28367:0:0:0:0:
320,192,28367,128,0,28465:0:0:0:0:
448,192,28465,128,0,28564:0:0:0:0:
64,192,28465,128,0,28564:0:0:0:0:
192,192,28564,128,0,28663:0:0:0:0:
320,192,28663,128,2,28761:0:0:0:0:
448,192,28663,128,2,28761:0:0:0:0:
64,192,28663,128,8,28959:0:0:0:0:
192,192,28761,128,0,28959:0:0:0:0:
448,192,28860,128,0,28959:0:0:0:0:
320,192,28959,128,0,29058:0:0:0:0:
64,192,29058,1,8,0:0:0:0:
192,192,29058,1,2,0:0:0:0:
448,192,29058,1,2,0:0:0:0:
64,192,29255,1,0,0:0:0:0:
320,192,29354,1,0,0:0:0:0:
64,192,29452,1,2,0:0:0:0:
192,192,29452,1,2,0:0:0:0:
448,192,29452,1,8,0:0:0:0:
448,192,29650,1,0,0:0:0:0:
192,192,29748,1,0,0:0:0:0:
320,192,29847,1,2,0:0:0:0:
448,192,29847,1,2,0:0:0:0:
64,192,29847,1,8,0:0:0:0:
320,192,30044,1,0,0:0:0:0:
64,192,30143,1,0,0:0:0:0:
320,192,30242,1,2,0:0:0:0:
192,192,30242,1,2,0:0:0:0:
448,192,30242,1,8,0:0:0:0:
192,192,30439,1,0,0:0:0:0:
448,192,30538,1,0,0:0:0:0:
320,192,30636,1,8,0:0:0:0:
64,192,30636,1,2,0:0:0:0:
192,192,30636,1,2,0:0:0:0:
192,192,30834,1,0,0:0:0:0:
320,192,30933,1,0,0:0:0:0:
448,192,31031,5,8,0:0:0:0:
64,192,31031,1,2,0:0:0:0:
192,192,31031,1,2,0:0:0:0:
448,192,31229,1,0,0:0:0:0:
320,192,31327,1,0,0:0:0:0:
64,192,31426,1,2,0:0:0:0:
192,192,31426,1,2,0:0:0:0:
448,192,31426,1,8,0:0:0:0:
64,192,31623,1,0,0:0:0:0:
192,192,31722,1,0,0:0:0:0:
320,192,31821,1,2,0:0:0:0:
448,192,31821,1,2,0:0:0:0:
64,192,31821,1,8,0:0:0:0:
192,192,32018,1,0,0:0:0:0:
320,192,32117,1,0,0:0:0:0:
64,192,32215,1,2,0:0:0:0:
192,192,32215,1,8,0:0:0:0:
448,192,32215,1,2,0:0:0:0:
320,192,32314,1,8,0:0:0:0:
448,192,32314,1,8,0:0:0:0:
192,192,32413,1,8,0:0:0:0:
320,192,32511,1,8,0:0:0:0:
64,192,32610,1,2,0:0:0:0:
192,192,32610,1,8,0:0:0:0:
448,192,32610,1,2,0:0:0:0:
320,192,32709,1,8,0:0:0:0:
448,192,32709,1,8,0:0:0:0:
64,192,32808,1,8,0:0:0:0:
192,192,32906,1,8,0:0:0:0:
64,192,33005,1,2,0:0:0:0:
320,192,33005,1,8,0:0:0:0:
448,192,33005,1,2,0:0:0:0:
192,192,33104,1,8,0:0:0:0:
64,192,33104,1,8,0:0:0:0:
320,192,33202,1,8,0:0:0:0:
192,192,33301,1,8,0:0:0:0:
64,192,33400,1,2,0:0:0:0:
448,192,33400,1,2,0:0:0:0:
320,192,33400,1,8,0:0:0:0:
64,192,33498,1,8,0:0:0:0:
192,192,33498,1,8,0:0:0:0:
320,192,33597,1,8,0:0:0:0:
192,192,33696,1,8,0:0:0:0:
64,192,33794,1,2,0:0:0:0:
448,192,33794,1,2,0:0:0:0:
320,192,33794,1,8,0:0:0:0:
64,192,33893,1,8,0:0:0:0:
192,192,33893,1,8,0:0:0:0:
448,192,33992,1,8,0:0:0:0:
320,192,34090,1,8,0:0:0:0:
64,192,34189,1,2,0:0:0:0:
192,192,34189,1,8,0:0:0:0:
448,192,34189,1,2,0:0:0:0:
320,192,34288,1,8,0:0:0:0:
448,192,34288,1,8,0:0:0:0:
64,192,34386,1,8,0:0:0:0:
192,192,34485,1,8,0:0:0:0:
64,192,34584,1,2,0:0:0:0:
320,192,34584,1,8,0:0:0:0:
448,192,34584,1,2,0:0:0:0:
64,192,34683,1,8,0:0:0:0:
192,192,34683,1,8,0:0:0:0:
320,192,34781,1,8,0:0:0:0:
192,192,34880,1,8,0:0:0:0:
64,192,34979,1,2,0:0:0:0:
320,192,34979,1,8,0:0:0:0:
448,192,34979,1,2,0:0:0:0:
64,192,35077,1,8,0:0:0:0:
448,192,35077,1,8,0:0:0:0:
192,192,35176,1,8,0:0:0:0:
320,192,35275,1,8,0:0:0:0:
64,192,35373,1,2,0:0:0:0:
192,192,35373,1,8,0:0:0:0:
448,192,35373,1,2,0:0:0:0:
320,192,35472,1,0,0:0:0:0:
64,192,35571,1,0,0:0:0:0:
192,192,35571,1,0,0:0:0:0:
320,192,35669,1,0,0:0:0:0:
448,192,35669,1,0,0:0:0:0:
64,192,35768,1,2,0:0:0:0:
192,192,35768,1,0,0:0:0:0:
448,192,35768,1,2,0:0:0:0:
320,192,35867,1,0,0:0:0:0:
64,192,35965,1,0,0:0:0:0:
448,192,35965,1,0,0:0:0:0:
320,192,36064,1,0,0:0:0:0:
192,192,36064,1,0,0:0:0:0:
64,192,36163,1,2,0:0:0:0:
448,192,36163,1,2,0:0:0:0:
192,192,36261,1,0,0:0:0:0:
448,192,36360,1,0,0:0:0:0:
320,192,36360,1,0,0:0:0:0:
192,192,36459,1,0,0:0:0:0:
64,192,36558,1,2,0:0:0:0:
448,192,36558,1,2,0:0:0:0:
320,192,36656,1,0,0:0:0:0:
192,192,36755,128,0,37544:0:0:0:0:
64,192,36755,1,0,0:0:0:0:
448,192,37150,128,0,37544:0:0:0:0:
64,192,37347,128,0,37544:0:0:0:0:
320,192,37544,128,0,38433:0:0:0:0:
64,192,38038,128,0,38433:0:0:0:0:
192,192,38136,128,0,38433:0:0:0:0:
448,192,38235,128,0,38433:0:0:0:0:
64,192,38531,1,0,0:0:0:0:
192,192,38581,1,0,0:0:0:0:
320,192,38630,1,0,0:0:0:0:
448,192,38679,1,0,0:0:0:0:
64,192,38729,1,0,0:0:0:0:
192,192,38778,1,0,0:0:0:0:
320,192,38827,1,0,0:0:0:0:
448,192,38877,1,0,0:0:0:0:
64,192,38926,128,0,39617:0:0:0:0:
192,192,38926,128,0,39617:0:0:0:0:
64,192,39715,1,8,0:0:0:0:
192,192,39715,1,8,0:0:0:0:
448,192,39715,1,2,0:0:0:0:
64,192,40110,1,2,0:0:0:0:
448,192,40110,1,2,0:0:0:0:
320,192,40110,1,4,0:0:0:0:
64,192,40308,1,0,0:0:0:0:
192,192,40308,1,0,0:0:0:0:
448,192,40406,1,0,0:0:0:0:
320,192,40406,1,0,0:0:0:0:
64,192,40505,1,8,0:0:0:0:
192,192,40505,1,8,0:0:0:0:
448,192,40505,1,0,0:0:0:0:
320,192,40604,1,0,0:0:0:0:
64,192,40702,1,0,0:0:0:0:
192,192,40702,1,0,0:0:0:0:
320,192,40801,1,0,0:0:0:0:
448,192,40801,1,0,0:0:0:0:
64,192,40900,1,2,0:0:0:0:
448,192,40900,1,2,0:0:0:0:
192,192,40998,1,0,0:0:0:0:
64,192,40998,1,0,0:0:0:0:
448,192,41097,1,0,0:0:0:0:
320,192,41097,1,0,0:0:0:0:
64,192,41196,1,0,0:0:0:0:
192,192,41196,1,0,0:0:0:0:
64,192,41294,1,0,0:0:0:0:
448,192,41294,1,8,0:0:0:0:
320,192,41294,1,8,0:0:0:0:
192,192,41344,1,0,0:0:0:0:
320,192,41393,1,0,0:0:0:0:
448,192,41442,1,0,0:0:0:0:
64,192,41492,128,0,41689:0:0:0:0:
192,192,41492,128,0,41689:0:0:0:0:
320,192,41689,1,2,0:0:0:0:
448,192,41689,1,2,0:0:0:0:
64,192,41788,1,0,0:0:0:0:
448,192,41788,1,0,0:0:0:0:
192,192,41886,1,0,0:0:0:0:
64,192,41886,1,0,0:0:0:0:
320,192,41985,1,0,0:0:0:0:
448,192,41985,1,0,0:0:0:0:
64,192,42084,1,8,0:0:0:0:
448,192,42084,1,0,0:0:0:0:
192,192,42084,1,8,0:0:0:0:
320,192,42183,1,0,0:0:0:0:
192,192,42183,1,0,0:0:0:0:
64,192,42281,1,0,0:0:0:0:
448,192,42281,1,0,0:0:0:0:
320,192,42380,1,0,0:0:0:0:
448,192,42380,1,0,0:0:0:0:
64,192,42479,128,2,42676:0:0:0:0:
192,192,42577,128,0,42676:0:0:0:0:
320,192,42676,1,0,0:0:0:0:
448,192,42676,1,0,0:0:0:0:
64,192,42775,1,0,0:0:0:0:
192,192,42775,1,0,0:0:0:0:
64,192,42873,1,0,0:0:0:0:
320,192,42873,1,8,0:0:0:0:
448,192,42873,1,8,0:0:0:0:
192,192,42972,1,0,0:0:0:0:
320,192,43071,128,0,43367:0:0:0:0:
448,192,43169,128,0,43367:0:0:0:0:
64,192,43268,1,2,0:0:0:0:
192,192,43268,1,2,0:0:0:0:
320,192,43465,1,0,0:0:0:0:
448,192,43465,1,0,0:0:0:0:
64,192,43663,1,8,0:0:0:0:
192,192,43663,1,8,0:0:0:0:
448,192,43663,1,0,0:0:0:0:
320,192,43761,1,0,0:0:0:0:
448,192,43761,1,0,0:0:0:0:
64,192,43860,1,0,0:0:0:0:
192,192,43860,1,0,0:0:0:0:
320,192,43959,1,0,0:0:0:0:
448,192,43959,1,0,0:0:0:0:
192,192,44058,1,0,0:0:0:0:
64,192,44058,1,0,0:0:0:0:
192,192,44189,1,0,0:0:0:0:
448,192,44255,1,0,0:0:0:0:
320,192,44255,1,0,0:0:0:0:
192,192,44321,1,0,0:0:0:0:
64,192,44452,1,0,0:0:0:0:
320,192,44452,128,8,44551:0:0:0:0:
448,192,44452,128,8,44551:0:0:0:0:
64,192,44551,128,0,44650:0:0:0:0:
192,192,44551,128,0,44650:0:0:0:0:
320,192,44650,128,0,44748:0:0:0:0:
448,192,44650,128,0,44748:0:0:0:0:
192,192,44748,128,0,44847:0:0:0:0:
64,192,44748,128,0,44847:0:0:0:0:
448,192,44847,128,2,45044:0:0:0:0:
320,192,44847,128,2,45044:0:0:0:0:
64,192,45044,1,0,0:0:0:0:
192,192,45143,128,2,45340:0:0:0:0:
320,192,45143,128,2,45340:0:0:0:0:
448,192,45340,1,0,0:0:0:0:
64,192,45439,128,2,45636:0:0:0:0:
192,192,45439,128,2,45636:0:0:0:0:
320,192,45538,1,0,0:0:0:0:
448,192,45538,1,0,0:0:0:0:
320,192,45636,1,2,0:0:0:0:
448,192,45636,1,2,0:0:0:0:
64,192,45735,1,0,0:0:0:0:
192,192,45735,1,0,0:0:0:0:
320,192,45834,1,0,0:0:0:0:
448,192,45834,1,0,0:0:0:0:
192,192,45933,1,0,0:0:0:0:
64,192,45933,1,0,0:0:0:0:
64,192,46031,1,0,0:0:0:0:
320,192,46031,1,8,0:0:0:0:
448,192,46031,1,8,0:0:0:0:
320,192,46130,1,0,0:0:0:0:
448,192,46130,1,0,0:0:0:0:
64,192,46229,1,0,0:0:0:0:
192,192,46229,1,0,0:0:0:0:
320,192,46327,1,0,0:0:0:0:
448,192,46327,1,0,0:0:0:0:
448,192,46426,1,4,0:0:0:0:
192,192,46426,128,2,46492:0:0:0:0:
64,192,46426,128,2,46492:0:0:0:0:
192,192,46558,128,0,46623:0:0:0:0:
64,192,46558,128,0,46623:0:0:0:0:
192,192,46689,128,0,46755:0:0:0:0:
64,192,46689,128,0,46755:0:0:0:0:
64,192,46821,1,0,0:0:0:0:
320,192,46821,1,8,0:0:0:0:
448,192,46821,1,8,0:0:0:0:
192,192,46919,1,0,0:0:0:0:
320,192,47018,1,0,0:0:0:0:
448,192,47018,1,0,0:0:0:0:
192,192,47117,1,0,0:0:0:0:
64,192,47215,1,2,0:0:0:0:
448,192,47215,128,2,47511:0:0:0:0:
320,192,47314,1,0,0:0:0:0:
64,192,47413,1,0,0:0:0:0:
192,192,47413,1,0,0:0:0:0:
320,192,47511,1,0,0:0:0:0:
64,192,47610,1,0,0:0:0:0:
192,192,47610,1,8,0:0:0:0:
448,192,47610,1,8,0:0:0:0:
320,192,47709,1,0,0:0:0:0:
64,192,47808,1,0,0:0:0:0:
448,192,47808,1,0,0:0:0:0:
320,192,47906,1,0,0:0:0:0:
192,192,48005,1,2,0:0:0:0:
64,192,48005,128,2,48202:0:0:0:0:
320,192,48202,1,0,0:0:0:0:
448,192,48202,1,0,0:0:0:0:
192,192,48301,1,0,0:0:0:0:
64,192,48400,1,0,0:0:0:0:
320,192,48400,1,8,0:0:0:0:
448,192,48400,1,8,0:0:0:0:
192,192,48498,1,0,0:0:0:0:
320,192,48597,1,0,0:0:0:0:
64,192,48597,1,0,0:0:0:0:
448,192,48696,1,0,0:0:0:0:
64,192,48794,1,2,0:0:0:0:
192,192,48794,1,2,0:0:0:0:
320,192,48893,1,0,0:0:0:0:
448,192,48893,1,0,0:0:0:0:
192,192,48992,1,0,0:0:0:0:
64,192,48992,1,0,0:0:0:0:
320,192,49090,1,0,0:0:0:0:
448,192,49090,1,0,0:0:0:0:
64,192,49189,1,8,0:0:0:0:
192,192,49189,1,8,0:0:0:0:
448,192,49189,1,0,0:0:0:0:
320,192,49288,1,0,0:0:0:0:
192,192,49288,1,0,0:0:0:0:
64,192,49386,1,0,0:0:0:0:
448,192,49386,1,0,0:0:0:0:
320,192,49485,1,0,0:0:0:0:
192,192,49485,1,0,0:0:0:0:
192,192,49584,1,4,0:0:0:0:
64,192,49584,128,2,49979:0:0:0:0:
448,192,49584,128,2,49979:0:0:0:0:
320,192,49781,128,0,49979:0:0:0:0:
192,192,49979,128,0,50176:0:0:0:0:
64,192,50176,1,2,0:0:0:0:
320,192,50176,128,2,50571:0:0:0:0:
448,192,50176,128,4,50571:0:0:0:0:
192,192,50571,128,0,50768:0:0:0:0:
320,192,50768,128,2,50965:0:0:0:0:
64,192,50768,1,2,0:0:0:0:
448,192,50768,1,4,0:0:0:0:
192,192,50965,128,0,51360:0:0:0:0:
448,192,51360,1,2,0:0:0:0:
64,192,51360,1,0,0:0:0:0:
320,192,51360,128,2,51558:0:0:0:0:
192,192,51558,128,0,51755:0:0:0:0:
320,192,51755,128,8,51952:0:0:0:0:
64,192,51952,1,2,0:0:0:0:
448,192,51952,1,2,0:0:0:0:
448,192,52051,1,2,0:0:0:0:
320,192,52051,1,2,0:0:0:0:
192,192,52150,1,2,0:0:0:0:
64,192,52150,1,2,0:0:0:0:
64,192,52248,1,0,0:0:0:0:
448,192,52248,1,0,0:0:0:0:
320,192,52347,1,8,0:0:0:0:
192,192,52347,1,8,0:0:0:0:
64,192,52446,1,0,0:0:0:0:
448,192,52446,1,0,0:0:0:0:
320,192,52544,1,8,0:0:0:0:
448,192,52544,1,8,0:0:0:0:
64,192,52643,1,0,0:0:0:0:
192,192,52643,1,0,0:0:0:0:
320,192,52742,1,2,0:0:0:0:
64,192,52742,128,2,52939:0:0:0:0:
448,192,52742,128,4,52939:0:0:0:0:
320,192,52939,1,0,0:0:0:0:
192,192,52939,1,0,0:0:0:0:
64,192,53136,1,8,0:0:0:0:
192,192,53136,1,8,0:0:0:0:
448,192,53136,1,0,0:0:0:0:
320,192,53235,1,0,0:0:0:0:
448,192,53235,1,0,0:0:0:0:
192,192,53334,1,0,0:0:0:0:
64,192,53334,1,0,0:0:0:0:
320,192,53433,1,0,0:0:0:0:
448,192,53433,1,0,0:0:0:0:
64,192,53531,1,2,0:0:0:0:
448,192,53531,1,2,0:0:0:0:
192,192,53630,1,0,0:0:0:0:
320,192,53630,1,0,0:0:0:0:
448,192,53729,1,0,0:0:0:0:
64,192,53729,1,0,0:0:0:0:
320,192,53827,1,0,0:0:0:0:
192,192,53827,1,0,0:0:0:0:
64,192,53926,128,0,54321:0:0:0:0:
192,192,53926,128,8,54321:0:0:0:0:
448,192,53926,1,8,0:0:0:0:
320,192,54321,1,2,0:0:0:0:
448,192,54321,1,2,0:0:0:0:
64,192,54518,1,0,0:0:0:0:
448,192,54518,1,0,0:0:0:0:
192,192,54584,1,0,0:0:0:0:
64,192,54715,1,0,0:0:0:0:
320,192,54715,1,8,0:0:0:0:
448,192,54715,1,8,0:0:0:0:
64,192,54913,1,0,0:0:0:0:
448,192,54913,1,0,0:0:0:0:
192,192,54979,1,0,0:0:0:0:
448,192,55110,1,2,0:0:0:0:
64,192,55110,128,2,55900:0:0:0:0:
192,192,55308,1,0,0:0:0:0:
320,192,55406,1,0,0:0:0:0:
448,192,55505,1,8,0:0:0:0:
192,192,55505,1,8,0:0:0:0:
320,192,55604,1,0,0:0:0:0:
448,192,55702,1,0,0:0:0:0:
320,192,55801,1,0,0:0:0:0:
192,192,55900,1,2,0:0:0:0:
448,192,55900,128,2,56097:0:0:0:0:
64,192,56097,1,0,0:0:0:0:
320,192,56097,1,0,0:0:0:0:
448,192,56196,128,0,56590:0:0:0:0:
64,192,56294,1,8,0:0:0:0:
192,192,56294,1,8,0:0:0:0:
320,192,56393,1,0,0:0:0:0:
64,192,56492,1,0,0:0:0:0:
192,192,56590,1,0,0:0:0:0:
64,192,56689,1,4,0:0:0:0:
320,192,56689,1,2,0:0:0:0:
448,192,56689,1,2,0:0:0:0:
320,192,56886,1,0,0:0:0:0:
64,192,56985,1,2,0:0:0:0:
192,192,56985,1,4,0:0:0:0:
448,192,56985,1,4,0:0:0:0:
448,192,57084,1,8,0:0:0:0:
64,192,57084,1,8,0:0:0:0:
192,192,57183,1,0,0:0:0:0:
64,192,57281,1,2,0:0:0:0:
320,192,57281,1,2,0:0:0:0:
448,192,57281,1,4,0:0:0:0:
64,192,57479,128,2,57544:0:0:0:0:
192,192,57479,128,2,57544:0:0:0:0:
64,192,57610,128,0,57676:0:0:0:0:
192,192,57610,128,0,57676:0:0:0:0:
64,192,57742,128,0,57808:0:0:0:0:
192,192,57742,128,0,57808:0:0:0:0:
320,192,57873,1,8,0:0:0:0:
64,192,57873,1,0,0:0:0:0:
448,192,57873,1,8,0:0:0:0:
192,192,58005,1,0,0:0:0:0:
64,192,58005,1,0,0:0:0:0:
320,192,58136,1,0,0:0:0:0:
192,192,58136,1,0,0:0:0:0:
320,192,58268,128,2,58334:0:0:0:0:
448,192,58268,128,2,58334:0:0:0:0:
320,192,58400,128,0,58465:0:0:0:0:
448,192,58400,128,0,58465:0:0:0:0:
448,192,58531,128,0,58597:0:0:0:0:
320,192,58531,128,0,58597:0:0:0:0:
192,192,58663,1,8,0:0:0:0:
448,192,58663,1,0,0:0:0:0:
64,192,58663,1,8,0:0:0:0:
192,192,58794,1,0,0:0:0:0:
320,192,58794,1,0,0:0:0:0:
448,192,58926,1,0,0:0:0:0:
320,192,58926,1,0,0:0:0:0:
192,192,59058,1,2,0:0:0:0:
448,192,59058,1,4,0:0:0:0:
64,192,59058,128,2,59255:0:0:0:0:
320,192,59255,1,0,0:0:0:0:
64,192,59354,128,0,59847:0:0:0:0:
192,192,59354,1,0,0:0:0:0:
320,192,59452,1,8,0:0:0:0:
448,192,59452,1,8,0:0:0:0:
192,192,59551,1,0,0:0:0:0:
320,192,59650,1,0,0:0:0:0:
448,192,59748,1,0,0:0:0:0:
192,192,59847,1,2,0:0:0:0:
320,192,59847,1,2,0:0:0:0:
64,192,60044,1,0,0:0:0:0:
448,192,60044,1,0,0:0:0:0:
192,192,60143,1,0,0:0:0:0:
448,192,60242,128,8,60340:0:0:0:0:
320,192,60242,1,8,0:0:0:0:
64,192,60242,1,0,0:0:0:0:
192,192,60340,1,0,0:0:0:0:
320,192,60439,1,0,0:0:0:0:
448,192,60538,1,0,0:0:0:0:
64,192,60636,1,2,0:0:0:0:
192,192,60636,1,2,0:0:0:0:
448,192,60735,1,0,0:0:0:0:
320,192,60834,1,0,0:0:0:0:
64,192,60834,1,0,0:0:0:0:
192,192,60933,1,0,0:0:0:0:
448,192,61031,128,8,61130:0:0:0:0:
320,192,61031,1,8,0:0:0:0:
64,192,61031,1,0,0:0:0:0:
192,192,61130,1,0,0:0:0:0:
320,192,61229,1,0,0:0:0:0:
192,192,61327,1,0,0:0:0:0:
64,192,61426,1,2,0:0:0:0:
448,192,61426,1,2,0:0:0:0:
320,192,61525,1,0,0:0:0:0:
64,192,61623,1,0,0:0:0:0:
448,192,61623,1,0,0:0:0:0:
192,192,61722,1,0,0:0:0:0:
448,192,61821,128,8,61919:0:0:0:0:
320,192,61821,1,8,0:0:0:0:
64,192,61821,1,0,0:0:0:0:
192,192,61919,1,0,0:0:0:0:
448,192,62018,1,0,0:0:0:0:
320,192,62117,1,0,0:0:0:0:
192,192,62215,1,2,0:0:0:0:
64,192,62215,128,2,62610:0:0:0:0:
448,192,62215,128,4,62610:0:0:0:0:
320,192,62413,128,0,62610:0:0:0:0:
192,192,62610,128,0,62808:0:0:0:0:
64,192,62808,1,2,0:0:0:0:
320,192,62808,128,2,63202:0:0:0:0:
448,192,62808,128,4,63202:0:0:0:0:
64,192,63202,128,0,63400:0:0:0:0:
192,192,63400,1,4,0:0:0:0:
448,192,63400,1,2,0:0:0:0:
320,192,63400,128,2,63992:0:0:0:0:
448,192,63597,128,0,63992:0:0:0:0:
64,192,63992,128,2,64189:0:0:0:0:
192,192,63992,1,2,0:0:0:0:
448,192,64189,128,8,64386:0:0:0:0:
320,192,64386,128,0,64584:0:0:0:0:
64,192,64584,5,2,0:0:0:0:
192,192,64584,1,2,0:0:0:0:
320,192,64781,128,0,64880:0:0:0:0:
448,192,64781,128,0,64880:0:0:0:0:
64,192,64880,1,2,0:0:0:0:
192,192,64880,1,2,0:0:0:0:
320,192,64979,1,8,0:0:0:0:
448,192,64979,1,8,0:0:0:0:
64,192,65077,128,0,65176:0:0:0:0:
192,192,65077,128,0,65176:0:0:0:0:
320,192,65176,1,2,0:0:0:0:
448,192,65176,1,2,0:0:0:0:
64,192,65373,1,2,0:0:0:0:
192,192,65373,1,2,0:0:0:0:
448,192,65373,1,4,0:0:0:0:
320,192,65571,128,0,65768:0:0:0:0:
64,192,65768,1,8,0:0:0:0:
192,192,65768,1,8,0:0:0:0:
448,192,65768,128,0,65965:0:0:0:0:
64,192,65965,128,0,66163:0:0:0:0:
448,192,66163,1,2,0:0:0:0:
320,192,66163,128,2,66360:0:0:0:0:
192,192,66360,128,0,66558:0:0:0:0:
64,192,66558,1,0,0:0:0:0:
320,192,66558,1,8,0:0:0:0:
448,192,66558,128,8,66755:0:0:0:0:
192,192,66755,128,0,67150:0:0:0:0:
64,192,66952,1,2,0:0:0:0:
448,192,66952,1,2,0:0:0:0:
320,192,67150,128,0,67347:0:0:0:0:
448,192,67347,1,0,0:0:0:0:
192,192,67347,1,8,0:0:0:0:
64,192,67347,128,8,67544:0:0:0:0:
320,192,67544,128,0,67939:0:0:0:0:
448,192,67742,1,2,0:0:0:0:
64,192,67742,1,2,0:0:0:0:
192,192,67939,128,0,68136:0:0:0:0:
448,192,68136,1,8,0:0:0:0:
320,192,68136,1,8,0:0:0:0:
64,192,68136,128,0,68334:0:0:0:0:
448,192,68334,128,0,68531:0:0:0:0:
64,192,68531,1,2,0:0:0:0:
320,192,68531,1,2,0:0:0:0:
320,192,68630,1,0,0:0:0:0:
192,192,68729,128,0,68926:0:0:0:0:
64,192,68926,1,0,0:0:0:0:
320,192,68926,1,8,0:0:0:0:
448,192,68926,128,8,69123:0:0:0:0:
192,192,69123,128,0,69321:0:0:0:0:
64,192,69321,1,2,0:0:0:0:
448,192,69321,128,2,69518:0:0:0:0:
64,192,69518,128,0,69715:0:0:0:0:
448,192,69715,1,8,0:0:0:0:
192,192,69715,1,0,0:0:0:0:
320,192,69715,128,8,69913:0:0:0:0:
64,192,69913,128,0,70110:0:0:0:0:
192,192,70110,128,2,70505:0:0:0:0:
448,192,70110,1,2,0:0:0:0:
320,192,70308,128,0,70505:0:0:0:0:
64,192,70505,1,8,0:0:0:0:
448,192,70505,128,8,70702:0:0:0:0:
192,192,70702,128,0,70998:0:0:0:0:
64,192,70900,1,2,0:0:0:0:
448,192,70900,1,2,0:0:0:0:
192,192,71097,128,0,71294:0:0:0:0:
64,192,71294,1,0,0:0:0:0:
320,192,71294,1,8,0:0:0:0:
448,192,71294,128,8,71689:0:0:0:0:
192,192,71492,128,0,71689:0:0:0:0:
320,192,71689,1,2,0:0:0:0:
64,192,71689,1,2,0:0:0:0:
64,192,71886,128,0,72084:0:0:0:0:
192,192,72084,1,0,0:0:0:0:
448,192,72084,128,8,72281:0:0:0:0:
320,192,72084,1,8,0:0:0:0:
192,192,72281,128,0,72479:0:0:0:0:
64,192,72479,1,2,0:0:0:0:
448,192,72479,128,2,72676:0:0:0:0:
192,192,72676,128,0,72873:0:0:0:0:
320,192,72873,128,8,73071:0:0:0:0:
64,192,72873,1,0,0:0:0:0:
448,192,72873,1,8,0:0:0:0:
192,192,73071,128,0,73465:0:0:0:0:
448,192,73268,1,2,0:0:0:0:
320,192,73268,1,2,0:0:0:0:
64,192,73465,128,0,73663:0:0:0:0:
320,192,73663,1,8,0:0:0:0:
448,192,73663,1,8,0:0:0:0:
192,192,73663,128,0,73860:0:0:0:0:
320,192,73860,128,0,74255:0:0:0:0:
64,192,74058,1,2,0:0:0:0:
448,192,74058,1,2,0:0:0:0:
192,192,74255,128,0,74452:0:0:0:0:
448,192,74452,1,8,0:0:0:0:
64,192,74452,1,0,0:0:0:0:
320,192,74452,128,8,74650:0:0:0:0:
192,192,74650,128,0,74847:0:0:0:0:
64,192,74847,1,2,0:0:0:0:
448,192,74847,1,2,0:0:0:0:
448,192,74946,1,0,0:0:0:0:
192,192,75044,128,0,75242:0:0:0:0:
320,192,75242,1,8,0:0:0:0:
448,192,75242,1,8,0:0:0:0:
64,192,75242,128,0,75439:0:0:0:0:
320,192,75439,128,0,75636:0:0:0:0:
64,192,75636,1,2,0:0:0:0:
448,192,75636,128,2,75834:0:0:0:0:
192,192,75834,128,0,76031:0:0:0:0:
320,192,76031,1,8,0:0:0:0:
448,192,76031,1,8,0:0:0:0:
64,192,76031,128,0,76229:0:0:0:0:
320,192,76229,128,0,76426:0:0:0:0:
192,192,76426,128,2,76821:0:0:0:0:
448,192,76426,1,2,0:0:0:0:
64,192,76623,128,0,76821:0:0:0:0:
320,192,76821,128,8,77018:0:0:0:0:
448,192,76821,1,8,0:0:0:0:
448,192,77018,128,0,77314:0:0:0:0:
64,192,77215,1,2,0:0:0:0:
192,192,77215,1,2,0:0:0:0:
448,192,77413,128,0,77610:0:0:0:0:
320,192,77610,128,0,78005:0:0:0:0:
64,192,77610,1,8,0:0:0:0:
192,192,77610,1,8,0:0:0:0:
448,192,78005,1,8,0:0:0:0:
64,192,78005,1,4,0:0:0:0:
192,192,78202,1,0,0:0:0:0:
64,192,78400,1,8,0:0:0:0:
320,192,78400,128,0,78498:0:0:0:0:
64,192,78794,1,8,0:0:0:0:
320,192,78992,1,0,0:0:0:0:
64,192,79189,1,8,0:0:0:0:
448,192,79189,1,0,0:0:0:0:
320,192,79386,128,0,79781:0:0:0:0:
64,192,79584,1,8,0:0:0:0:
192,192,79781,1,0,0:0:0:0:
64,192,79979,1,8,0:0:0:0:
448,192,79979,128,0,80077:0:0:0:0:
320,192,80176,128,0,80275:0:0:0:0:
64,192,80373,1,8,0:0:0:0:
64,192,80768,1,8,0:0:0:0:
64,192,81163,1,8,0:0:0:0:
448,192,81163,1,0,0:0:0:0:
320,192,81360,1,0,0:0:0:0:
64,192,81558,1,8,0:0:0:0:
192,192,81558,1,0,0:0:0:0:
64,192,81952,1,8,0:0:0:0:
192,192,82150,1,0,0:0:0:0:
64,192,82347,1,8,0:0:0:0:
320,192,82347,1,0,0:0:0:0:
448,192,82544,128,0,82939:0:0:0:0:
64,192,82742,1,8,0:0:0:0:
320,192,82939,128,0,83038:0:0:0:0:
64,192,83136,1,8,0:0:0:0:
192,192,83136,128,0,83235:0:0:0:0:
320,192,83334,128,0,83433:0:0:0:0:
64,192,83531,1,8,0:0:0:0:
64,192,83926,1,8,0:0:0:0:
64,192,84321,1,8,0:0:0:0:
192,192,84321,1,0,0:0:0:0:
448,192,84419,1,8,0:0:0:0:
64,192,84518,1,8,0:0:0:0:
320,192,84518,1,0,0:0:0:0:
448,192,84617,1,8,0:0:0:0:
64,192,84715,1,8,0:0:0:0:
192,192,84715,1,0,0:0:0:0:
448,192,84814,1,8,0:0:0:0:
64,192,84913,1,8,0:0:0:0:
448,192,85011,1,8,0:0:0:0:
64,192,85110,1,8,0:0:0:0:
448,192,85209,1,8,0:0:0:0:
64,192,85308,1,8,0:0:0:0:
192,192,85308,1,0,0:0:0:0:
448,192,85406,1,8,0:0:0:0:
64,192,85505,1,8,0:0:0:0:
320,192,85505,1,0,0:0:0:0:
448,192,85604,1,8,0:0:0:0:
64,192,85702,1,8,0:0:0:0:
192,192,85702,1,0,0:0:0:0:
448,192,85801,1,8,0:0:0:0:
64,192,85900,1,8,0:0:0:0:
448,192,85998,1,8,0:0:0:0:
64,192,86097,1,8,0:0:0:0:
192,192,86097,1,0,0:0:0:0:
448,192,86196,1,8,0:0:0:0:
64,192,86294,1,8,0:0:0:0:
192,192,86294,1,0,0:0:0:0:
448,192,86393,1,8,0:0:0:0:
64,192,86492,1,8,0:0:0:0:
320,192,86492,1,0,0:0:0:0:
448,192,86590,1,8,0:0:0:0:
64,192,86689,1,8,0:0:0:0:
448,192,86788,1,8,0:0:0:0:
64,192,86886,1,8,0:0:0:0:
448,192,86985,1,8,0:0:0:0:
64,192,87084,1,8,0:0:0:0:
192,192,87183,1,8,0:0:0:0:
320,192,87281,1,8,0:0:0:0:
448,192,87380,1,8,0:0:0:0:
192,192,87479,1,8,0:0:0:0:
64,192,87479,1,0,0:0:0:0:
320,192,87577,1,8,0:0:0:0:
192,192,87676,1,8,0:0:0:0:
448,192,87676,1,0,0:0:0:0:
320,192,87775,1,8,0:0:0:0:
192,192,87873,1,8,0:0:0:0:
64,192,87873,1,0,0:0:0:0:
320,192,87972,1,8,0:0:0:0:
192,192,88071,1,8,0:0:0:0:
320,192,88169,1,8,0:0:0:0:
192,192,88268,1,8,0:0:0:0:
320,192,88367,1,8,0:0:0:0:
192,192,88465,1,8,0:0:0:0:
64,192,88465,1,0,0:0:0:0:
320,192,88564,1,8,0:0:0:0:
64,192,88663,1,0,0:0:0:0:
448,192,88663,1,8,0:0:0:0:
320,192,88761,1,8,0:0:0:0:
192,192,88860,1,8,0:0:0:0:
64,192,88860,1,0,0:0:0:0:
320,192,88959,1,8,0:0:0:0:
448,192,89058,1,8,0:0:0:0:
64,192,89058,1,0,0:0:0:0:
192,192,89156,1,0,0:0:0:0:
320,192,89255,1,0,0:0:0:0:
448,192,89354,1,0,0:0:0:0:
192,192,89452,1,0,0:0:0:0:
64,192,89551,1,0,0:0:0:0:
448,192,89650,1,0,0:0:0:0:
320,192,89748,1,0,0:0:0:0:
192,192,89847,128,0,90636:0:0:0:0:
64,192,89946,1,0,0:0:0:0:
320,192,90044,1,0,0:0:0:0:
448,192,90143,1,0,0:0:0:0:
64,192,90242,1,0,0:0:0:0:
320,192,90340,1,0,0:0:0:0:
448,192,90439,1,0,0:0:0:0:
320,192,90538,1,0,0:0:0:0:
64,192,90636,1,2,0:0:0:0:
448,192,90636,1,4,0:0:0:0:
192,192,90834,1,0,0:0:0:0:
320,192,90933,1,0,0:0:0:0:
448,192,91031,1,8,0:0:0:0:
64,192,91031,1,8,0:0:0:0:
320,192,91229,1,0,0:0:0:0:
192,192,91327,1,0,0:0:0:0:
64,192,91426,1,8,0:0:0:0:
448,192,91426,1,8,0:0:0:0:
448,192,91525,1,8,0:0:0:0:
64,192,91525,1,8,0:0:0:0:
192,192,91623,1,8,0:0:0:0:
320,192,91623,1,8,0:0:0:0:
64,192,91821,1,2,0:0:0:0:
192,192,91821,1,2,0:0:0:0:
320,192,92018,1,8,0:0:0:0:
448,192,92018,1,8,0:0:0:0:
64,192,92215,1,2,0:0:0:0:
192,192,92215,1,4,0:0:0:0:
448,192,92215,1,2,0:0:0:0:
320,192,92413,1,0,0:0:0:0:
448,192,92413,1,0,0:0:0:0:
64,192,92511,1,0,0:0:0:0:
192,192,92511,1,0,0:0:0:0:
64,192,92610,1,0,0:0:0:0:
320,192,92610,128,8,92808:0:0:0:0:
448,192,92610,128,8,92808:0:0:0:0:
64,192,92808,128,0,92906:0:0:0:0:
192,192,92808,128,0,92906:0:0:0:0:
320,192,92906,128,0,93005:0:0:0:0:
64,192,93005,1,2,0:0:0:0:
448,192,93005,1,2,0:0:0:0:
192,192,93104,1,0,0:0:0:0:
320,192,93104,1,0,0:0:0:0:
64,192,93202,128,0,93301:0:0:0:0:
448,192,93202,128,0,93301:0:0:0:0:
192,192,93301,128,0,93400:0:0:0:0:
64,192,93400,1,0,0:0:0:0:
320,192,93400,1,8,0:0:0:0:
448,192,93400,1,8,0:0:0:0:
192,192,93498,1,0,0:0:0:0:
448,192,93597,128,0,93794:0:0:0:0:
320,192,93597,128,0,93794:0:0:0:0:
64,192,93794,128,2,93992:0:0:0:0:
192,192,93794,1,2,0:0:0:0:
192,192,93992,1,0,0:0:0:0:
320,192,93992,1,0,0:0:0:0:
448,192,94090,128,0,94288:0:0:0:0:
64,192,94189,1,8,0:0:0:0:
192,192,94189,1,8,0:0:0:0:
320,192,94288,1,0,0:0:0:0:
64,192,94386,128,0,94584:0:0:0:0:
448,192,94386,1,0,0:0:0:0:
192,192,94485,1,0,0:0:0:0:
320,192,94584,128,2,94683:0:0:0:0:
448,192,94584,128,2,94683:0:0:0:0:
64,192,94683,128,0,94781:0:0:0:0:
192,192,94683,128,0,94781:0:0:0:0:
320,192,94781,1,0,0:0:0:0:
448,192,94781,1,0,0:0:0:0:
192,192,94880,1,0,0:0:0:0:
64,192,94979,1,0,0:0:0:0:
320,192,94979,1,8,0:0:0:0:
448,192,94979,1,8,0:0:0:0:
64,192,95077,1,0,0:0:0:0:
192,192,95077,1,0,0:0:0:0:
320,192,95176,1,0,0:0:0:0:
448,192,95176,128,0,95373:0:0:0:0:
64,192,95373,1,2,0:0:0:0:
192,192,95373,128,2,95571:0:0:0:0:
320,192,95571,1,0,0:0:0:0:
448,192,95571,1,0,0:0:0:0:
192,192,95669,1,0,0:0:0:0:
64,192,95768,1,0,0:0:0:0:
320,192,95768,1,8,0:0:0:0:
448,192,95768,1,8,0:0:0:0:
192,192,95867,1,0,0:0:0:0:
448,192,95965,1,0,0:0:0:0:
64,192,95965,1,0,0:0:0:0:
320,192,96064,1,0,0:0:0:0:
192,192,96163,128,2,96360:0:0:0:0:
64,192,96163,1,2,0:0:0:0:
320,192,96360,1,0,0:0:0:0:
448,192,96360,1,0,0:0:0:0:
192,192,96459,1,0,0:0:0:0:
64,192,96558,1,0,0:0:0:0:
320,192,96558,1,8,0:0:0:0:
448,192,96558,1,8,0:0:0:0:
192,192,96656,1,0,0:0:0:0:
320,192,96755,1,0,0:0:0:0:
64,192,96755,1,0,0:0:0:0:
192,192,96854,1,0,0:0:0:0:
448,192,96952,1,2,0:0:0:0:
64,192,96952,128,2,97150:0:0:0:0:
192,192,97150,1,0,0:0:0:0:
448,192,97150,1,0,0:0:0:0:
320,192,97248,1,0,0:0:0:0:
64,192,97347,1,8,0:0:0:0:
448,192,97347,1,0,0:0:0:0:
192,192,97347,1,8,0:0:0:0:
320,192,97446,1,0,0:0:0:0:
192,192,97544,1,0,0:0:0:0:
448,192,97544,1,0,0:0:0:0:
64,192,97643,1,0,0:0:0:0:
320,192,97742,128,2,97939:0:0:0:0:
448,192,97742,1,2,0:0:0:0:
192,192,97939,1,0,0:0:0:0:
64,192,97939,1,0,0:0:0:0:
320,192,98038,1,0,0:0:0:0:
448,192,98136,1,0,0:0:0:0:
192,192,98136,1,8,0:0:0:0:
64,192,98136,1,8,0:0:0:0:
320,192,98235,1,0,0:0:0:0:
64,192,98334,1,0,0:0:0:0:
448,192,98334,1,0,0:0:0:0:
192,192,98433,1,0,0:0:0:0:
320,192,98531,128,2,98597:0:0:0:0:
448,192,98531,128,4,98597:0:0:0:0:
320,192,98663,128,0,98729:0:0:0:0:
448,192,98663,128,0,98729:0:0:0:0:
320,192,98794,128,0,98860:0:0:0:0:
448,192,98794,128,0,98860:0:0:0:0:
64,192,98926,1,8,0:0:0:0:
192,192,98926,1,8,0:0:0:0:
448,192,98926,1,0,0:0:0:0:
320,192,99025,1,0,0:0:0:0:
64,192,99123,1,0,0:0:0:0:
192,192,99123,1,0,0:0:0:0:
320,192,99222,1,0,0:0:0:0:
448,192,99321,1,0,0:0:0:0:
64,192,99321,128,2,99715:0:0:0:0:
192,192,99419,1,0,0:0:0:0:
448,192,99518,1,0,0:0:0:0:
192,192,99617,1,0,0:0:0:0:
320,192,99715,1,8,0:0:0:0:
448,192,99715,1,8,0:0:0:0:
64,192,99814,1,0,0:0:0:0:
192,192,99814,1,0,0:0:0:0:
320,192,99913,1,0,0:0:0:0:
448,192,99913,1,0,0:0:0:0:
192,192,100011,1,0,0:0:0:0:
64,192,100110,1,2,0:0:0:0:
448,192,100110,1,2,0:0:0:0:
320,192,100209,1,0,0:0:0:0:
448,192,100209,1,0,0:0:0:0:
320,192,100308,1,0,0:0:0:0:
192,192,100308,1,0,0:0:0:0:
64,192,100406,1,0,0:0:0:0:
192,192,100406,1,0,0:0:0:0:
64,192,100505,1,8,0:0:0:0:
320,192,100505,1,8,0:0:0:0:
448,192,100505,1,0,0:0:0:0:
448,192,100604,1,0,0:0:0:0:
320,192,100604,1,0,0:0:0:0:
192,192,100702,1,0,0:0:0:0:
64,192,100702,1,0,0:0:0:0:
448,192,100801,1,0,0:0:0:0:
320,192,100801,1,0,0:0:0:0:
64,192,100900,128,2,101294:0:0:0:0:
448,192,100900,1,2,0:0:0:0:
192,192,100998,128,0,101294:0:0:0:0:
448,192,101097,1,0,0:0:0:0:
320,192,101196,1,0,0:0:0:0:
320,192,101294,128,8,101393:0:0:0:0:
448,192,101294,128,8,101393:0:0:0:0:
64,192,101393,128,0,101492:0:0:0:0:
192,192,101393,128,0,101492:0:0:0:0:
320,192,101492,128,0,101590:0:0:0:0:
448,192,101492,128,0,101590:0:0:0:0:
192,192,101590,128,0,101689:0:0:0:0:
64,192,101689,128,2,102183:0:0:0:0:
320,192,101689,128,2,102183:0:0:0:0:
448,192,101689,128,4,102183:0:0:0:0:
64,192,102281,128,2,102775:0:0:0:0:
192,192,102281,128,2,102775:0:0:0:0:
448,192,102281,128,4,102775:0:0:0:0:
64,192,102873,128,2,103169:0:0:0:0:
448,192,102873,128,4,103169:0:0:0:0:
320,192,102873,128,2,103169:0:0:0:0:
64,192,103268,1,8,0:0:0:0:
448,192,103268,1,8,0:0:0:0:
64,192,103465,1,2,0:0:0:0:
192,192,103465,1,2,0:0:0:0:
320,192,103564,1,8,0:0:0:0:
448,192,103564,1,8,0:0:0:0:
64,192,103860,1,8,0:0:0:0:
448,192,103860,1,8,0:0:0:0:
320,192,104058,1,2,0:0:0:0:
448,192,104058,1,2,0:0:0:0:
64,192,104156,1,8,0:0:0:0:
192,192,104156,1,8,0:0:0:0:
320,192,104255,128,8,104452:0:0:0:0:
448,192,104255,128,8,104452:0:0:0:0:
64,192,104452,1,8,0:0:0:0:
192,192,104452,1,8,0:0:0:0:
448,192,104551,128,0,104748:0:0:0:0:
320,192,104650,128,8,104748:0:0:0:0:
192,192,104650,1,8,0:0:0:0:
64,192,104847,1,4,0:0:0:0:
320,192,104847,1,2,0:0:0:0:
448,192,104847,1,2,0:0:0:0:
192,192,105044,1,0,0:0:0:0:
320,192,105044,1,0,0:0:0:0:
448,192,105242,1,0,0:0:0:0:
64,192,105242,1,8,0:0:0:0:
192,192,105242,1,8,0:0:0:0:
320,192,105340,1,0,0:0:0:0:
448,192,105340,1,0,0:0:0:0:
64,192,105439,1,0,0:0:0:0:
192,192,105439,1,0,0:0:0:0:
320,192,105538,1,0,0:0:0:0:
448,192,105538,1,0,0:0:0:0:
64,192,105636,1,2,0:0:0:0:
448,192,105636,1,2,0:0:0:0:
64,192,105735,1,0,0:0:0:0:
192,192,105735,1,0,0:0:0:0:
320,192,105834,1,0,0:0:0:0:
448,192,105834,1,0,0:0:0:0:
64,192,105933,1,0,0:0:0:0:
192,192,105933,1,0,0:0:0:0:
64,192,106031,1,0,0:0:0:0:
320,192,106031,1,8,0:0:0:0:
448,192,106031,128,8,106426:0:0:0:0:
64,192,106426,1,2,0:0:0:0:
192,192,106426,1,2,0:0:0:0:
320,192,106623,1,0,0:0:0:0:
448,192,106623,1,0,0:0:0:0:
192,192,106689,1,0,0:0:0:0:
64,192,106821,1,0,0:0:0:0:
320,192,106821,1,8,0:0:0:0:
448,192,106821,1,8,0:0:0:0:
192,192,107018,1,0,0:0:0:0:
64,192,107018,1,0,0:0:0:0:
320,192,107084,1,0,0:0:0:0:
64,192,107215,1,2,0:0:0:0:
448,192,107215,1,2,0:0:0:0:
192,192,107314,1,0,0:0:0:0:
320,192,107314,1,0,0:0:0:0:
64,192,107413,1,0,0:0:0:0:
448,192,107413,1,0,0:0:0:0:
192,192,107511,1,0,0:0:0:0:
320,192,107511,1,0,0:0:0:0:
64,192,107610,1,0,0:0:0:0:
448,192,107610,128,8,108005:0:0:0:0:
320,192,107610,128,8,108005:0:0:0:0:
64,192,108005,1,2,0:0:0:0:
192,192,108005,1,4,0:0:0:0:
320,192,108104,1,0,0:0:0:0:
448,192,108104,1,0,0:0:0:0:
192,192,108202,128,0,108400:0:0:0:0:
64,192,108202,1,0,0:0:0:0:
64,192,108400,1,0,0:0:0:0:
448,192,108400,1,8,0:0:0:0:
320,192,108400,1,8,0:0:0:0:
192,192,108498,1,0,0:0:0:0:
320,192,108597,128,0,108696:0:0:0:0:
448,192,108597,128,0,108696:0:0:0:0:
192,192,108696,128,0,108794:0:0:0:0:
64,192,108696,128,0,108794:0:0:0:0:
320,192,108794,1,2,0:0:0:0:
448,192,108794,1,2,0:0:0:0:
64,192,108893,128,0,108992:0:0:0:0:
192,192,108893,128,0,108992:0:0:0:0:
448,192,108992,1,0,0:0:0:0:
320,192,108992,1,0,0:0:0:0:
64,192,109090,1,0,0:0:0:0:
192,192,109090,1,0,0:0:0:0:
64,192,109189,1,0,0:0:0:0:
320,192,109189,128,8,109584:0:0:0:0:
448,192,109189,128,8,109584:0:0:0:0:
64,192,109584,128,2,109979:0:0:0:0:
192,192,109584,1,2,0:0:0:0:
192,192,109781,1,0,0:0:0:0:
448,192,109781,1,0,0:0:0:0:
192,192,109979,1,0,0:0:0:0:
448,192,109979,1,8,0:0:0:0:
320,192,109979,128,8,110176:0:0:0:0:
64,192,110077,1,0,0:0:0:0:
192,192,110176,128,0,110373:0:0:0:0:
448,192,110176,1,0,0:0:0:0:
320,192,110275,1,0,0:0:0:0:
448,192,110373,1,2,0:0:0:0:
64,192,110373,128,2,110472:0:0:0:0:
64,192,110571,128,0,110702:0:0:0:0:
192,192,110571,1,0,0:0:0:0:
320,192,110669,1,0,0:0:0:0:
192,192,110768,1,8,0:0:0:0:
448,192,110768,1,0,0:0:0:0:
64,192,110768,1,8,0:0:0:0:
320,192,110867,1,0,0:0:0:0:
64,192,110867,128,0,110965:0:0:0:0:
192,192,110965,1,0,0:0:0:0:
448,192,110965,1,0,0:0:0:0:
64,192,111064,1,0,0:0:0:0:
320,192,111064,1,0,0:0:0:0:
448,192,111163,128,2,111854:0:0:0:0:
192,192,111163,1,2,0:0:0:0:
64,192,111360,128,0,111952:0:0:0:0:
192,192,111360,1,0,0:0:0:0:
192,192,111558,1,8,0:0:0:0:
320,192,111558,1,8,0:0:0:0:
320,192,111656,1,0,0:0:0:0:
192,192,111755,1,0,0:0:0:0:
320,192,111854,1,0,0:0:0:0:
192,192,111952,128,2,112742:0:0:0:0:
448,192,111952,1,2,0:0:0:0:
448,192,112150,1,0,0:0:0:0:
320,192,112248,1,0,0:0:0:0:
64,192,112347,1,8,0:0:0:0:
448,192,112347,1,8,0:0:0:0:
320,192,112347,1,0,0:0:0:0:
448,192,112446,1,0,0:0:0:0:
64,192,112544,1,0,0:0:0:0:
320,192,112643,1,0,0:0:0:0:
64,192,112742,1,2,0:0:0:0:
448,192,112742,128,2,112840:0:0:0:0:
192,192,112939,1,0,0:0:0:0:
320,192,112939,1,0,0:0:0:0:
448,192,113038,128,0,113136:0:0:0:0:
64,192,113136,1,8,0:0:0:0:
320,192,113136,1,8,0:0:0:0:
192,192,113136,1,0,0:0:0:0:
320,192,113235,1,0,0:0:0:0:
448,192,113334,128,0,113433:0:0:0:0:
64,192,113334,1,0,0:0:0:0:
192,192,113433,1,0,0:0:0:0:
320,192,113531,1,2,0:0:0:0:
64,192,113531,1,2,0:0:0:0:
448,192,113630,128,0,113729:0:0:0:0:
320,192,113729,1,0,0:0:0:0:
192,192,113729,1,0,0:0:0:0:
64,192,113827,1,0,0:0:0:0:
448,192,113926,128,0,114025:0:0:0:0:
320,192,113926,1,8,0:0:0:0:
192,192,113926,1,8,0:0:0:0:
64,192,114025,1,0,0:0:0:0:
192,192,114123,1,0,0:0:0:0:
448,192,114123,1,0,0:0:0:0:
320,192,114222,1,0,0:0:0:0:
192,192,114321,1,2,0:0:0:0:
64,192,114321,128,2,114715:0:0:0:0:
448,192,114321,128,4,114715:0:0:0:0:
320,192,114518,128,0,114715:0:0:0:0:
192,192,114715,128,0,114913:0:0:0:0:
448,192,114913,128,2,115308:0:0:0:0:
64,192,114913,128,2,115308:0:0:0:0:
320,192,114913,1,4,0:0:0:0:
320,192,115308,128,0,115505:0:0:0:0:
448,192,115505,1,4,0:0:0:0:
64,192,115505,128,2,115702:0:0:0:0:
192,192,115505,128,2,115702:0:0:0:0:
320,192,115702,128,0,116097:0:0:0:0:
64,192,116097,1,2,0:0:0:0:
448,192,116097,128,2,116294:0:0:0:0:
192,192,116097,1,0,0:0:0:0:
320,192,116294,128,8,116492:0:0:0:0:
192,192,116294,1,8,0:0:0:0:
64,192,116492,128,0,116689:0:0:0:0:
320,192,116689,1,2,0:0:0:0:
448,192,116689,1,2,0:0:0:0:
448,192,116886,128,0,117084:0:0:0:0:
320,192,116886,128,0,117084:0:0:0:0:
192,192,117084,1,8,0:0:0:0:
64,192,117084,1,8,0:0:0:0:
64,192,117183,128,0,117380:0:0:0:0:
192,192,117183,128,0,117380:0:0:0:0:
64,192,117479,1,4,0:0:0:0:
320,192,117479,1,2,0:0:0:0:
448,192,117479,1,2,0:0:0:0:
64,192,117676,1,0,0:0:0:0:
192,192,117676,1,0,0:0:0:0:
320,192,117775,1,0,0:0:0:0:
192,192,117873,1,8,0:0:0:0:
64,192,117873,1,8,0:0:0:0:
448,192,117873,128,0,118268:0:0:0:0:
320,192,118005,128,0,118268:0:0:0:0:
64,192,118268,1,2,0:0:0:0:
192,192,118268,1,2,0:0:0:0:
320,192,118367,1,0,0:0:0:0:
448,192,118367,1,0,0:0:0:0:
64,192,118465,1,0,0:0:0:0:
448,192,118465,1,0,0:0:0:0:
320,192,118564,1,0,0:0:0:0:
192,192,118564,1,0,0:0:0:0:
64,192,118663,1,8,0:0:0:0:
192,192,118663,1,8,0:0:0:0:
448,192,118663,1,0,0:0:0:0:
320,192,118761,1,0,0:0:0:0:
64,192,118860,128,0,119058:0:0:0:0:
192,192,118860,128,0,119058:0:0:0:0:
320,192,119058,1,2,0:0:0:0:
448,192,119058,1,2,0:0:0:0:
448,192,119156,1,0,0:0:0:0:
64,192,119156,1,0,0:0:0:0:
64,192,119255,1,0,0:0:0:0:
192,192,119255,1,0,0:0:0:0:
320,192,119354,1,0,0:0:0:0:
448,192,119354,1,0,0:0:0:0:
64,192,119452,1,8,0:0:0:0:
192,192,119452,1,8,0:0:0:0:
448,192,119452,1,0,0:0:0:0:
64,192,119551,1,0,0:0:0:0:
192,192,119551,1,0,0:0:0:0:
320,192,119650,1,0,0:0:0:0:
448,192,119650,1,0,0:0:0:0:
64,192,119748,1,0,0:0:0:0:
192,192,119748,1,0,0:0:0:0:
448,192,119847,128,2,119946:0:0:0:0:
64,192,119847,128,2,119946:0:0:0:0:
192,192,119946,128,0,120044:0:0:0:0:
320,192,119946,128,0,120044:0:0:0:0:
448,192,120044,128,0,120143:0:0:0:0:
64,192,120044,128,0,120143:0:0:0:0:
320,192,120143,128,0,120242:0:0:0:0:
64,192,120242,1,8,0:0:0:0:
192,192,120242,1,8,0:0:0:0:
448,192,120242,128,0,120439:0:0:0:0:
320,192,120340,128,0,120439:0:0:0:0:
192,192,120439,128,0,120636:0:0:0:0:
64,192,120636,1,2,0:0:0:0:
448,192,120636,1,2,0:0:0:0:
192,192,120834,1,0,0:0:0:0:
320,192,120834,1,0,0:0:0:0:
64,192,121031,1,8,0:0:0:0:
192,192,121031,1,8,0:0:0:0:
448,192,121031,1,0,0:0:0:0:
448,192,121130,1,0,0:0:0:0:
320,192,121130,1,0,0:0:0:0:
64,192,121229,1,0,0:0:0:0:
320,192,121229,1,0,0:0:0:0:
192,192,121327,1,0,0:0:0:0:
64,192,121327,1,0,0:0:0:0:
320,192,121426,1,2,0:0:0:0:
448,192,121426,128,2,121492:0:0:0:0:
448,192,121558,128,0,121623:0:0:0:0:
64,192,121623,1,0,0:0:0:0:
192,192,121623,1,0,0:0:0:0:
448,192,121689,128,0,121755:0:0:0:0:
448,192,121821,1,0,0:0:0:0:
64,192,121821,128,8,121919:0:0:0:0:
192,192,121821,128,8,121919:0:0:0:0:
320,192,121919,128,0,122018:0:0:0:0:
448,192,121919,128,0,122018:0:0:0:0:
64,192,122018,128,0,122117:0:0:0:0:
192,192,122018,128,0,122117:0:0:0:0:
320,192,122117,128,0,122215:0:0:0:0:
448,192,122117,128,0,122215:0:0:0:0:
192,192,122215,1,2,0:0:0:0:
64,192,122215,1,2,0:0:0:0:
320,192,122413,1,0,0:0:0:0:
448,192,122413,1,0,0:0:0:0:
64,192,122511,1,0,0:0:0:0:
192,192,122511,1,0,0:0:0:0:
64,192,122610,1,0,0:0:0:0:
320,192,122610,1,8,0:0:0:0:
448,192,122610,1,8,0:0:0:0:
192,192,122709,1,0,0:0:0:0:
448,192,122709,1,0,0:0:0:0:
320,192,122808,1,0,0:0:0:0:
64,192,122808,1,0,0:0:0:0:
192,192,122906,1,0,0:0:0:0:
448,192,122906,1,0,0:0:0:0:
64,192,123005,128,2,123104:0:0:0:0:
192,192,123005,128,2,123104:0:0:0:0:
320,192,123104,128,0,123202:0:0:0:0:
448,192,123104,128,0,123202:0:0:0:0:
64,192,123202,1,0,0:0:0:0:
192,192,123301,1,0,0:0:0:0:
320,192,123400,1,8,0:0:0:0:
448,192,123400,1,8,0:0:0:0:
64,192,123400,1,0,0:0:0:0:
192,192,123498,1,0,0:0:0:0:
448,192,123597,1,0,0:0:0:0:
64,192,123597,1,0,0:0:0:0:
320,192,123696,1,0,0:0:0:0:
448,192,123794,1,4,0:0:0:0:
64,192,123794,128,2,123860:0:0:0:0:
192,192,123794,128,2,123860:0:0:0:0:
64,192,123926,128,0,123992:0:0:0:0:
192,192,123926,128,0,123992:0:0:0:0:
64,192,124058,128,0,124123:0:0:0:0:
192,192,124058,128,0,124123:0:0:0:0:
64,192,124189,1,0,0:0:0:0:
320,192,124189,1,8,0:0:0:0:
448,192,124189,1,8,0:0:0:0:
192,192,124288,1,0,0:0:0:0:
448,192,124386,1,0,0:0:0:0:
64,192,124386,1,0,0:0:0:0:
320,192,124485,1,0,0:0:0:0:
64,192,124584,128,2,124880:0:0:0:0:
192,192,124584,1,2,0:0:0:0:
448,192,124683,1,0,0:0:0:0:
192,192,124781,1,0,0:0:0:0:
320,192,124880,1,0,0:0:0:0:
192,192,124979,1,8,0:0:0:0:
448,192,124979,1,0,0:0:0:0:
64,192,124979,1,8,0:0:0:0:
192,192,125176,1,0,0:0:0:0:
320,192,125176,1,0,0:0:0:0:
64,192,125373,1,2,0:0:0:0:
448,192,125373,128,2,125571:0:0:0:0:
320,192,125571,1,0,0:0:0:0:
64,192,125571,1,0,0:0:0:0:
192,192,125669,1,0,0:0:0:0:
320,192,125768,1,8,0:0:0:0:
64,192,125768,1,0,0:0:0:0:
448,192,125768,1,8,0:0:0:0:
192,192,125867,1,0,0:0:0:0:
320,192,125965,1,0,0:0:0:0:
64,192,125965,1,0,0:0:0:0:
448,192,126064,1,0,0:0:0:0:
64,192,126163,1,2,0:0:0:0:
192,192,126163,1,2,0:0:0:0:
320,192,126261,1,0,0:0:0:0:
448,192,126261,1,0,0:0:0:0:
64,192,126360,1,0,0:0:0:0:
448,192,126360,1,0,0:0:0:0:
192,192,126459,1,0,0:0:0:0:
320,192,126459,1,0,0:0:0:0:
192,192,126558,1,8,0:0:0:0:
448,192,126558,1,0,0:0:0:0:
64,192,126558,1,8,0:0:0:0:
448,192,126656,1,0,0:0:0:0:
320,192,126656,1,0,0:0:0:0:
64,192,126755,1,0,0:0:0:0:
192,192,126755,1,0,0:0:0:0:
448,192,126854,1,0,0:0:0:0:
320,192,126854,1,0,0:0:0:0:
64,192,126952,1,2,0:0:0:0:
448,192,126952,1,2,0:0:0:0:
320,192,127051,1,0,0:0:0:0:
64,192,127150,1,0,0:0:0:0:
448,192,127150,1,0,0:0:0:0:
192,192,127248,1,0,0:0:0:0:
64,192,127347,1,0,0:0:0:0:
448,192,127347,128,8,127446:0:0:0:0:
320,192,127347,128,8,127446:0:0:0:0:
64,192,127446,128,0,127544:0:0:0:0:
192,192,127544,128,0,127643:0:0:0:0:
320,192,127544,128,0,127643:0:0:0:0:
448,192,127643,128,0,127742:0:0:0:0:
64,192,127742,1,2,0:0:0:0:
192,192,127742,1,2,0:0:0:0:
192,192,127939,1,0,0:0:0:0:
320,192,127939,1,0,0:0:0:0:
64,192,128136,1,0,0:0:0:0:
320,192,128136,1,8,0:0:0:0:
448,192,128136,1,8,0:0:0:0:
192,192,128235,1,0,0:0:0:0:
320,192,128235,1,0,0:0:0:0:
448,192,128334,1,0,0:0:0:0:
64,192,128334,1,0,0:0:0:0:
320,192,128433,1,0,0:0:0:0:
448,192,128433,1,0,0:0:0:0:
64,192,128531,128,2,128926:0:0:0:0:
192,192,128531,1,2,0:0:0:0:
320,192,128729,1,0,0:0:0:0:
320,192,128926,1,8,0:0:0:0:
448,192,128926,1,8,0:0:0:0:
192,192,128926,1,0,0:0:0:0:
64,192,129025,1,0,0:0:0:0:
192,192,129123,1,0,0:0:0:0:
448,192,129123,1,0,0:0:0:0:
320,192,129222,1,0,0:0:0:0:
64,192,129321,1,2,0:0:0:0:
448,192,129321,1,2,0:0:0:0:
320,192,129419,1,0,0:0:0:0:
192,192,129419,1,0,0:0:0:0:
448,192,129518,1,0,0:0:0:0:
64,192,129518,1,0,0:0:0:0:
320,192,129617,1,0,0:0:0:0:
192,192,129617,1,0,0:0:0:0:
64,192,129715,1,0,0:0:0:0:
448,192,129715,1,8,0:0:0:0:
192,192,129715,1,0,0:0:0:0:
320,192,129814,1,0,0:0:0:0:
448,192,129814,1,0,0:0:0:0:
64,192,129913,1,0,0:0:0:0:
192,192,129913,1,0,0:0:0:0:
320,192,130011,1,0,0:0:0:0:
448,192,130011,1,0,0:0:0:0:
64,192,130110,1,2,0:0:0:0:
192,192,130110,1,2,0:0:0:0:
448,192,130110,1,4,0:0:0:0:
192,192,130308,1,0,0:0:0:0:
320,192,130308,1,0,0:0:0:0:
320,192,130505,1,8,0:0:0:0:
448,192,130505,1,8,0:0:0:0:
64,192,130505,128,2,130702:0:0:0:0:
192,192,130702,128,0,130900:0:0:0:0:
448,192,130702,1,0,0:0:0:0:
448,192,130900,128,8,131294:0:0:0:0:
64,192,130900,1,2,0:0:0:0:
320,192,130900,1,8,0:0:0:0:
320,192,131097,128,0,131294:0:0:0:0:
64,192,131294,128,2,131492:0:0:0:0:
192,192,131294,1,8,0:0:0:0:
192,192,131492,128,0,131886:0:0:0:0:
320,192,131492,1,0,0:0:0:0:
64,192,131689,1,2,0:0:0:0:
320,192,131689,1,8,0:0:0:0:
448,192,131689,1,8,0:0:0:0:
448,192,131886,128,0,132084:0:0:0:0:
64,192,131886,1,0,0:0:0:0:
64,192,132084,128,8,132281:0:0:0:0:
192,192,132084,1,8,0:0:0:0:
320,192,132084,1,2,0:0:0:0:
320,192,132281,128,0,132676:0:0:0:0:
448,192,132281,1,0,0:0:0:0:
64,192,132479,1,8,0:0:0:0:
192,192,132479,1,8,0:0:0:0:
448,192,132479,1,2,0:0:0:0:
192,192,132676,128,0,132873:0:0:0:0:
64,192,132676,1,0,0:0:0:0:
64,192,132873,128,2,133268:0:0:0:0:
320,192,132873,1,8,0:0:0:0:
448,192,132873,1,8,0:0:0:0:
448,192,133071,128,0,133268:0:0:0:0:
192,192,133071,1,0,0:0:0:0:
320,192,133268,1,2,0:0:0:0:
192,192,133268,1,8,0:0:0:0:
320,192,133367,1,0,0:0:0:0:
192,192,133465,128,0,133663:0:0:0:0:
64,192,133465,1,0,0:0:0:0:
448,192,133465,1,0,0:0:0:0:
64,192,133663,128,2,133860:0:0:0:0:
320,192,133663,1,8,0:0:0:0:
448,192,133663,1,8,0:0:0:0:
320,192,133860,128,0,134058:0:0:0:0:
192,192,133860,1,0,0:0:0:0:
448,192,134058,128,2,134452:0:0:0:0:
64,192,134058,1,8,0:0:0:0:
192,192,134058,1,8,0:0:0:0:
320,192,134255,128,0,134452:0:0:0:0:
192,192,134255,1,0,0:0:0:0:
64,192,134452,128,8,134650:0:0:0:0:
192,192,134452,1,2,0:0:0:0:
192,192,134650,128,0,134847:0:0:0:0:
320,192,134650,1,0,0:0:0:0:
448,192,134847,128,8,135242:0:0:0:0:
64,192,134847,1,2,0:0:0:0:
320,192,134847,1,8,0:0:0:0:
192,192,135044,1,0,0:0:0:0:
320,192,135044,1,0,0:0:0:0:
64,192,135242,128,8,135439:0:0:0:0:
192,192,135242,1,8,0:0:0:0:
320,192,135242,1,2,0:0:0:0:
320,192,135439,128,0,135735:0:0:0:0:
448,192,135439,1,0,0:0:0:0:
64,192,135636,1,8,0:0:0:0:
192,192,135636,1,8,0:0:0:0:
448,192,135636,1,2,0:0:0:0:
320,192,135834,128,0,136031:0:0:0:0:
192,192,135834,1,0,0:0:0:0:
192,192,136031,128,8,136426:0:0:0:0:
64,192,136031,1,8,0:0:0:0:
448,192,136031,1,2,0:0:0:0:
64,192,136229,1,0,0:0:0:0:
320,192,136229,128,0,136426:0:0:0:0:
64,192,136426,1,2,0:0:0:0:
448,192,136426,128,8,136623:0:0:0:0:
192,192,136623,128,0,136821:0:0:0:0:
320,192,136623,1,0,0:0:0:0:
64,192,136821,1,2,0:0:0:0:
320,192,136821,1,8,0:0:0:0:
448,192,136821,128,8,137018:0:0:0:0:
192,192,137018,128,0,137215:0:0:0:0:
64,192,137018,1,0,0:0:0:0:
64,192,137215,128,2,137610:0:0:0:0:
320,192,137215,1,8,0:0:0:0:
448,192,137215,1,8,0:0:0:0:
448,192,137413,128,0,137610:0:0:0:0:
192,192,137413,1,0,0:0:0:0:
320,192,137610,128,2,137808:0:0:0:0:
192,192,137610,1,8,0:0:0:0:
64,192,137808,1,0,0:0:0:0:
192,192,137808,128,0,138202:0:0:0:0:
64,192,138005,1,2,0:0:0:0:
448,192,138005,1,8,0:0:0:0:
320,192,138005,1,8,0:0:0:0:
448,192,138202,128,0,138400:0:0:0:0:
320,192,138202,1,0,0:0:0:0:
64,192,138400,128,2,138597:0:0:0:0:
192,192,138400,1,8,0:0:0:0:
320,192,138400,1,8,0:0:0:0:
320,192,138597,128,0,138992:0:0:0:0:
448,192,138597,1,0,0:0:0:0:
64,192,138794,1,8,0:0:0:0:
192,192,138794,1,8,0:0:0:0:
448,192,138794,1,2,0:0:0:0:
192,192,138992,128,0,139189:0:0:0:0:
448,192,138992,1,0,0:0:0:0:
64,192,139189,128,8,139584:0:0:0:0:
320,192,139189,1,8,0:0:0:0:
448,192,139189,1,2,0:0:0:0:
320,192,139386,128,0,139584:0:0:0:0:
192,192,139386,1,0,0:0:0:0:
448,192,139584,1,8,0:0:0:0:
192,192,139584,1,2,0:0:0:0:
448,192,139683,1,0,0:0:0:0:
192,192,139781,128,0,139979:0:0:0:0:
64,192,139781,1,0,0:0:0:0:
448,192,139979,128,8,140176:0:0:0:0:
64,192,139979,1,2,0:0:0:0:
320,192,139979,1,8,0:0:0:0:
320,192,140176,128,0,140373:0:0:0:0:
192,192,140176,1,0,0:0:0:0:
64,192,140373,128,8,140768:0:0:0:0:
192,192,140373,1,8,0:0:0:0:
448,192,140373,1,2,0:0:0:0:
192,192,140571,128,0,140768:0:0:0:0:
448,192,140571,1,0,0:0:0:0:
320,192,140768,128,2,140965:0:0:0:0:
448,192,140768,1,8,0:0:0:0:
192,192,140965,128,0,141163:0:0:0:0:
64,192,140965,1,0,0:0:0:0:
448,192,141163,128,8,141558:0:0:0:0:
64,192,141163,1,2,0:0:0:0:
320,192,141163,1,8,0:0:0:0:
64,192,141558,128,2,141755:0:0:0:0:
192,192,141558,1,8,0:0:0:0:
320,192,141558,1,8,0:0:0:0:
320,192,141755,1,8,0:0:0:0:
448,192,141755,1,2,0:0:0:0:
192,192,141755,128,8,142150:0:0:0:0:
64,192,142150,1,2,0:0:0:0:
448,192,142150,1,8,0:0:0:0:
320,192,142150,128,8,142347:0:0:0:0:
192,192,142347,128,8,142742:0:0:0:0:
64,192,142347,1,8,0:0:0:0:
448,192,142347,1,2,0:0:0:0:
64,192,142742,1,2,0:0:0:0:
448,192,142742,1,4,0:0:0:0:
320,192,142742,1,0,0:0:0:0:
