osu file format v14

[General]
AudioFilename: audio.mp3
AudioLeadIn: 0
PreviewTime: 40110
Countdown: 0
SampleSet: Normal
StackLeniency: 0.7
Mode: 3
LetterboxInBreaks: 0
SpecialStyle: 0
WidescreenStoryboard: 0

[Editor]
Bookmarks: 13268,25900,40110,49584,52742,62215,65373,78005,90636,92215,101689,104847,114321,130110,142742
DistanceSpacing: 0.8
BeatDivisor: 4
GridSize: 4
TimelineZoom: 2.4

[Metadata]
Title:Re/Im
TitleUnicode:Re/Im
Artist:q/stol
ArtistUnicode:q/stol
Creator:Lude
Version:Re/Normal
Source:BMS
Tags:hi-tech full on frenz2016 bofu2016 :agine
BeatmapID:1245091
BeatmapSetID:588066

[Difficulty]
HPDrainRate:7.5
CircleSize:4
OverallDifficulty:7
ApproachRate:5
SliderMultiplier:1.4
SliderTickRate:1

[Events]
//Background and Video events
0,0,"BG1.png",0,0
//Break Periods
//Storyboard Layer 0 (Background)
//Storyboard Layer 1 (Fail)
//Storyboard Layer 2 (Pass)
//Storyboard Layer 3 (Foreground)
//Storyboard Sound Samples

[TimingPoints]
637,394.736842105263,4,1,1,30,1,0
40110,-100,4,1,1,30,0,1
49584,-100,4,1,1,30,0,0
52742,-100,4,1,1,30,0,1
62215,-100,4,1,1,30,0,0
92215,-100,4,1,1,30,0,1
101689,-100,4,1,1,30,0,0
104847,-100,4,1,1,30,0,1
114321,-100,4,1,1,30,0,0

[HitObjects]
64,192,637,5,2,0:0:0:0:
448,192,637,1,4,0:0:0:0:
320,192,1426,1,0,0:0:0:0:
64,192,3005,128,0,3597:0:0:0:0:
192,192,3597,128,0,3794:0:0:0:0:
448,192,3794,128,2,4584:0:0:0:0:
64,192,3794,1,0,0:0:0:0:
64,192,4090,1,0,0:0:0:0:
64,192,4386,1,0,0:0:0:0:
192,192,4584,1,0,0:0:0:0:
320,192,4979,1,0,0:0:0:0:
192,192,5077,1,0,0:0:0:0:
448,192,5373,128,0,6558:0:0:0:0:
64,192,6558,1,0,0:0:0:0:
192,192,6656,1,0,0:0:0:0:
320,192,6952,1,0,0:0:0:0:
448,192,7742,1,0,0:0:0:0:
192,192,8531,1,0,0:0:0:0:
64,192,9321,1,0,0:0:0:0:
320,192,10110,1,0,0:0:0:0:
448,192,10900,1,0,0:0:0:0:
192,192,11689,1,0,0:0:0:0:
64,192,12281,1,2,0:0:0:0:
192,192,12380,1,2,0:0:0:0:
320,192,12479,128,0,12873:0:0:0:0:
448,192,13268,1,4,0:0:0:0:
64,192,13268,1,2,0:0:0:0:
192,192,13465,1,0,0:0:0:0:
320,192,13663,1,0,0:0:0:0:
64,192,13860,128,2,14354:0:0:0:0:
448,192,13860,128,4,14354:0:0:0:0:
192,192,14452,128,2,15538:0:0:0:0:
320,192,14452,128,4,15538:0:0:0:0:
448,192,15636,1,0,0:0:0:0:
320,192,15834,1,0,0:0:0:0:
192,192,16031,128,0,16426:0:0:0:0:
64,192,16426,128,2,16919:0:0:0:0:
448,192,16426,128,4,16919:0:0:0:0:
320,192,17018,128,4,17511:0:0:0:0:
192,192,17018,128,2,17511:0:0:0:0:
64,192,17610,128,4,18696:0:0:0:0:
448,192,17610,128,2,18696:0:0:0:0:
192,192,18794,1,0,0:0:0:0:
64,192,18992,1,0,0:0:0:0:
320,192,19189,1,0,0:0:0:0:
448,192,19386,1,0,0:0:0:0:
64,192,19584,128,2,20077:0:0:0:0:
192,192,19584,128,4,20077:0:0:0:0:
320,192,20176,128,4,20669:0:0:0:0:
448,192,20176,128,2,20669:0:0:0:0:
64,192,20768,128,4,21854:0:0:0:0:
192,192,20768,128,2,21854:0:0:0:0:
448,192,21952,1,0,0:0:0:0:
320,192,22150,1,0,0:0:0:0:
192,192,22347,1,0,0:0:0:0:
64,192,22544,1,0,0:0:0:0:
320,192,22742,128,4,23235:0:0:0:0:
448,192,22742,128,2,23235:0:0:0:0:
64,192,23334,128,2,23827:0:0:0:0:
192,192,23334,128,4,23827:0:0:0:0:
320,192,23926,128,4,25011:0:0:0:0:
448,192,23926,128,2,25011:0:0:0:0:
448,192,25110,1,8,0:0:0:0:
64,192,25110,128,8,25505:0:0:0:0:
320,192,25505,128,0,25900:0:0:0:0:
64,192,25900,1,2,0:0:0:0:
448,192,25900,1,4,0:0:0:0:
192,192,26097,1,0,0:0:0:0:
448,192,26294,1,8,0:0:0:0:
320,192,26294,1,2,0:0:0:0:
64,192,26492,1,0,0:0:0:0:
192,192,26689,1,10,0:0:0:0:
320,192,26886,1,0,0:0:0:0:
64,192,27084,1,2,0:0:0:0:
448,192,27084,1,8,0:0:0:0:
192,192,27281,1,0,0:0:0:0:
320,192,27479,1,10,0:0:0:0:
192,192,27676,1,0,0:0:0:0:
64,192,27873,1,8,0:0:0:0:
448,192,27873,1,2,0:0:0:0:
192,192,28071,1,0,0:0:0:0:
64,192,28268,128,2,28465:0:0:0:0:
448,192,28268,1,8,0:0:0:0:
192,192,28465,128,0,28663:0:0:0:0:
320,192,28663,128,10,28860:0:0:0:0:
448,192,28860,128,0,29058:0:0:0:0:
64,192,29058,1,10,0:0:0:0:
320,192,29255,1,0,0:0:0:0:
64,192,29452,1,2,0:0:0:0:
192,192,29452,1,8,0:0:0:0:
448,192,29650,1,0,0:0:0:0:
320,192,29847,1,10,0:0:0:0:
64,192,30044,1,0,0:0:0:0:
448,192,30242,1,2,0:0:0:0:
320,192,30242,1,8,0:0:0:0:
192,192,30439,1,0,0:0:0:0:
64,192,30636,1,10,0:0:0:0:
448,192,30834,1,0,0:0:0:0:
192,192,31031,1,8,0:0:0:0:
320,192,31031,1,2,0:0:0:0:
64,192,31229,1,0,0:0:0:0:
448,192,31426,1,10,0:0:0:0:
192,192,31623,1,0,0:0:0:0:
64,192,31821,1,2,0:0:0:0:
448,192,31821,1,8,0:0:0:0:
320,192,32018,1,0,0:0:0:0:
448,192,32215,1,2,0:0:0:0:
64,192,32215,1,8,0:0:0:0:
192,192,32413,1,8,0:0:0:0:
320,192,32610,1,2,0:0:0:0:
448,192,32610,1,8,0:0:0:0:
448,192,33005,1,2,0:0:0:0:
320,192,33005,1,8,0:0:0:0:
192,192,33202,1,8,0:0:0:0:
448,192,33400,1,8,0:0:0:0:
64,192,33400,1,2,0:0:0:0:
64,192,33794,1,2,0:0:0:0:
448,192,33794,1,8,0:0:0:0:
192,192,33992,1,8,0:0:0:0:
64,192,34189,1,2,0:0:0:0:
448,192,34189,1,8,0:0:0:0:
192,192,34584,1,2,0:0:0:0:
448,192,34584,1,8,0:0:0:0:
320,192,34781,1,8,0:0:0:0:
64,192,34979,1,2,0:0:0:0:
448,192,34979,1,8,0:0:0:0:
320,192,35373,1,2,0:0:0:0:
448,192,35373,1,8,0:0:0:0:
64,192,35768,1,2,0:0:0:0:
192,192,35768,1,2,0:0:0:0:
320,192,36163,1,2,0:0:0:0:
448,192,36163,1,2,0:0:0:0:
64,192,36558,1,2,0:0:0:0:
192,192,36558,1,2,0:0:0:0:
320,192,36755,128,0,37150:0:0:0:0:
448,192,37150,128,0,37347:0:0:0:0:
64,192,37347,128,0,37544:0:0:0:0:
192,192,37544,128,0,38531:0:0:0:0:
64,192,38531,1,0,0:0:0:0:
192,192,38630,1,0,0:0:0:0:
320,192,38729,1,0,0:0:0:0:
448,192,38827,128,0,39715:0:0:0:0:
192,192,39715,1,8,0:0:0:0:
64,192,39715,1,8,0:0:0:0:
64,192,40110,1,2,0:0:0:0:
448,192,40110,1,4,0:0:0:0:
320,192,40308,1,0,0:0:0:0:
64,192,40505,1,8,0:0:0:0:
448,192,40505,1,8,0:0:0:0:
192,192,40702,1,0,0:0:0:0:
320,192,40900,128,2,41097:0:0:0:0:
64,192,41097,128,0,41294:0:0:0:0:
192,192,41294,1,8,0:0:0:0:
448,192,41294,1,8,0:0:0:0:
320,192,41492,128,0,41689:0:0:0:0:
64,192,41689,1,2,0:0:0:0:
448,192,41689,1,2,0:0:0:0:
320,192,41886,1,0,0:0:0:0:
192,192,42084,1,8,0:0:0:0:
64,192,42084,1,8,0:0:0:0:
448,192,42281,1,0,0:0:0:0:
192,192,42479,128,2,42676:0:0:0:0:
320,192,42676,1,0,0:0:0:0:
64,192,42873,1,8,0:0:0:0:
448,192,42873,1,8,0:0:0:0:
320,192,43071,128,0,43268:0:0:0:0:
64,192,43268,1,2,0:0:0:0:
192,192,43268,1,2,0:0:0:0:
320,192,43465,1,0,0:0:0:0:
64,192,43663,1,8,0:0:0:0:
448,192,43663,1,8,0:0:0:0:
192,192,43860,1,0,0:0:0:0:
448,192,44058,128,2,44452:0:0:0:0:
320,192,44058,1,2,0:0:0:0:
192,192,44452,1,8,0:0:0:0:
64,192,44452,1,8,0:0:0:0:
320,192,44650,1,0,0:0:0:0:
448,192,44847,128,2,45044:0:0:0:0:
320,192,45143,128,2,45340:0:0:0:0:
192,192,45439,128,2,45636:0:0:0:0:
448,192,45636,1,2,0:0:0:0:
64,192,45636,1,2,0:0:0:0:
320,192,45834,1,0,0:0:0:0:
64,192,46031,1,8,0:0:0:0:
192,192,46031,1,8,0:0:0:0:
320,192,46229,1,0,0:0:0:0:
448,192,46426,1,4,0:0:0:0:
64,192,46426,128,2,46821:0:0:0:0:
320,192,46821,1,8,0:0:0:0:
448,192,46821,1,8,0:0:0:0:
192,192,47018,1,0,0:0:0:0:
448,192,47215,128,2,47610:0:0:0:0:
64,192,47215,1,2,0:0:0:0:
192,192,47610,1,8,0:0:0:0:
64,192,47610,1,8,0:0:0:0:
320,192,47808,1,0,0:0:0:0:
64,192,48005,128,2,48202:0:0:0:0:
192,192,48202,1,0,0:0:0:0:
448,192,48400,1,8,0:0:0:0:
320,192,48400,1,8,0:0:0:0:
192,192,48597,1,0,0:0:0:0:
64,192,48794,1,2,0:0:0:0:
448,192,48794,1,2,0:0:0:0:
320,192,48992,1,0,0:0:0:0:
64,192,49189,1,8,0:0:0:0:
192,192,49189,1,8,0:0:0:0:
320,192,49386,1,0,0:0:0:0:
64,192,49584,128,4,50077:0:0:0:0:
448,192,49584,128,2,50077:0:0:0:0:
64,192,50176,128,4,50669:0:0:0:0:
448,192,50176,128,2,50669:0:0:0:0:
192,192,50768,128,4,51854:0:0:0:0:
320,192,50768,128,2,51854:0:0:0:0:
64,192,51952,1,2,0:0:0:0:
192,192,52150,1,2,0:0:0:0:
448,192,52347,1,8,0:0:0:0:
320,192,52544,1,8,0:0:0:0:
64,192,52742,1,2,0:0:0:0:
192,192,52742,1,4,0:0:0:0:
320,192,52939,1,0,0:0:0:0:
64,192,53136,1,8,0:0:0:0:
448,192,53136,1,8,0:0:0:0:
320,192,53334,1,0,0:0:0:0:
64,192,53531,1,2,0:0:0:0:
448,192,53531,1,2,0:0:0:0:
192,192,53729,1,0,0:0:0:0:
320,192,53926,128,8,54321:0:0:0:0:
448,192,53926,1,8,0:0:0:0:
64,192,54321,1,2,0:0:0:0:
192,192,54321,1,2,0:0:0:0:
320,192,54518,1,0,0:0:0:0:
448,192,54715,1,8,0:0:0:0:
64,192,54715,1,8,0:0:0:0:
320,192,54913,1,0,0:0:0:0:
64,192,55110,128,2,55900:0:0:0:0:
192,192,55110,1,2,0:0:0:0:
320,192,55505,1,8,0:0:0:0:
448,192,55505,1,8,0:0:0:0:
192,192,55900,1,2,0:0:0:0:
448,192,55900,1,2,0:0:0:0:
320,192,56097,1,0,0:0:0:0:
64,192,56294,1,8,0:0:0:0:
448,192,56294,1,8,0:0:0:0:
320,192,56492,1,0,0:0:0:0:
64,192,56689,1,4,0:0:0:0:
192,192,56689,1,2,0:0:0:0:
320,192,56985,1,2,0:0:0:0:
448,192,56985,1,4,0:0:0:0:
64,192,57281,1,2,0:0:0:0:
192,192,57281,1,4,0:0:0:0:
320,192,57479,128,2,57873:0:0:0:0:
448,192,57479,1,2,0:0:0:0:
64,192,57873,128,8,58268:0:0:0:0:
448,192,57873,1,8,0:0:0:0:
192,192,58268,128,2,58663:0:0:0:0:
320,192,58268,1,2,0:0:0:0:
64,192,58663,1,8,0:0:0:0:
448,192,58663,128,8,59058:0:0:0:0:
64,192,59058,1,2,0:0:0:0:
192,192,59058,1,4,0:0:0:0:
320,192,59255,1,0,0:0:0:0:
64,192,59452,1,8,0:0:0:0:
448,192,59452,1,8,0:0:0:0:
192,192,59650,1,0,0:0:0:0:
448,192,59847,1,2,0:0:0:0:
64,192,59847,1,2,0:0:0:0:
320,192,60044,1,0,0:0:0:0:
64,192,60242,1,8,0:0:0:0:
192,192,60242,128,8,60636:0:0:0:0:
448,192,60636,128,2,61031:0:0:0:0:
320,192,60636,1,2,0:0:0:0:
64,192,61031,128,8,61426:0:0:0:0:
192,192,61031,1,8,0:0:0:0:
320,192,61426,128,2,61821:0:0:0:0:
448,192,61426,1,2,0:0:0:0:
64,192,61821,1,8,0:0:0:0:
192,192,61821,128,8,62215:0:0:0:0:
320,192,62215,128,2,62709:0:0:0:0:
64,192,62215,128,4,62709:0:0:0:0:
192,192,62808,128,4,63301:0:0:0:0:
448,192,62808,128,2,63301:0:0:0:0:
64,192,63400,128,4,64485:0:0:0:0:
320,192,63400,128,2,64485:0:0:0:0:
64,192,64584,1,2,0:0:0:0:
448,192,64781,1,0,0:0:0:0:
64,192,64880,1,2,0:0:0:0:
448,192,64979,1,8,0:0:0:0:
64,192,65176,1,2,0:0:0:0:
448,192,65373,1,2,0:0:0:0:
320,192,65373,1,4,0:0:0:0:
192,192,65571,1,0,0:0:0:0:
64,192,65768,1,8,0:0:0:0:
448,192,65768,1,8,0:0:0:0:
64,192,66163,1,2,0:0:0:0:
320,192,66163,1,2,0:0:0:0:
192,192,66360,1,0,0:0:0:0:
448,192,66558,1,8,0:0:0:0:
64,192,66558,1,8,0:0:0:0:
320,192,66952,1,2,0:0:0:0:
448,192,66952,1,2,0:0:0:0:
192,192,67150,1,0,0:0:0:0:
64,192,67347,1,8,0:0:0:0:
448,192,67347,1,8,0:0:0:0:
192,192,67742,1,2,0:0:0:0:
448,192,67742,1,2,0:0:0:0:
320,192,67939,1,0,0:0:0:0:
64,192,68136,1,8,0:0:0:0:
192,192,68136,1,8,0:0:0:0:
64,192,68531,1,2,0:0:0:0:
448,192,68531,1,2,0:0:0:0:
192,192,68630,1,0,0:0:0:0:
320,192,68729,1,0,0:0:0:0:
64,192,68926,1,8,0:0:0:0:
192,192,68926,1,8,0:0:0:0:
64,192,69321,1,2,0:0:0:0:
448,192,69321,1,2,0:0:0:0:
192,192,69518,1,0,0:0:0:0:
320,192,69715,1,8,0:0:0:0:
448,192,69715,1,8,0:0:0:0:
64,192,70110,1,2,0:0:0:0:
320,192,70110,1,2,0:0:0:0:
192,192,70308,1,0,0:0:0:0:
320,192,70505,1,8,0:0:0:0:
448,192,70505,1,8,0:0:0:0:
192,192,70900,1,2,0:0:0:0:
448,192,70900,1,2,0:0:0:0:
320,192,71097,1,0,0:0:0:0:
64,192,71294,1,8,0:0:0:0:
448,192,71294,1,8,0:0:0:0:
64,192,71689,1,2,0:0:0:0:
448,192,71689,1,2,0:0:0:0:
192,192,71886,1,0,0:0:0:0:
320,192,72084,1,8,0:0:0:0:
64,192,72084,1,8,0:0:0:0:
320,192,72479,1,2,0:0:0:0:
448,192,72479,1,2,0:0:0:0:
64,192,72676,1,0,0:0:0:0:
320,192,72873,1,8,0:0:0:0:
192,192,72873,1,8,0:0:0:0:
64,192,73268,1,2,0:0:0:0:
192,192,73268,1,2,0:0:0:0:
448,192,73465,1,0,0:0:0:0:
192,192,73663,1,8,0:0:0:0:
320,192,73663,1,8,0:0:0:0:
64,192,74058,1,2,0:0:0:0:
448,192,74058,1,2,0:0:0:0:
320,192,74255,1,0,0:0:0:0:
192,192,74452,1,8,0:0:0:0:
448,192,74452,1,8,0:0:0:0:
320,192,74847,1,2,0:0:0:0:
448,192,74847,1,2,0:0:0:0:
64,192,74946,1,0,0:0:0:0:
192,192,75044,1,0,0:0:0:0:
64,192,75242,1,8,0:0:0:0:
320,192,75242,1,8,0:0:0:0:
64,192,75636,1,2,0:0:0:0:
448,192,75636,1,2,0:0:0:0:
192,192,75834,1,0,0:0:0:0:
320,192,76031,1,8,0:0:0:0:
448,192,76031,1,8,0:0:0:0:
192,192,76426,1,2,0:0:0:0:
448,192,76426,1,2,0:0:0:0:
320,192,76623,1,0,0:0:0:0:
64,192,76821,1,8,0:0:0:0:
448,192,76821,1,8,0:0:0:0:
64,192,77215,1,2,0:0:0:0:
192,192,77215,1,2,0:0:0:0:
320,192,77413,1,0,0:0:0:0:
64,192,77610,1,8,0:0:0:0:
448,192,77610,1,8,0:0:0:0:
64,192,78005,1,8,0:0:0:0:
448,192,78005,1,4,0:0:0:0:
192,192,78202,1,0,0:0:0:0:
320,192,78400,1,8,0:0:0:0:
448,192,78794,1,8,0:0:0:0:
192,192,78992,1,0,0:0:0:0:
320,192,79189,1,8,0:0:0:0:
448,192,79386,128,0,79781:0:0:0:0:
64,192,79584,1,8,0:0:0:0:
320,192,79781,1,0,0:0:0:0:
192,192,79979,1,8,0:0:0:0:
64,192,80176,1,0,0:0:0:0:
320,192,80373,1,8,0:0:0:0:
192,192,80768,1,8,0:0:0:0:
64,192,81163,1,8,0:0:0:0:
192,192,81360,1,0,0:0:0:0:
320,192,81558,1,8,0:0:0:0:
192,192,81952,1,8,0:0:0:0:
448,192,82150,1,0,0:0:0:0:
64,192,82347,1,8,0:0:0:0:
192,192,82544,128,0,82939:0:0:0:0:
448,192,82742,1,8,0:0:0:0:
320,192,82939,1,0,0:0:0:0:
448,192,83136,1,8,0:0:0:0:
192,192,83334,1,0,0:0:0:0:
448,192,83531,1,8,0:0:0:0:
320,192,83926,1,8,0:0:0:0:
64,192,84321,1,8,0:0:0:0:
192,192,84518,1,8,0:0:0:0:
320,192,84715,1,8,0:0:0:0:
448,192,84913,1,8,0:0:0:0:
192,192,85110,1,8,0:0:0:0:
64,192,85308,1,8,0:0:0:0:
448,192,85505,1,8,0:0:0:0:
320,192,85702,128,8,86097:0:0:0:0:
64,192,85900,1,8,0:0:0:0:
192,192,86097,1,8,0:0:0:0:
320,192,86294,1,8,0:0:0:0:
448,192,86492,1,8,0:0:0:0:
192,192,86689,1,8,0:0:0:0:
64,192,86886,1,8,0:0:0:0:
448,192,87084,1,8,0:0:0:0:
320,192,87281,1,8,0:0:0:0:
192,192,87479,1,8,0:0:0:0:
64,192,87676,1,8,0:0:0:0:
320,192,87873,1,8,0:0:0:0:
448,192,88071,1,8,0:0:0:0:
64,192,88268,1,8,0:0:0:0:
320,192,88465,1,8,0:0:0:0:
192,192,88663,1,8,0:0:0:0:
448,192,88860,128,8,89255:0:0:0:0:
64,192,89058,1,8,0:0:0:0:
192,192,89255,1,0,0:0:0:0:
320,192,89452,1,0,0:0:0:0:
448,192,89650,1,0,0:0:0:0:
192,192,89847,128,0,90636:0:0:0:0:
448,192,90636,1,2,0:0:0:0:
64,192,90636,1,4,0:0:0:0:
320,192,91031,1,8,0:0:0:0:
192,192,91229,1,0,0:0:0:0:
64,192,91426,1,8,0:0:0:0:
320,192,91525,1,8,0:0:0:0:
448,192,91623,1,8,0:0:0:0:
64,192,91821,1,2,0:0:0:0:
192,192,92018,1,8,0:0:0:0:
320,192,92215,1,2,0:0:0:0:
448,192,92215,1,4,0:0:0:0:
192,192,92413,1,0,0:0:0:0:
64,192,92610,128,8,93005:0:0:0:0:
448,192,92610,1,8,0:0:0:0:
320,192,93005,1,2,0:0:0:0:
448,192,93005,1,2,0:0:0:0:
192,192,93202,1,0,0:0:0:0:
64,192,93400,1,8,0:0:0:0:
448,192,93400,1,8,0:0:0:0:
320,192,93597,1,0,0:0:0:0:
192,192,93794,128,2,93992:0:0:0:0:
320,192,94090,128,0,94288:0:0:0:0:
192,192,94386,128,0,94584:0:0:0:0:
320,192,94584,1,2,0:0:0:0:
448,192,94584,1,2,0:0:0:0:
192,192,94781,1,0,0:0:0:0:
64,192,94979,1,8,0:0:0:0:
448,192,94979,1,8,0:0:0:0:
320,192,95176,1,0,0:0:0:0:
64,192,95373,1,2,0:0:0:0:
192,192,95373,128,2,95768:0:0:0:0:
320,192,95768,1,8,0:0:0:0:
448,192,95768,1,8,0:0:0:0:
64,192,96163,1,2,0:0:0:0:
448,192,96163,128,2,96558:0:0:0:0:
320,192,96558,1,8,0:0:0:0:
64,192,96558,1,8,0:0:0:0:
64,192,96952,128,2,97347:0:0:0:0:
192,192,96952,1,2,0:0:0:0:
320,192,97347,1,8,0:0:0:0:
448,192,97347,1,8,0:0:0:0:
64,192,97742,128,2,98136:0:0:0:0:
448,192,97742,1,2,0:0:0:0:
192,192,98136,1,8,0:0:0:0:
448,192,98136,1,8,0:0:0:0:
64,192,98531,128,2,98926:0:0:0:0:
448,192,98531,1,4,0:0:0:0:
448,192,98926,1,8,0:0:0:0:
320,192,98926,1,8,0:0:0:0:
192,192,99123,1,0,0:0:0:0:
64,192,99321,1,2,0:0:0:0:
448,192,99321,128,2,99715:0:0:0:0:
320,192,99715,1,8,0:0:0:0:
192,192,99715,1,8,0:0:0:0:
64,192,99913,1,0,0:0:0:0:
320,192,100110,1,2,0:0:0:0:
448,192,100110,1,2,0:0:0:0:
192,192,100308,1,0,0:0:0:0:
64,192,100505,1,8,0:0:0:0:
448,192,100505,1,8,0:0:0:0:
320,192,100702,1,0,0:0:0:0:
64,192,100900,128,2,101294:0:0:0:0:
192,192,100900,1,2,0:0:0:0:
320,192,101294,1,8,0:0:0:0:
448,192,101294,1,8,0:0:0:0:
192,192,101492,1,0,0:0:0:0:
64,192,101689,128,4,102183:0:0:0:0:
448,192,101689,128,2,102183:0:0:0:0:
192,192,102281,128,4,102775:0:0:0:0:
320,192,102281,128,2,102775:0:0:0:0:
64,192,102873,128,2,104058:0:0:0:0:
448,192,102873,128,4,104058:0:0:0:0:
320,192,104058,1,2,0:0:0:0:
192,192,104156,1,8,0:0:0:0:
320,192,104255,1,8,0:0:0:0:
448,192,104452,1,8,0:0:0:0:
64,192,104452,1,0,0:0:0:0:
192,192,104650,1,8,0:0:0:0:
320,192,104650,1,0,0:0:0:0:
64,192,104847,1,4,0:0:0:0:
448,192,104847,1,2,0:0:0:0:
320,192,105044,1,0,0:0:0:0:
64,192,105242,1,8,0:0:0:0:
192,192,105242,1,8,0:0:0:0:
320,192,105439,1,0,0:0:0:0:
448,192,105636,1,2,0:0:0:0:
64,192,105636,1,2,0:0:0:0:
192,192,105834,1,0,0:0:0:0:
320,192,106031,1,8,0:0:0:0:
448,192,106031,128,8,106426:0:0:0:0:
64,192,106426,1,2,0:0:0:0:
192,192,106426,1,2,0:0:0:0:
320,192,106623,1,0,0:0:0:0:
64,192,106821,1,8,0:0:0:0:
448,192,106821,1,8,0:0:0:0:
320,192,107018,1,0,0:0:0:0:
192,192,107215,1,2,0:0:0:0:
64,192,107215,128,2,107610:0:0:0:0:
448,192,107610,1,8,0:0:0:0:
320,192,107610,128,8,108005:0:0:0:0:
64,192,108005,1,2,0:0:0:0:
448,192,108005,1,4,0:0:0:0:
192,192,108202,128,0,108400:0:0:0:0:
320,192,108400,1,8,0:0:0:0:
448,192,108400,1,8,0:0:0:0:
192,192,108597,1,0,0:0:0:0:
64,192,108794,1,2,0:0:0:0:
448,192,108794,1,2,0:0:0:0:
320,192,108992,1,0,0:0:0:0:
192,192,109189,128,8,109584:0:0:0:0:
448,192,109189,1,8,0:0:0:0:
64,192,109584,1,2,0:0:0:0:
320,192,109584,1,2,0:0:0:0:
192,192,109781,1,0,0:0:0:0:
448,192,109979,1,8,0:0:0:0:
64,192,109979,1,8,0:0:0:0:
192,192,110176,1,0,0:0:0:0:
320,192,110373,1,2,0:0:0:0:
192,192,110571,1,0,0:0:0:0:
448,192,110768,1,8,0:0:0:0:
320,192,110768,1,8,0:0:0:0:
192,192,110867,1,0,0:0:0:0:
320,192,111163,128,2,111952:0:0:0:0:
64,192,111163,1,2,0:0:0:0:
64,192,111558,1,8,0:0:0:0:
448,192,111558,1,8,0:0:0:0:
192,192,111952,128,2,112742:0:0:0:0:
64,192,111952,1,2,0:0:0:0:
320,192,112347,1,8,0:0:0:0:
448,192,112347,1,8,0:0:0:0:
64,192,112742,1,2,0:0:0:0:
448,192,112742,1,2,0:0:0:0:
320,192,113038,1,0,0:0:0:0:
64,192,113136,1,8,0:0:0:0:
192,192,113136,1,8,0:0:0:0:
320,192,113334,1,0,0:0:0:0:
64,192,113531,1,2,0:0:0:0:
448,192,113531,1,2,0:0:0:0:
192,192,113630,1,0,0:0:0:0:
320,192,113926,1,8,0:0:0:0:
448,192,113926,1,8,0:0:0:0:
64,192,114321,128,2,114814:0:0:0:0:
192,192,114321,128,4,114814:0:0:0:0:
320,192,114913,128,2,115406:0:0:0:0:
448,192,114913,128,4,115406:0:0:0:0:
64,192,115505,128,4,116590:0:0:0:0:
192,192,115505,128,2,116590:0:0:0:0:
448,192,116689,1,2,0:0:0:0:
320,192,116886,1,0,0:0:0:0:
192,192,117084,1,8,0:0:0:0:
64,192,117084,1,8,0:0:0:0:
320,192,117183,1,0,0:0:0:0:
64,192,117479,1,4,0:0:0:0:
448,192,117479,1,2,0:0:0:0:
320,192,117676,1,0,0:0:0:0:
64,192,117873,1,8,0:0:0:0:
192,192,117873,128,8,118268:0:0:0:0:
448,192,118268,1,2,0:0:0:0:
320,192,118268,1,2,0:0:0:0:
192,192,118465,1,0,0:0:0:0:
64,192,118663,1,8,0:0:0:0:
448,192,118663,1,8,0:0:0:0:
320,192,118860,128,0,119058:0:0:0:0:
192,192,119058,1,2,0:0:0:0:
448,192,119058,1,2,0:0:0:0:
320,192,119255,1,0,0:0:0:0:
64,192,119452,1,8,0:0:0:0:
448,192,119452,1,8,0:0:0:0:
192,192,119650,1,0,0:0:0:0:
448,192,119847,1,2,0:0:0:0:
320,192,119847,1,2,0:0:0:0:
64,192,120044,1,0,0:0:0:0:
192,192,120242,1,8,0:0:0:0:
448,192,120242,1,8,0:0:0:0:
320,192,120439,1,0,0:0:0:0:
64,192,120636,1,2,0:0:0:0:
448,192,120636,1,2,0:0:0:0:
192,192,120834,1,0,0:0:0:0:
64,192,121031,1,8,0:0:0:0:
448,192,121031,1,8,0:0:0:0:
320,192,121229,1,0,0:0:0:0:
64,192,121426,128,2,121821:0:0:0:0:
192,192,121426,1,2,0:0:0:0:
320,192,121821,1,8,0:0:0:0:
448,192,121821,1,8,0:0:0:0:
192,192,122018,1,0,0:0:0:0:
64,192,122215,1,2,0:0:0:0:
448,192,122215,1,2,0:0:0:0:
320,192,122413,1,0,0:0:0:0:
192,192,122610,1,8,0:0:0:0:
448,192,122610,1,8,0:0:0:0:
320,192,122808,1,0,0:0:0:0:
64,192,123005,1,2,0:0:0:0:
448,192,123005,1,2,0:0:0:0:
192,192,123202,1,0,0:0:0:0:
64,192,123400,1,8,0:0:0:0:
320,192,123400,1,8,0:0:0:0:
192,192,123597,1,0,0:0:0:0:
320,192,123794,1,4,0:0:0:0:
448,192,123794,128,2,124189:0:0:0:0:
64,192,124189,1,8,0:0:0:0:
192,192,124189,1,8,0:0:0:0:
320,192,124386,1,0,0:0:0:0:
448,192,124584,1,2,0:0:0:0:
64,192,124584,128,2,124979:0:0:0:0:
192,192,124979,1,8,0:0:0:0:
448,192,124979,1,8,0:0:0:0:
320,192,125176,1,0,0:0:0:0:
64,192,125373,1,2,0:0:0:0:
448,192,125373,1,2,0:0:0:0:
320,192,125571,1,0,0:0:0:0:
192,192,125768,1,8,0:0:0:0:
64,192,125768,1,8,0:0:0:0:
320,192,125965,1,0,0:0:0:0:
64,192,126163,1,2,0:0:0:0:
448,192,126163,1,2,0:0:0:0:
192,192,126360,1,0,0:0:0:0:
320,192,126558,1,8,0:0:0:0:
448,192,126558,1,8,0:0:0:0:
64,192,126755,1,0,0:0:0:0:
192,192,126952,1,2,0:0:0:0:
448,192,126952,1,2,0:0:0:0:
320,192,127150,1,0,0:0:0:0:
64,192,127347,1,8,0:0:0:0:
448,192,127347,1,8,0:0:0:0:
192,192,127544,1,0,0:0:0:0:
320,192,127742,1,2,0:0:0:0:
64,192,127742,1,2,0:0:0:0:
448,192,127939,1,0,0:0:0:0:
64,192,128136,1,8,0:0:0:0:
192,192,128136,1,8,0:0:0:0:
320,192,128334,1,0,0:0:0:0:
64,192,128531,1,2,0:0:0:0:
448,192,128531,1,2,0:0:0:0:
320,192,128729,1,0,0:0:0:0:
192,192,128926,1,8,0:0:0:0:
64,192,128926,1,8,0:0:0:0:
320,192,129123,1,0,0:0:0:0:
64,192,129321,1,2,0:0:0:0:
448,192,129321,1,2,0:0:0:0:
192,192,129518,1,0,0:0:0:0:
320,192,129715,1,8,0:0:0:0:
64,192,129715,1,0,0:0:0:0:
192,192,129913,1,0,0:0:0:0:
64,192,130110,1,4,0:0:0:0:
448,192,130110,1,2,0:0:0:0:
320,192,130505,1,2,0:0:0:0:
448,192,130505,1,8,0:0:0:0:
64,192,130900,1,8,0:0:0:0:
192,192,130900,1,2,0:0:0:0:
192,192,131294,1,2,0:0:0:0:
320,192,131294,1,8,0:0:0:0:
448,192,131689,1,2,0:0:0:0:
320,192,131689,1,8,0:0:0:0:
192,192,132084,1,2,0:0:0:0:
448,192,132084,1,8,0:0:0:0:
64,192,132479,1,8,0:0:0:0:
320,192,132479,1,2,0:0:0:0:
192,192,132873,1,2,0:0:0:0:
64,192,132873,1,8,0:0:0:0:
320,192,133268,1,2,0:0:0:0:
448,192,133268,1,8,0:0:0:0:
64,192,133663,1,2,0:0:0:0:
320,192,133663,1,8,0:0:0:0:
64,192,134058,1,2,0:0:0:0:
192,192,134058,1,8,0:0:0:0:
192,192,134452,1,8,0:0:0:0:
448,192,134452,1,2,0:0:0:0:
320,192,134847,1,8,0:0:0:0:
64,192,134847,1,2,0:0:0:0:
64,192,135242,1,8,0:0:0:0:
448,192,135242,1,2,0:0:0:0:
192,192,135636,1,2,0:0:0:0:
448,192,135636,1,8,0:0:0:0:
64,192,136031,1,8,0:0:0:0:
448,192,136031,1,2,0:0:0:0:
192,192,136426,1,2,0:0:0:0:
320,192,136426,1,8,0:0:0:0:
448,192,136821,1,2,0:0:0:0:
64,192,136821,1,8,0:0:0:0:
320,192,137215,1,2,0:0:0:0:
448,192,137215,1,8,0:0:0:0:
64,192,137610,1,2,0:0:0:0:
192,192,137610,1,8,0:0:0:0:
192,192,138005,1,2,0:0:0:0:
320,192,138005,1,8,0:0:0:0:
64,192,138400,1,2,0:0:0:0:
448,192,138400,1,8,0:0:0:0:
192,192,138794,1,2,0:0:0:0:
448,192,138794,1,8,0:0:0:0:
320,192,139189,1,2,0:0:0:0:
64,192,139189,1,8,0:0:0:0:
192,192,139584,1,8,0:0:0:0:
64,192,139584,1,2,0:0:0:0:
192,192,139979,1,8,0:0:0:0:
448,192,139979,1,2,0:0:0:0:
320,192,140373,1,2,0:0:0:0:
64,192,140373,1,8,0:0:0:0:
192,192,140768,1,2,0:0:0:0:
448,192,140768,1,8,0:0:0:0:
64,192,141163,128,8,141558:0:0:0:0:
448,192,141163,1,2,0:0:0:0:
320,192,141558,1,2,0:0:0:0:
448,192,141558,1,8,0:0:0:0:
192,192,141755,1,8,0:0:0:0:
64,192,141755,1,2,0:0:0:0:
320,192,142150,1,2,0:0:0:0:
448,192,142150,1,8,0:0:0:0:
192,192,142347,1,2,0:0:0:0:
64,192,142347,1,8,0:0:0:0:
64,192,142742,1,2,0:0:0:0:
448,192,142742,1,4,0:0:0:0:
