osu file format v14

[General]
AudioFilename: audio.mp3
AudioLeadIn: 0
PreviewTime: 80367
Countdown: 0
SampleSet: Normal
StackLeniency: 0.7
Mode: 3
LetterboxInBreaks: 0
SpecialStyle: 0
WidescreenStoryboard: 1

[Editor]
DistanceSpacing: 1.2
BeatDivisor: 4
GridSize: 32
TimelineZoom: 1.3

[Metadata]
Title:Soumai Musou Lovers
TitleUnicode:爽昧夢想ラバーズ
Artist:qfeileadh feat. Lycoris Radiata
ArtistUnicode:qfeileadh feat. りこりす・らぢあーた
Creator:Blocko
Version:Normal
Source:THE BMS OF FIGHTERS XVII -VISION THE RETRO FUTURE-
Tags:BOFXVII Dreaming gdbg GroundbreakinG 2021 compilation album diamond disc 1 FutureCore Pop future core exhilarating 俺たち☆ポップスターズ tokiru_iwata Electronic Japanese
BeatmapID:3698129
BeatmapSetID:1758665

[Difficulty]
HPDrainRate:7
CircleSize:7
OverallDifficulty:7
ApproachRate:7
SliderMultiplier:1.4
SliderTickRate:1

[Events]
//Background and Video events
0,0,"bg_from_bga_with_blobs.png",0,0
//Break Periods
//Storyboard Layer 0 (Background)
//Storyboard Layer 1 (Fail)
//Storyboard Layer 2 (Pass)
//Storyboard Layer 3 (Foreground)
//Storyboard Layer 4 (Overlay)
//Storyboard Sound Samples

[TimingPoints]
871,375,4,1,1,20,1,0
11371,-100,4,1,1,35,0,0
12871,-100,4,1,1,50,0,0
18871,-100,4,1,1,60,0,0
26371,-100,4,1,1,50,0,0
48871,-100,4,1,1,60,0,0
63871,-100,4,1,1,50,0,0
81871,-100,4,1,1,60,0,0
83371,-100,4,1,1,65,0,1
105871,-100,4,1,1,60,0,0
125371,-100,4,1,1,65,0,1
137371,-100,4,1,1,60,0,0

[HitObjects]
402,192,871,5,0,0:0:0:0:
256,192,871,1,0,0:0:0:0:
402,192,1433,1,0,0:0:0:0:
256,192,1433,1,0,0:0:0:0:
109,192,3871,1,0,0:0:0:0:
256,192,3871,1,0,0:0:0:0:
109,192,4433,1,0,0:0:0:0:
256,192,4433,1,0,0:0:0:0:
475,192,6871,1,0,0:0:0:0:
329,192,6871,1,0,0:0:0:0:
475,192,7433,1,0,0:0:0:0:
329,192,7433,1,0,0:0:0:0:
256,192,9308,1,0,0:0:0:0:
402,192,9308,1,0,0:0:0:0:
329,192,9871,1,0,0:0:0:0:
182,192,9871,1,0,0:0:0:0:
329,192,10433,1,0,0:0:0:0:
182,192,10433,1,0,0:0:0:0:
36,192,11183,1,0,0:0:0:0:
182,192,11183,1,0,0:0:0:0:
36,192,11933,1,0,0:0:0:0:
182,192,11933,1,0,0:0:0:0:
256,192,12308,1,0,0:0:0:0:
109,192,12308,1,0,0:0:0:0:
36,192,12871,1,0,0:0:0:0:
475,192,12871,1,0,0:0:0:0:
329,192,12871,1,0,0:0:0:0:
36,192,13433,1,0,0:0:0:0:
329,192,13433,1,0,0:0:0:0:
475,192,13621,1,0,0:0:0:0:
402,192,13621,1,0,0:0:0:0:
256,192,14183,1,0,0:0:0:0:
109,192,14183,1,0,0:0:0:0:
256,192,14558,1,0,0:0:0:0:
109,192,14558,1,0,0:0:0:0:
329,192,15121,1,0,0:0:0:0:
475,192,15121,1,0,0:0:0:0:
182,192,15308,1,0,0:0:0:0:
36,192,15308,1,0,0:0:0:0:
109,192,15871,1,0,0:0:0:0:
329,192,15871,1,0,0:0:0:0:
109,192,16433,1,0,0:0:0:0:
329,192,16433,1,0,0:0:0:0:
402,192,16621,1,0,0:0:0:0:
475,192,16621,1,0,0:0:0:0:
36,192,17183,1,0,0:0:0:0:
256,192,17183,1,0,0:0:0:0:
36,192,17558,1,0,0:0:0:0:
256,192,17558,1,0,0:0:0:0:
475,192,18121,1,0,0:0:0:0:
329,192,18121,1,0,0:0:0:0:
182,192,18308,1,0,0:0:0:0:
36,192,18308,1,0,0:0:0:0:
475,192,18496,1,0,0:0:0:0:
329,192,18496,1,0,0:0:0:0:
182,192,18683,1,0,0:0:0:0:
109,192,18777,1,0,0:0:0:0:
256,192,18871,1,0,0:0:0:0:
36,192,18871,1,0,0:0:0:0:
475,192,18871,1,0,0:0:0:0:
36,192,19246,1,0,0:0:0:0:
329,192,19246,1,0,0:0:0:0:
36,192,19621,1,0,0:0:0:0:
109,192,19902,1,0,0:0:0:0:
329,192,19996,1,0,0:0:0:0:
475,192,19996,1,0,0:0:0:0:
182,192,20183,1,0,0:0:0:0:
256,192,20558,1,0,0:0:0:0:
256,192,20746,1,0,0:0:0:0:
402,192,20746,1,0,0:0:0:0:
256,192,21121,1,0,0:0:0:0:
182,192,21402,1,0,0:0:0:0:
329,192,21496,1,0,0:0:0:0:
402,192,21496,1,0,0:0:0:0:
109,192,21683,1,0,0:0:0:0:
475,192,21871,1,0,0:0:0:0:
475,192,22246,1,0,0:0:0:0:
182,192,22246,1,0,0:0:0:0:
475,192,22621,1,0,0:0:0:0:
402,192,22902,1,0,0:0:0:0:
182,192,22996,1,0,0:0:0:0:
36,192,22996,1,0,0:0:0:0:
329,192,23183,1,0,0:0:0:0:
256,192,23558,1,0,0:0:0:0:
109,192,23746,1,0,0:0:0:0:
256,192,23746,1,0,0:0:0:0:
256,192,24121,1,0,0:0:0:0:
329,192,24402,1,0,0:0:0:0:
109,192,24496,1,0,0:0:0:0:
36,192,24496,1,0,0:0:0:0:
402,192,24683,1,0,0:0:0:0:
329,192,25621,1,0,0:0:0:0:
182,192,25808,1,0,0:0:0:0:
329,192,25996,1,0,0:0:0:0:
109,192,25996,1,0,0:0:0:0:
36,192,26371,1,0,0:0:0:0:
475,192,26371,1,0,0:0:0:0:
256,192,26371,1,0,0:0:0:0:
329,192,26746,1,0,0:0:0:0:
475,192,26746,1,0,0:0:0:0:
36,192,26933,1,0,0:0:0:0:
182,192,26933,1,0,0:0:0:0:
36,192,27308,1,0,0:0:0:0:
329,192,27496,1,0,0:0:0:0:
475,192,27496,1,0,0:0:0:0:
36,192,28058,1,0,0:0:0:0:
329,192,28246,1,0,0:0:0:0:
475,192,28246,1,0,0:0:0:0:
36,192,28808,1,0,0:0:0:0:
329,192,28996,1,0,0:0:0:0:
475,192,28996,1,0,0:0:0:0:
36,192,29183,1,0,0:0:0:0:
256,192,29371,1,0,0:0:0:0:
109,192,29371,1,0,0:0:0:0:
329,192,29746,1,0,0:0:0:0:
402,192,29746,1,0,0:0:0:0:
256,192,29933,1,0,0:0:0:0:
109,192,29933,1,0,0:0:0:0:
109,192,30308,1,0,0:0:0:0:
329,192,30496,1,0,0:0:0:0:
402,192,30496,1,0,0:0:0:0:
109,192,30683,1,0,0:0:0:0:
256,192,30683,1,0,0:0:0:0:
109,192,31058,1,0,0:0:0:0:
402,192,31246,1,0,0:0:0:0:
329,192,31246,1,0,0:0:0:0:
109,192,31808,1,0,0:0:0:0:
329,192,31996,1,0,0:0:0:0:
402,192,31996,1,0,0:0:0:0:
256,192,32183,1,0,0:0:0:0:
36,192,32371,1,0,0:0:0:0:
182,192,32371,1,0,0:0:0:0:
402,192,32746,1,0,0:0:0:0:
475,192,32746,1,0,0:0:0:0:
36,192,32933,1,0,0:0:0:0:
182,192,32933,1,0,0:0:0:0:
182,192,33308,1,0,0:0:0:0:
402,192,33496,1,0,0:0:0:0:
475,192,33496,1,0,0:0:0:0:
182,192,34058,1,0,0:0:0:0:
402,192,34246,1,0,0:0:0:0:
475,192,34246,1,0,0:0:0:0:
36,192,34808,1,0,0:0:0:0:
182,192,34808,1,0,0:0:0:0:
402,192,34996,1,0,0:0:0:0:
475,192,34996,1,0,0:0:0:0:
182,192,35183,1,0,0:0:0:0:
109,192,35371,1,0,0:0:0:0:
256,192,35371,1,0,0:0:0:0:
329,192,35746,1,0,0:0:0:0:
475,192,35746,1,0,0:0:0:0:
109,192,35933,1,0,0:0:0:0:
256,192,35933,1,0,0:0:0:0:
182,192,36308,1,0,0:0:0:0:
329,192,36496,1,0,0:0:0:0:
475,192,36496,1,0,0:0:0:0:
36,192,36683,1,0,0:0:0:0:
256,192,36683,1,0,0:0:0:0:
182,192,37058,1,0,0:0:0:0:
329,192,37246,1,0,0:0:0:0:
475,192,37246,1,0,0:0:0:0:
36,192,37433,1,0,0:0:0:0:
256,192,37433,1,0,0:0:0:0:
36,192,37808,1,0,0:0:0:0:
182,192,37808,1,0,0:0:0:0:
329,192,37996,1,0,0:0:0:0:
475,192,37996,1,0,0:0:0:0:
256,192,38371,1,0,0:0:0:0:
402,192,38371,1,0,0:0:0:0:
109,192,38371,1,0,0:0:0:0:
475,192,38746,1,0,0:0:0:0:
402,192,38746,1,0,0:0:0:0:
109,192,38933,1,0,0:0:0:0:
256,192,38933,1,0,0:0:0:0:
109,192,39308,1,0,0:0:0:0:
475,192,39496,1,0,0:0:0:0:
402,192,39496,1,0,0:0:0:0:
109,192,40058,1,0,0:0:0:0:
475,192,40246,1,0,0:0:0:0:
402,192,40246,1,0,0:0:0:0:
109,192,40808,1,0,0:0:0:0:
475,192,40996,1,0,0:0:0:0:
402,192,40996,1,0,0:0:0:0:
256,192,41183,1,0,0:0:0:0:
36,192,41371,1,0,0:0:0:0:
182,192,41371,1,0,0:0:0:0:
402,192,41746,1,0,0:0:0:0:
329,192,41746,1,0,0:0:0:0:
36,192,41933,1,0,0:0:0:0:
182,192,41933,1,0,0:0:0:0:
182,192,42308,1,0,0:0:0:0:
402,192,42496,1,0,0:0:0:0:
329,192,42496,1,0,0:0:0:0:
36,192,42683,1,0,0:0:0:0:
182,192,42683,1,0,0:0:0:0:
182,192,43058,1,0,0:0:0:0:
402,192,43246,1,0,0:0:0:0:
329,192,43246,1,0,0:0:0:0:
36,192,43808,1,0,0:0:0:0:
182,192,43808,1,0,0:0:0:0:
402,192,43996,1,0,0:0:0:0:
329,192,43996,1,0,0:0:0:0:
256,192,44183,1,0,0:0:0:0:
475,192,44371,1,0,0:0:0:0:
109,192,44371,1,0,0:0:0:0:
36,192,44371,1,0,0:0:0:0:
109,192,44746,1,0,0:0:0:0:
256,192,44746,1,0,0:0:0:0:
475,192,44933,1,0,0:0:0:0:
402,192,44933,1,0,0:0:0:0:
256,192,45308,1,0,0:0:0:0:
475,192,45496,1,0,0:0:0:0:
402,192,45496,1,0,0:0:0:0:
36,192,45683,1,0,0:0:0:0:
256,192,45683,1,0,0:0:0:0:
475,192,46246,1,0,0:0:0:0:
402,192,46246,1,0,0:0:0:0:
256,192,46433,1,0,0:0:0:0:
109,192,46433,1,0,0:0:0:0:
109,192,46808,1,0,0:0:0:0:
256,192,46808,1,0,0:0:0:0:
402,192,46996,1,0,0:0:0:0:
475,192,46996,1,0,0:0:0:0:
329,192,47183,1,0,0:0:0:0:
182,192,47183,1,0,0:0:0:0:
36,192,47746,1,0,0:0:0:0:
475,192,47746,1,0,0:0:0:0:
329,192,47933,1,0,0:0:0:0:
182,192,47933,1,0,0:0:0:0:
329,192,48308,1,0,0:0:0:0:
182,192,48308,1,0,0:0:0:0:
36,192,48496,1,0,0:0:0:0:
475,192,48496,1,0,0:0:0:0:
402,192,48683,1,0,0:0:0:0:
109,192,48683,1,0,0:0:0:0:
256,192,48683,1,0,0:0:0:0:
182,192,49058,1,0,0:0:0:0:
256,192,49246,1,0,0:0:0:0:
329,192,49433,1,0,0:0:0:0:
256,192,49808,1,0,0:0:0:0:
329,192,49996,1,0,0:0:0:0:
402,192,50183,1,0,0:0:0:0:
329,192,50558,1,0,0:0:0:0:
402,192,50746,1,0,0:0:0:0:
475,192,50933,1,0,0:0:0:0:
256,192,51308,1,0,0:0:0:0:
109,192,51308,1,0,0:0:0:0:
36,192,51871,1,0,0:0:0:0:
475,192,51871,1,0,0:0:0:0:
182,192,51871,1,0,0:0:0:0:
329,192,52621,1,0,0:0:0:0:
475,192,52621,1,0,0:0:0:0:
256,192,53371,1,0,0:0:0:0:
402,192,53371,1,0,0:0:0:0:
182,192,54121,1,0,0:0:0:0:
329,192,54121,1,0,0:0:0:0:
36,192,54871,1,0,0:0:0:0:
109,192,54871,1,0,0:0:0:0:
256,192,54871,1,0,0:0:0:0:
329,192,55621,1,0,0:0:0:0:
475,192,55621,1,0,0:0:0:0:
256,192,56371,1,0,0:0:0:0:
109,192,56371,1,0,0:0:0:0:
402,192,56371,1,0,0:0:0:0:
182,192,57121,1,0,0:0:0:0:
329,192,57121,1,0,0:0:0:0:
256,192,57871,1,0,0:0:0:0:
109,192,57871,1,0,0:0:0:0:
475,192,57871,1,0,0:0:0:0:
36,192,58621,1,0,0:0:0:0:
182,192,58621,1,0,0:0:0:0:
256,192,59371,1,0,0:0:0:0:
109,192,59371,1,0,0:0:0:0:
402,192,59371,1,0,0:0:0:0:
329,192,60121,1,0,0:0:0:0:
475,192,60121,1,0,0:0:0:0:
182,192,60871,1,0,0:0:0:0:
36,192,60871,1,0,0:0:0:0:
329,192,60871,1,0,0:0:0:0:
182,192,62371,1,0,0:0:0:0:
329,192,62371,1,0,0:0:0:0:
256,192,62371,1,0,0:0:0:0:
402,192,63121,1,0,0:0:0:0:
109,192,63121,1,0,0:0:0:0:
256,192,63121,1,0,0:0:0:0:
475,192,63871,1,0,0:0:0:0:
36,192,63871,1,0,0:0:0:0:
256,192,63871,1,0,0:0:0:0:
109,192,64121,1,0,0:0:0:0:
182,192,64371,1,0,0:0:0:0:
329,192,64621,1,0,0:0:0:0:
402,192,64871,1,0,0:0:0:0:
475,192,65121,1,0,0:0:0:0:
182,192,65121,1,0,0:0:0:0:
329,192,65371,1,0,0:0:0:0:
36,192,65371,1,0,0:0:0:0:
256,192,65621,1,0,0:0:0:0:
402,192,65871,1,0,0:0:0:0:
109,192,65871,1,0,0:0:0:0:
36,192,66121,1,0,0:0:0:0:
329,192,66121,1,0,0:0:0:0:
256,192,66371,1,0,0:0:0:0:
109,192,66621,1,0,0:0:0:0:
402,192,66621,1,0,0:0:0:0:
182,192,66871,1,0,0:0:0:0:
475,192,66871,1,0,0:0:0:0:
256,192,67121,1,0,0:0:0:0:
36,192,67371,1,0,0:0:0:0:
475,192,67371,1,0,0:0:0:0:
182,192,67621,1,0,0:0:0:0:
329,192,67621,1,0,0:0:0:0:
256,192,67871,1,0,0:0:0:0:
329,192,68121,1,0,0:0:0:0:
36,192,68371,1,0,0:0:0:0:
475,192,68371,1,0,0:0:0:0:
182,192,68371,1,0,0:0:0:0:
256,192,69496,1,0,0:0:0:0:
256,192,69683,1,0,0:0:0:0:
182,192,69871,1,0,0:0:0:0:
36,192,69871,1,0,0:0:0:0:
475,192,69871,1,0,0:0:0:0:
329,192,70058,1,0,0:0:0:0:
36,192,70246,1,0,0:0:0:0:
329,192,70433,1,0,0:0:0:0:
36,192,70621,1,0,0:0:0:0:
329,192,70808,1,0,0:0:0:0:
36,192,70996,1,0,0:0:0:0:
329,192,71183,1,0,0:0:0:0:
109,192,71371,1,0,0:0:0:0:
256,192,71558,1,0,0:0:0:0:
109,192,71746,1,0,0:0:0:0:
256,192,71933,1,0,0:0:0:0:
109,192,72121,1,0,0:0:0:0:
256,192,72308,1,0,0:0:0:0:
109,192,72496,1,0,0:0:0:0:
256,192,72683,1,0,0:0:0:0:
329,192,72871,1,0,0:0:0:0:
36,192,72871,1,0,0:0:0:0:
475,192,72871,1,0,0:0:0:0:
182,192,73058,1,0,0:0:0:0:
475,192,73246,1,0,0:0:0:0:
182,192,73433,1,0,0:0:0:0:
475,192,73621,1,0,0:0:0:0:
182,192,73808,1,0,0:0:0:0:
475,192,73996,1,0,0:0:0:0:
182,192,74183,1,0,0:0:0:0:
402,192,74371,1,0,0:0:0:0:
256,192,74558,1,0,0:0:0:0:
402,192,74746,1,0,0:0:0:0:
256,192,74933,1,0,0:0:0:0:
402,192,75121,1,0,0:0:0:0:
256,192,75308,1,0,0:0:0:0:
402,192,75496,1,0,0:0:0:0:
256,192,75683,1,0,0:0:0:0:
109,192,75871,1,0,0:0:0:0:
36,192,75871,1,0,0:0:0:0:
475,192,75871,1,0,0:0:0:0:
329,192,76058,1,0,0:0:0:0:
109,192,76246,1,0,0:0:0:0:
36,192,76246,1,0,0:0:0:0:
329,192,76433,1,0,0:0:0:0:
182,192,76621,1,0,0:0:0:0:
109,192,76621,1,0,0:0:0:0:
402,192,76808,1,0,0:0:0:0:
109,192,76996,1,0,0:0:0:0:
182,192,76996,1,0,0:0:0:0:
256,192,77183,1,0,0:0:0:0:
329,192,77371,1,0,0:0:0:0:
36,192,77371,1,0,0:0:0:0:
402,192,77371,1,0,0:0:0:0:
109,192,77558,1,0,0:0:0:0:
329,192,77746,1,0,0:0:0:0:
402,192,77746,1,0,0:0:0:0:
109,192,77933,1,0,0:0:0:0:
402,192,78121,1,0,0:0:0:0:
475,192,78121,1,0,0:0:0:0:
182,192,78308,1,0,0:0:0:0:
475,192,78496,1,0,0:0:0:0:
402,192,78496,1,0,0:0:0:0:
182,192,78683,1,0,0:0:0:0:
329,192,78871,1,0,0:0:0:0:
36,192,78871,1,0,0:0:0:0:
256,192,79058,1,0,0:0:0:0:
402,192,79246,1,0,0:0:0:0:
109,192,79246,1,0,0:0:0:0:
256,192,79433,1,0,0:0:0:0:
109,192,79621,1,0,0:0:0:0:
402,192,79621,1,0,0:0:0:0:
329,192,79808,1,0,0:0:0:0:
182,192,79996,1,0,0:0:0:0:
475,192,79996,1,0,0:0:0:0:
329,192,80183,1,0,0:0:0:0:
109,192,80558,1,0,0:0:0:0:
256,192,80746,1,0,0:0:0:0:
256,192,81121,1,0,0:0:0:0:
182,192,81496,1,0,0:0:0:0:
329,192,81496,1,0,0:0:0:0:
36,192,81871,1,0,0:0:0:0:
475,192,81871,1,0,0:0:0:0:
256,192,81871,1,0,0:0:0:0:
475,192,82433,1,0,0:0:0:0:
475,192,82621,1,0,0:0:0:0:
36,192,83183,1,0,0:0:0:0:
36,192,83371,1,0,0:0:0:0:
329,192,83558,1,0,0:0:0:0:
475,192,83746,1,0,0:0:0:0:
36,192,83746,1,0,0:0:0:0:
182,192,83933,1,0,0:0:0:0:
182,192,84121,1,0,0:0:0:0:
329,192,84308,1,0,0:0:0:0:
36,192,84496,1,0,0:0:0:0:
475,192,84496,1,0,0:0:0:0:
256,192,84683,1,0,0:0:0:0:
256,192,84871,1,0,0:0:0:0:
329,192,85058,1,0,0:0:0:0:
109,192,85246,1,0,0:0:0:0:
256,192,85246,1,0,0:0:0:0:
402,192,85433,1,0,0:0:0:0:
402,192,85621,1,0,0:0:0:0:
182,192,85808,1,0,0:0:0:0:
256,192,85996,1,0,0:0:0:0:
402,192,85996,1,0,0:0:0:0:
109,192,86183,1,0,0:0:0:0:
109,192,86371,1,0,0:0:0:0:
475,192,86558,1,0,0:0:0:0:
36,192,86746,1,0,0:0:0:0:
182,192,86746,1,0,0:0:0:0:
329,192,86933,1,0,0:0:0:0:
329,192,87121,1,0,0:0:0:0:
36,192,87308,1,0,0:0:0:0:
475,192,87496,1,0,0:0:0:0:
329,192,87496,1,0,0:0:0:0:
182,192,87683,1,0,0:0:0:0:
182,192,87871,1,0,0:0:0:0:
402,192,88058,1,0,0:0:0:0:
109,192,88246,1,0,0:0:0:0:
256,192,88246,1,0,0:0:0:0:
402,192,88433,1,0,0:0:0:0:
109,192,88621,1,0,0:0:0:0:
402,192,88808,1,0,0:0:0:0:
256,192,88996,1,0,0:0:0:0:
109,192,88996,1,0,0:0:0:0:
402,192,89183,1,0,0:0:0:0:
475,192,89371,1,0,0:0:0:0:
36,192,89558,1,0,0:0:0:0:
256,192,89746,1,0,0:0:0:0:
329,192,89746,1,0,0:0:0:0:
36,192,89933,1,0,0:0:0:0:
329,192,90121,1,0,0:0:0:0:
36,192,90308,1,0,0:0:0:0:
329,192,90496,1,0,0:0:0:0:
256,192,90496,1,0,0:0:0:0:
36,192,90683,1,0,0:0:0:0:
109,192,90871,1,0,0:0:0:0:
475,192,91058,1,0,0:0:0:0:
182,192,91246,1,0,0:0:0:0:
256,192,91246,1,0,0:0:0:0:
475,192,91433,1,0,0:0:0:0:
182,192,91621,1,0,0:0:0:0:
475,192,91808,1,0,0:0:0:0:
256,192,91996,1,0,0:0:0:0:
182,192,91996,1,0,0:0:0:0:
475,192,92183,1,0,0:0:0:0:
36,192,92371,1,0,0:0:0:0:
329,192,92371,1,0,0:0:0:0:
109,192,92558,1,0,0:0:0:0:
182,192,92746,1,0,0:0:0:0:
475,192,92746,1,0,0:0:0:0:
402,192,92933,1,0,0:0:0:0:
182,192,93121,1,0,0:0:0:0:
329,192,93121,1,0,0:0:0:0:
109,192,93308,1,0,0:0:0:0:
329,192,93496,1,0,0:0:0:0:
36,192,93496,1,0,0:0:0:0:
402,192,93683,1,0,0:0:0:0:
182,192,93871,1,0,0:0:0:0:
475,192,93871,1,0,0:0:0:0:
256,192,93871,1,0,0:0:0:0:
329,192,94058,1,0,0:0:0:0:
36,192,94246,1,0,0:0:0:0:
109,192,94246,1,0,0:0:0:0:
329,192,94433,1,0,0:0:0:0:
329,192,94621,1,0,0:0:0:0:
182,192,94808,1,0,0:0:0:0:
402,192,94996,1,0,0:0:0:0:
475,192,94996,1,0,0:0:0:0:
182,192,95183,1,0,0:0:0:0:
182,192,95371,1,0,0:0:0:0:
475,192,95558,1,0,0:0:0:0:
256,192,95746,1,0,0:0:0:0:
109,192,95746,1,0,0:0:0:0:
402,192,95933,1,0,0:0:0:0:
402,192,96121,1,0,0:0:0:0:
36,192,96308,1,0,0:0:0:0:
402,192,96496,1,0,0:0:0:0:
256,192,96496,1,0,0:0:0:0:
109,192,96683,1,0,0:0:0:0:
109,192,96871,1,0,0:0:0:0:
256,192,97058,1,0,0:0:0:0:
475,192,97246,1,0,0:0:0:0:
329,192,97246,1,0,0:0:0:0:
36,192,97433,1,0,0:0:0:0:
36,192,97621,1,0,0:0:0:0:
402,192,97808,1,0,0:0:0:0:
182,192,97996,1,0,0:0:0:0:
36,192,97996,1,0,0:0:0:0:
475,192,98183,1,0,0:0:0:0:
475,192,98371,1,0,0:0:0:0:
256,192,98558,1,0,0:0:0:0:
182,192,98746,1,0,0:0:0:0:
402,192,98746,1,0,0:0:0:0:
109,192,98933,1,0,0:0:0:0:
109,192,99121,1,0,0:0:0:0:
256,192,99308,1,0,0:0:0:0:
329,192,99496,1,0,0:0:0:0:
109,192,99496,1,0,0:0:0:0:
182,192,99683,1,0,0:0:0:0:
402,192,99683,1,0,0:0:0:0:
402,192,99871,1,0,0:0:0:0:
36,192,99871,1,0,0:0:0:0:
36,192,100433,1,0,0:0:0:0:
329,192,100621,1,0,0:0:0:0:
475,192,100621,1,0,0:0:0:0:
182,192,100996,1,0,0:0:0:0:
182,192,101183,1,0,0:0:0:0:
109,192,101558,1,0,0:0:0:0:
182,192,101746,1,0,0:0:0:0:
256,192,101933,1,0,0:0:0:0:
402,192,102121,1,0,0:0:0:0:
475,192,102121,1,0,0:0:0:0:
329,192,102308,1,0,0:0:0:0:
402,192,102683,1,0,0:0:0:0:
109,192,102683,1,0,0:0:0:0:
256,192,102683,1,0,0:0:0:0:
182,192,103058,1,0,0:0:0:0:
256,192,103246,1,0,0:0:0:0:
329,192,103433,1,0,0:0:0:0:
109,192,103621,1,0,0:0:0:0:
182,192,103808,1,0,0:0:0:0:
329,192,103996,1,0,0:0:0:0:
402,192,104183,1,0,0:0:0:0:
36,192,104371,1,0,0:0:0:0:
475,192,104371,1,0,0:0:0:0:
256,192,104371,1,0,0:0:0:0:
109,192,105308,1,0,0:0:0:0:
182,192,105308,1,0,0:0:0:0:
402,192,105496,1,0,0:0:0:0:
329,192,105496,1,0,0:0:0:0:
36,192,105871,1,0,0:0:0:0:
256,192,105871,1,0,0:0:0:0:
475,192,105871,1,0,0:0:0:0:
36,192,106433,1,0,0:0:0:0:
475,192,106433,1,0,0:0:0:0:
256,192,106808,1,0,0:0:0:0:
109,192,106996,1,0,0:0:0:0:
402,192,106996,1,0,0:0:0:0:
182,192,107933,1,0,0:0:0:0:
256,192,108027,1,0,0:0:0:0:
329,192,108121,1,0,0:0:0:0:
475,192,108121,1,0,0:0:0:0:
109,192,108308,1,0,0:0:0:0:
256,192,108496,1,0,0:0:0:0:
402,192,108683,1,0,0:0:0:0:
36,192,108871,1,0,0:0:0:0:
475,192,108871,1,0,0:0:0:0:
182,192,109246,1,0,0:0:0:0:
36,192,109433,1,0,0:0:0:0:
475,192,109433,1,0,0:0:0:0:
256,192,109808,1,0,0:0:0:0:
109,192,109996,1,0,0:0:0:0:
402,192,109996,1,0,0:0:0:0:
329,192,110558,1,0,0:0:0:0:
182,192,110746,1,0,0:0:0:0:
475,192,110933,1,0,0:0:0:0:
402,192,111027,1,0,0:0:0:0:
182,192,111121,1,0,0:0:0:0:
329,192,111121,1,0,0:0:0:0:
109,192,111308,1,0,0:0:0:0:
36,192,111308,1,0,0:0:0:0:
402,192,111683,1,0,0:0:0:0:
475,192,111683,1,0,0:0:0:0:
182,192,111871,1,0,0:0:0:0:
256,192,111871,1,0,0:0:0:0:
182,192,112433,1,0,0:0:0:0:
256,192,112433,1,0,0:0:0:0:
182,192,113183,1,0,0:0:0:0:
256,192,113183,1,0,0:0:0:0:
329,192,113371,1,0,0:0:0:0:
402,192,113558,1,0,0:0:0:0:
475,192,113746,1,0,0:0:0:0:
329,192,113933,1,0,0:0:0:0:
109,192,114121,1,0,0:0:0:0:
36,192,114121,1,0,0:0:0:0:
182,192,114308,1,0,0:0:0:0:
256,192,114308,1,0,0:0:0:0:
402,192,114496,1,0,0:0:0:0:
182,192,114683,1,0,0:0:0:0:
329,192,114683,1,0,0:0:0:0:
329,192,115621,1,0,0:0:0:0:
475,192,115621,1,0,0:0:0:0:
256,192,115808,1,0,0:0:0:0:
109,192,115808,1,0,0:0:0:0:
475,192,115996,1,0,0:0:0:0:
402,192,115996,1,0,0:0:0:0:
182,192,116183,1,0,0:0:0:0:
36,192,116183,1,0,0:0:0:0:
329,192,116558,1,0,0:0:0:0:
109,192,116933,1,0,0:0:0:0:
182,192,116933,1,0,0:0:0:0:
402,192,117121,1,0,0:0:0:0:
329,192,117121,1,0,0:0:0:0:
109,192,117308,1,0,0:0:0:0:
182,192,117308,1,0,0:0:0:0:
402,192,117496,1,0,0:0:0:0:
329,192,117496,1,0,0:0:0:0:
182,192,117683,1,0,0:0:0:0:
109,192,117777,1,0,0:0:0:0:
36,192,117871,1,0,0:0:0:0:
475,192,117871,1,0,0:0:0:0:
36,192,118246,1,0,0:0:0:0:
475,192,118246,1,0,0:0:0:0:
475,192,118621,1,0,0:0:0:0:
36,192,118621,1,0,0:0:0:0:
475,192,118902,1,0,0:0:0:0:
36,192,118902,1,0,0:0:0:0:
475,192,119183,1,0,0:0:0:0:
36,192,119183,1,0,0:0:0:0:
402,192,119558,1,0,0:0:0:0:
109,192,119558,1,0,0:0:0:0:
402,192,119746,1,0,0:0:0:0:
109,192,119746,1,0,0:0:0:0:
109,192,120121,1,0,0:0:0:0:
402,192,120121,1,0,0:0:0:0:
109,192,120402,1,0,0:0:0:0:
402,192,120402,1,0,0:0:0:0:
109,192,120683,1,0,0:0:0:0:
402,192,120683,1,0,0:0:0:0:
182,192,120871,1,0,0:0:0:0:
329,192,120871,1,0,0:0:0:0:
182,192,121246,1,0,0:0:0:0:
329,192,121246,1,0,0:0:0:0:
329,192,121621,1,0,0:0:0:0:
182,192,121621,1,0,0:0:0:0:
329,192,121902,1,0,0:0:0:0:
182,192,121902,1,0,0:0:0:0:
329,192,122183,1,0,0:0:0:0:
182,192,122183,1,0,0:0:0:0:
256,192,122371,1,0,0:0:0:0:
256,192,124996,1,0,0:0:0:0:
256,192,125183,1,0,0:0:0:0:
329,192,125371,1,0,0:0:0:0:
475,192,125371,1,0,0:0:0:0:
36,192,125371,1,0,0:0:0:0:
182,192,125558,1,0,0:0:0:0:
475,192,125746,1,0,0:0:0:0:
182,192,125933,1,0,0:0:0:0:
475,192,126121,1,0,0:0:0:0:
182,192,126308,1,0,0:0:0:0:
475,192,126496,1,0,0:0:0:0:
182,192,126683,1,0,0:0:0:0:
402,192,126871,1,0,0:0:0:0:
256,192,127058,1,0,0:0:0:0:
402,192,127246,1,0,0:0:0:0:
256,192,127433,1,0,0:0:0:0:
402,192,127621,1,0,0:0:0:0:
256,192,127808,1,0,0:0:0:0:
402,192,127996,1,0,0:0:0:0:
256,192,128183,1,0,0:0:0:0:
182,192,128371,1,0,0:0:0:0:
475,192,128371,1,0,0:0:0:0:
36,192,128371,1,0,0:0:0:0:
329,192,128558,1,0,0:0:0:0:
36,192,128746,1,0,0:0:0:0:
329,192,128933,1,0,0:0:0:0:
36,192,129121,1,0,0:0:0:0:
329,192,129308,1,0,0:0:0:0:
36,192,129496,1,0,0:0:0:0:
329,192,129683,1,0,0:0:0:0:
109,192,129871,1,0,0:0:0:0:
256,192,130058,1,0,0:0:0:0:
109,192,130246,1,0,0:0:0:0:
256,192,130433,1,0,0:0:0:0:
109,192,130621,1,0,0:0:0:0:
256,192,130808,1,0,0:0:0:0:
109,192,130996,1,0,0:0:0:0:
256,192,131183,1,0,0:0:0:0:
329,192,131371,1,0,0:0:0:0:
475,192,131371,1,0,0:0:0:0:
36,192,131371,1,0,0:0:0:0:
182,192,131558,1,0,0:0:0:0:
329,192,131746,1,0,0:0:0:0:
475,192,131746,1,0,0:0:0:0:
182,192,131933,1,0,0:0:0:0:
256,192,132121,1,0,0:0:0:0:
402,192,132121,1,0,0:0:0:0:
109,192,132308,1,0,0:0:0:0:
402,192,132496,1,0,0:0:0:0:
256,192,132496,1,0,0:0:0:0:
109,192,132683,1,0,0:0:0:0:
182,192,132871,1,0,0:0:0:0:
475,192,132871,1,0,0:0:0:0:
36,192,132871,1,0,0:0:0:0:
329,192,133058,1,0,0:0:0:0:
182,192,133246,1,0,0:0:0:0:
36,192,133246,1,0,0:0:0:0:
329,192,133433,1,0,0:0:0:0:
109,192,133621,1,0,0:0:0:0:
256,192,133621,1,0,0:0:0:0:
402,192,133808,1,0,0:0:0:0:
256,192,133996,1,0,0:0:0:0:
109,192,133996,1,0,0:0:0:0:
402,192,134183,1,0,0:0:0:0:
36,192,134371,1,0,0:0:0:0:
256,192,134371,1,0,0:0:0:0:
182,192,134558,1,0,0:0:0:0:
109,192,134746,1,0,0:0:0:0:
329,192,134746,1,0,0:0:0:0:
256,192,134933,1,0,0:0:0:0:
182,192,135121,1,0,0:0:0:0:
402,192,135121,1,0,0:0:0:0:
329,192,135308,1,0,0:0:0:0:
256,192,135496,1,0,0:0:0:0:
475,192,135496,1,0,0:0:0:0:
402,192,135683,1,0,0:0:0:0:
329,192,135871,1,0,0:0:0:0:
182,192,135871,1,0,0:0:0:0:
36,192,135871,1,0,0:0:0:0:
182,192,136808,1,0,0:0:0:0:
109,192,136808,1,0,0:0:0:0:
402,192,136996,1,0,0:0:0:0:
329,192,136996,1,0,0:0:0:0:
36,192,137371,1,0,0:0:0:0:
475,192,137371,1,0,0:0:0:0:
256,192,137371,1,0,0:0:0:0:
402,192,137746,1,0,0:0:0:0:
109,192,137933,1,0,0:0:0:0:
402,192,138496,1,0,0:0:0:0:
109,192,138683,1,0,0:0:0:0:
402,192,139246,1,0,0:0:0:0:
109,192,139433,1,0,0:0:0:0:
182,192,139808,1,0,0:0:0:0:
329,192,139996,1,0,0:0:0:0:
182,192,140183,1,0,0:0:0:0:
402,192,140746,1,0,0:0:0:0:
109,192,140933,1,0,0:0:0:0:
402,192,141496,1,0,0:0:0:0:
109,192,141683,1,0,0:0:0:0:
402,192,142246,1,0,0:0:0:0:
109,192,142433,1,0,0:0:0:0:
182,192,142808,1,0,0:0:0:0:
329,192,142996,1,0,0:0:0:0:
36,192,143183,1,0,0:0:0:0:
475,192,143183,1,0,0:0:0:0:
256,192,143183,1,0,0:0:0:0:
