osu file format v14

[General]
AudioFilename: audio.mp3
AudioLeadIn: 0
PreviewTime: 80367
Countdown: 0
SampleSet: Normal
StackLeniency: 0.7
Mode: 3
LetterboxInBreaks: 0
SpecialStyle: 0
WidescreenStoryboard: 1

[Editor]
DistanceSpacing: 1.2
BeatDivisor: 2
GridSize: 32
TimelineZoom: 0.6999998

[Metadata]
Title:Soumai Musou Lovers
TitleUnicode:爽昧夢想ラバーズ
Artist:qfeileadh feat. Lycoris Radiata
ArtistUnicode:qfeileadh feat. りこりす・らぢあーた
Creator:Blocko
Version:Easy
Source:THE BMS OF FIGHTERS XVII -VISION THE RETRO FUTURE-
Tags:BOFXVII Dreaming gdbg GroundbreakinG 2021 compilation album diamond disc 1 FutureCore Pop future core exhilarating 俺たち☆ポップスターズ tokiru_iwata Electronic Japanese
BeatmapID:3698128
BeatmapSetID:1758665

[Difficulty]
HPDrainRate:6.5
CircleSize:7
OverallDifficulty:6.5
ApproachRate:6.5
SliderMultiplier:1.4
SliderTickRate:1

[Events]
//Background and Video events
0,0,"bg_from_bga_with_blobs.png",0,0
//Break Periods
//Storyboard Layer 0 (Background)
//Storyboard Layer 1 (Fail)
//Storyboard Layer 2 (Pass)
//Storyboard Layer 3 (Foreground)
//Storyboard Layer 4 (Overlay)
//Storyboard Sound Samples

[TimingPoints]
871,375,4,1,1,30,1,0
11371,-100,4,1,1,45,0,0
12871,-100,4,1,1,60,0,0
18871,-100,4,1,1,75,0,0
26371,-100,4,1,1,60,0,0
48871,-100,4,1,1,75,0,0
63871,-100,4,1,1,60,0,0
81871,-100,4,1,1,75,0,0
83371,-100,4,1,1,80,0,1
105871,-100,4,1,1,75,0,0
125371,-100,4,1,1,80,0,1
137371,-100,4,1,1,75,0,0

[HitObjects]
402,192,871,5,0,0:0:0:0:
402,192,1433,1,0,0:0:0:0:
109,192,3871,1,0,0:0:0:0:
109,192,4433,1,0,0:0:0:0:
475,192,6871,1,0,0:0:0:0:
475,192,7433,1,0,0:0:0:0:
182,192,9308,1,0,0:0:0:0:
329,192,9871,1,0,0:0:0:0:
329,192,10433,1,0,0:0:0:0:
36,192,11183,1,0,0:0:0:0:
36,192,11933,1,0,0:0:0:0:
256,192,12308,1,0,0:0:0:0:
36,192,12871,1,0,0:0:0:0:
475,192,12871,1,0,0:0:0:0:
475,192,13433,1,0,0:0:0:0:
182,192,14183,1,0,0:0:0:0:
182,192,14558,1,0,0:0:0:0:
329,192,15308,1,0,0:0:0:0:
36,192,15871,1,0,0:0:0:0:
36,192,16433,1,0,0:0:0:0:
329,192,17183,1,0,0:0:0:0:
329,192,17558,1,0,0:0:0:0:
182,192,18308,1,0,0:0:0:0:
109,192,18871,1,0,0:0:0:0:
402,192,18871,1,0,0:0:0:0:
109,192,19246,1,0,0:0:0:0:
256,192,19621,1,0,0:0:0:0:
256,192,19996,1,0,0:0:0:0:
182,192,20371,1,0,0:0:0:0:
182,192,20746,1,0,0:0:0:0:
329,192,21121,1,0,0:0:0:0:
329,192,21496,1,0,0:0:0:0:
256,192,21871,1,0,0:0:0:0:
256,192,22246,1,0,0:0:0:0:
402,192,22621,1,0,0:0:0:0:
402,192,22996,1,0,0:0:0:0:
36,192,23371,1,0,0:0:0:0:
36,192,23746,1,0,0:0:0:0:
475,192,24121,1,0,0:0:0:0:
475,192,24496,1,0,0:0:0:0:
182,192,25621,1,0,0:0:0:0:
329,192,25996,1,0,0:0:0:0:
36,192,26371,1,0,0:0:0:0:
475,192,26371,1,0,0:0:0:0:
256,192,26746,1,0,0:0:0:0:
475,192,26933,1,0,0:0:0:0:
256,192,27496,1,0,0:0:0:0:
256,192,28246,1,0,0:0:0:0:
256,192,28996,1,0,0:0:0:0:
402,192,29371,1,0,0:0:0:0:
182,192,29746,1,0,0:0:0:0:
402,192,29933,1,0,0:0:0:0:
182,192,30496,1,0,0:0:0:0:
402,192,30683,1,0,0:0:0:0:
182,192,31246,1,0,0:0:0:0:
182,192,31996,1,0,0:0:0:0:
36,192,32371,1,0,0:0:0:0:
256,192,32746,1,0,0:0:0:0:
36,192,32933,1,0,0:0:0:0:
256,192,33496,1,0,0:0:0:0:
256,192,34246,1,0,0:0:0:0:
36,192,34808,1,0,0:0:0:0:
256,192,34996,1,0,0:0:0:0:
109,192,35371,1,0,0:0:0:0:
329,192,35746,1,0,0:0:0:0:
109,192,35933,1,0,0:0:0:0:
329,192,36496,1,0,0:0:0:0:
109,192,36683,1,0,0:0:0:0:
329,192,37246,1,0,0:0:0:0:
109,192,37433,1,0,0:0:0:0:
109,192,37808,1,0,0:0:0:0:
329,192,37996,1,0,0:0:0:0:
256,192,38371,1,0,0:0:0:0:
475,192,38371,1,0,0:0:0:0:
36,192,38746,1,0,0:0:0:0:
475,192,38933,1,0,0:0:0:0:
36,192,39496,1,0,0:0:0:0:
36,192,40246,1,0,0:0:0:0:
36,192,40996,1,0,0:0:0:0:
109,192,41371,1,0,0:0:0:0:
402,192,41746,1,0,0:0:0:0:
109,192,41933,1,0,0:0:0:0:
402,192,42496,1,0,0:0:0:0:
109,192,42683,1,0,0:0:0:0:
402,192,43246,1,0,0:0:0:0:
109,192,43808,1,0,0:0:0:0:
402,192,43996,1,0,0:0:0:0:
329,192,44371,1,0,0:0:0:0:
256,192,44371,1,0,0:0:0:0:
182,192,44746,1,0,0:0:0:0:
329,192,44933,1,0,0:0:0:0:
182,192,45496,1,0,0:0:0:0:
329,192,45683,1,0,0:0:0:0:
109,192,46246,1,0,0:0:0:0:
402,192,46433,1,0,0:0:0:0:
402,192,46808,1,0,0:0:0:0:
109,192,46996,1,0,0:0:0:0:
402,192,47183,1,0,0:0:0:0:
36,192,47746,1,0,0:0:0:0:
475,192,47933,1,0,0:0:0:0:
475,192,48308,1,0,0:0:0:0:
36,192,48496,1,0,0:0:0:0:
256,192,48683,1,0,0:0:0:0:
475,192,48683,1,0,0:0:0:0:
256,192,51308,1,0,0:0:0:0:
36,192,51871,1,0,0:0:0:0:
475,192,51871,1,0,0:0:0:0:
256,192,52621,1,0,0:0:0:0:
182,192,53371,1,0,0:0:0:0:
109,192,54121,1,0,0:0:0:0:
36,192,54871,1,0,0:0:0:0:
256,192,54871,1,0,0:0:0:0:
475,192,55621,1,0,0:0:0:0:
402,192,56371,1,0,0:0:0:0:
182,192,56371,1,0,0:0:0:0:
329,192,57121,1,0,0:0:0:0:
36,192,57871,1,0,0:0:0:0:
475,192,57871,1,0,0:0:0:0:
109,192,58621,1,0,0:0:0:0:
329,192,59371,1,0,0:0:0:0:
182,192,59371,1,0,0:0:0:0:
402,192,60121,1,0,0:0:0:0:
256,192,60871,1,0,0:0:0:0:
475,192,60871,1,0,0:0:0:0:
182,192,62371,1,0,0:0:0:0:
329,192,62371,1,0,0:0:0:0:
402,192,63121,1,0,0:0:0:0:
109,192,63121,1,0,0:0:0:0:
475,192,63871,1,0,0:0:0:0:
36,192,63871,1,0,0:0:0:0:
402,192,65121,1,0,0:0:0:0:
256,192,65371,1,0,0:0:0:0:
329,192,65871,1,0,0:0:0:0:
182,192,66121,1,0,0:0:0:0:
256,192,66621,1,0,0:0:0:0:
109,192,66871,1,0,0:0:0:0:
182,192,67371,1,0,0:0:0:0:
36,192,67621,1,0,0:0:0:0:
329,192,68371,1,0,0:0:0:0:
475,192,68371,1,0,0:0:0:0:
329,192,69871,1,0,0:0:0:0:
36,192,69871,1,0,0:0:0:0:
36,192,70246,1,0,0:0:0:0:
36,192,70621,1,0,0:0:0:0:
36,192,70996,1,0,0:0:0:0:
329,192,71371,1,0,0:0:0:0:
329,192,71746,1,0,0:0:0:0:
329,192,72121,1,0,0:0:0:0:
329,192,72496,1,0,0:0:0:0:
182,192,72871,1,0,0:0:0:0:
256,192,72871,1,0,0:0:0:0:
182,192,73246,1,0,0:0:0:0:
182,192,73621,1,0,0:0:0:0:
182,192,73996,1,0,0:0:0:0:
475,192,74371,1,0,0:0:0:0:
475,192,74746,1,0,0:0:0:0:
475,192,75121,1,0,0:0:0:0:
475,192,75496,1,0,0:0:0:0:
109,192,75871,1,0,0:0:0:0:
256,192,75871,1,0,0:0:0:0:
109,192,76246,1,0,0:0:0:0:
402,192,76621,1,0,0:0:0:0:
402,192,76996,1,0,0:0:0:0:
256,192,77371,1,0,0:0:0:0:
36,192,77371,1,0,0:0:0:0:
36,192,77746,1,0,0:0:0:0:
475,192,78121,1,0,0:0:0:0:
475,192,78496,1,0,0:0:0:0:
109,192,78871,1,0,0:0:0:0:
256,192,79058,1,0,0:0:0:0:
402,192,79246,1,0,0:0:0:0:
36,192,79621,1,0,0:0:0:0:
256,192,79808,1,0,0:0:0:0:
475,192,79996,1,0,0:0:0:0:
256,192,81496,1,0,0:0:0:0:
109,192,81871,1,0,0:0:0:0:
402,192,81871,1,0,0:0:0:0:
36,192,82433,1,0,0:0:0:0:
36,192,82621,1,0,0:0:0:0:
475,192,83183,1,0,0:0:0:0:
475,192,83371,1,0,0:0:0:0:
109,192,83746,1,0,0:0:0:0:
402,192,83933,1,0,0:0:0:0:
402,192,84121,1,0,0:0:0:0:
329,192,84496,1,0,0:0:0:0:
182,192,84683,1,0,0:0:0:0:
182,192,84871,1,0,0:0:0:0:
402,192,85246,1,0,0:0:0:0:
109,192,85433,1,0,0:0:0:0:
109,192,85621,1,0,0:0:0:0:
256,192,85996,1,0,0:0:0:0:
475,192,86183,1,0,0:0:0:0:
475,192,86371,1,0,0:0:0:0:
256,192,86746,1,0,0:0:0:0:
36,192,86933,1,0,0:0:0:0:
36,192,87121,1,0,0:0:0:0:
182,192,87496,1,0,0:0:0:0:
329,192,87683,1,0,0:0:0:0:
329,192,87871,1,0,0:0:0:0:
109,192,88246,1,0,0:0:0:0:
402,192,88246,1,0,0:0:0:0:
256,192,88621,1,0,0:0:0:0:
475,192,88996,1,0,0:0:0:0:
36,192,88996,1,0,0:0:0:0:
256,192,89371,1,0,0:0:0:0:
109,192,89746,1,0,0:0:0:0:
329,192,89933,1,0,0:0:0:0:
182,192,90308,1,0,0:0:0:0:
402,192,90496,1,0,0:0:0:0:
256,192,90683,1,0,0:0:0:0:
109,192,90871,1,0,0:0:0:0:
329,192,91246,1,0,0:0:0:0:
36,192,91246,1,0,0:0:0:0:
256,192,91621,1,0,0:0:0:0:
182,192,91996,1,0,0:0:0:0:
475,192,91996,1,0,0:0:0:0:
402,192,92371,1,0,0:0:0:0:
329,192,92558,1,0,0:0:0:0:
36,192,92746,1,0,0:0:0:0:
256,192,92746,1,0,0:0:0:0:
109,192,93121,1,0,0:0:0:0:
182,192,93308,1,0,0:0:0:0:
256,192,93496,1,0,0:0:0:0:
329,192,93683,1,0,0:0:0:0:
475,192,93871,1,0,0:0:0:0:
36,192,93871,1,0,0:0:0:0:
182,192,94246,1,0,0:0:0:0:
402,192,94433,1,0,0:0:0:0:
402,192,94621,1,0,0:0:0:0:
109,192,94996,1,0,0:0:0:0:
329,192,95183,1,0,0:0:0:0:
329,192,95371,1,0,0:0:0:0:
36,192,95746,1,0,0:0:0:0:
256,192,95933,1,0,0:0:0:0:
256,192,96121,1,0,0:0:0:0:
329,192,96496,1,0,0:0:0:0:
109,192,96683,1,0,0:0:0:0:
109,192,96871,1,0,0:0:0:0:
402,192,97246,1,0,0:0:0:0:
182,192,97433,1,0,0:0:0:0:
182,192,97621,1,0,0:0:0:0:
475,192,97996,1,0,0:0:0:0:
256,192,98183,1,0,0:0:0:0:
256,192,98371,1,0,0:0:0:0:
109,192,98746,1,0,0:0:0:0:
475,192,98933,1,0,0:0:0:0:
475,192,99121,1,0,0:0:0:0:
402,192,99496,1,0,0:0:0:0:
36,192,99683,1,0,0:0:0:0:
36,192,99871,1,0,0:0:0:0:
182,192,100621,1,0,0:0:0:0:
475,192,100996,1,0,0:0:0:0:
329,192,101371,1,0,0:0:0:0:
36,192,101746,1,0,0:0:0:0:
182,192,101933,1,0,0:0:0:0:
329,192,102308,1,0,0:0:0:0:
402,192,102683,1,0,0:0:0:0:
109,192,102683,1,0,0:0:0:0:
256,192,103246,1,0,0:0:0:0:
109,192,103621,1,0,0:0:0:0:
182,192,103808,1,0,0:0:0:0:
329,192,103996,1,0,0:0:0:0:
402,192,104183,1,0,0:0:0:0:
36,192,104371,1,0,0:0:0:0:
475,192,104371,1,0,0:0:0:0:
109,192,105308,1,0,0:0:0:0:
402,192,105496,1,0,0:0:0:0:
182,192,105871,1,0,0:0:0:0:
329,192,105871,1,0,0:0:0:0:
182,192,106433,1,0,0:0:0:0:
182,192,106996,1,0,0:0:0:0:
329,192,106996,1,0,0:0:0:0:
109,192,107933,1,0,0:0:0:0:
256,192,108121,1,0,0:0:0:0:
402,192,108121,1,0,0:0:0:0:
475,192,108871,1,0,0:0:0:0:
475,192,109433,1,0,0:0:0:0:
36,192,109996,1,0,0:0:0:0:
329,192,109996,1,0,0:0:0:0:
402,192,110933,1,0,0:0:0:0:
109,192,111121,1,0,0:0:0:0:
256,192,111121,1,0,0:0:0:0:
329,192,111308,1,0,0:0:0:0:
329,192,111683,1,0,0:0:0:0:
182,192,111871,1,0,0:0:0:0:
182,192,112433,1,0,0:0:0:0:
182,192,113183,1,0,0:0:0:0:
329,192,114121,1,0,0:0:0:0:
475,192,114121,1,0,0:0:0:0:
109,192,114308,1,0,0:0:0:0:
329,192,114683,1,0,0:0:0:0:
36,192,114683,1,0,0:0:0:0:
329,192,115621,1,0,0:0:0:0:
475,192,115621,1,0,0:0:0:0:
182,192,115808,1,0,0:0:0:0:
329,192,115996,1,0,0:0:0:0:
182,192,116183,1,0,0:0:0:0:
36,192,116183,1,0,0:0:0:0:
109,192,116933,1,0,0:0:0:0:
402,192,117121,1,0,0:0:0:0:
402,192,117496,1,0,0:0:0:0:
256,192,117683,1,0,0:0:0:0:
36,192,117871,1,0,0:0:0:0:
36,192,118246,1,0,0:0:0:0:
36,192,118621,1,0,0:0:0:0:
36,192,118902,1,0,0:0:0:0:
36,192,119183,1,0,0:0:0:0:
475,192,119558,1,0,0:0:0:0:
475,192,119746,1,0,0:0:0:0:
475,192,120121,1,0,0:0:0:0:
475,192,120402,1,0,0:0:0:0:
475,192,120683,1,0,0:0:0:0:
182,192,120871,1,0,0:0:0:0:
182,192,121246,1,0,0:0:0:0:
182,192,121621,1,0,0:0:0:0:
182,192,121902,1,0,0:0:0:0:
182,192,122183,1,0,0:0:0:0:
329,192,122371,1,0,0:0:0:0:
36,192,125371,1,0,0:0:0:0:
475,192,125371,1,0,0:0:0:0:
475,192,125746,1,0,0:0:0:0:
475,192,126121,1,0,0:0:0:0:
475,192,126496,1,0,0:0:0:0:
109,192,126871,1,0,0:0:0:0:
109,192,127246,1,0,0:0:0:0:
109,192,127621,1,0,0:0:0:0:
109,192,127996,1,0,0:0:0:0:
402,192,128371,1,0,0:0:0:0:
256,192,128371,1,0,0:0:0:0:
402,192,128746,1,0,0:0:0:0:
402,192,129121,1,0,0:0:0:0:
402,192,129496,1,0,0:0:0:0:
36,192,129871,1,0,0:0:0:0:
36,192,130246,1,0,0:0:0:0:
36,192,130621,1,0,0:0:0:0:
36,192,130996,1,0,0:0:0:0:
329,192,131371,1,0,0:0:0:0:
256,192,131371,1,0,0:0:0:0:
329,192,131746,1,0,0:0:0:0:
182,192,132121,1,0,0:0:0:0:
182,192,132496,1,0,0:0:0:0:
256,192,132871,1,0,0:0:0:0:
402,192,132871,1,0,0:0:0:0:
402,192,133246,1,0,0:0:0:0:
109,192,133621,1,0,0:0:0:0:
109,192,133996,1,0,0:0:0:0:
475,192,134371,1,0,0:0:0:0:
329,192,134558,1,0,0:0:0:0:
182,192,134746,1,0,0:0:0:0:
36,192,135121,1,0,0:0:0:0:
182,192,135308,1,0,0:0:0:0:
329,192,135496,1,0,0:0:0:0:
182,192,135871,1,0,0:0:0:0:
256,192,135871,1,0,0:0:0:0:
256,192,136808,1,0,0:0:0:0:
329,192,136996,1,0,0:0:0:0:
109,192,137371,1,0,0:0:0:0:
402,192,137371,1,0,0:0:0:0:
256,192,137746,1,0,0:0:0:0:
256,192,138496,1,0,0:0:0:0:
256,192,139246,1,0,0:0:0:0:
329,192,139808,1,0,0:0:0:0:
182,192,140183,1,0,0:0:0:0:
256,192,140746,1,0,0:0:0:0:
256,192,141496,1,0,0:0:0:0:
256,192,142246,1,0,0:0:0:0:
329,192,142808,1,0,0:0:0:0:
36,192,143183,1,0,0:0:0:0:
475,192,143183,1,0,0:0:0:0:
