osu file format v14

[General]
AudioFilename: audio.mp3
AudioLeadIn: 0
PreviewTime: 80367
Countdown: 0
SampleSet: Normal
StackLeniency: 0.7
Mode: 3
LetterboxInBreaks: 0
SpecialStyle: 0
WidescreenStoryboard: 1

[Editor]
DistanceSpacing: 1.2
BeatDivisor: 4
GridSize: 32
TimelineZoom: 2.3

[Metadata]
Title:Soumai Musou Lovers
TitleUnicode:爽昧夢想ラバーズ
Artist:qfeileadh feat. Lycoris Radiata
ArtistUnicode:qfeileadh feat. りこりす・らぢあーた
Creator:Blocko
Version:Another
Source:THE BMS OF FIGHTERS XVII -VISION THE RETRO FUTURE-
Tags:BOFXVII Dreaming gdbg GroundbreakinG 2021 compilation album diamond disc 1 FutureCore Pop future core exhilarating 俺たち☆ポップスターズ tokiru_iwata Electronic Japanese
BeatmapID:3698369
BeatmapSetID:1758665

[Difficulty]
HPDrainRate:8.3
CircleSize:7
OverallDifficulty:8.3
ApproachRate:8.5
SliderMultiplier:1.4
SliderTickRate:1

[Events]
//Background and Video events
0,0,"bg_from_bga_with_blobs.png",0,0
//Break Periods
//Storyboard Layer 0 (Background)
//Storyboard Layer 1 (Fail)
//Storyboard Layer 2 (Pass)
//Storyboard Layer 3 (Foreground)
//Storyboard Layer 4 (Overlay)
//Storyboard Sound Samples

[TimingPoints]
871,375,4,1,1,20,1,0
12871,-100,4,1,1,25,0,0
18871,-100,4,1,1,30,0,0
26371,-100,4,1,1,25,0,0
48871,-100,4,1,1,30,0,0
51871,-100,4,1,1,35,0,0
80558,-100,4,1,1,35,0,0
83371,-100,4,1,1,30,0,1
105871,-100,4,1,1,30,0,0
122746,-100,4,1,1,50,0,0
125371,-100,4,1,1,30,0,1
137371,-100,4,1,1,40,0,0

[HitObjects]
109,192,871,5,0,0:0:0:0:
475,192,871,1,0,0:0:0:0:
329,192,871,1,0,0:0:0:0:
182,192,1058,1,0,0:0:0:0:
256,192,1246,1,0,0:0:0:0:
402,192,1433,1,0,0:0:0:0:
475,192,1433,1,0,0:0:0:0:
329,192,1433,1,0,0:0:0:0:
256,192,1808,1,0,0:0:0:0:
329,192,1996,1,0,0:0:0:0:
402,192,2183,1,0,0:0:0:0:
182,192,3871,1,0,0:0:0:0:
36,192,3871,1,0,0:0:0:0:
109,192,3871,1,0,0:0:0:0:
256,192,4058,1,0,0:0:0:0:
329,192,4246,1,0,0:0:0:0:
402,192,4433,1,0,0:0:0:0:
182,192,4433,1,0,0:0:0:0:
36,192,4433,1,0,0:0:0:0:
329,192,4808,1,0,0:0:0:0:
402,192,4996,1,0,0:0:0:0:
475,192,5183,1,0,0:0:0:0:
256,192,6308,1,0,0:0:0:0:
329,192,6496,1,0,0:0:0:0:
109,192,6683,1,0,0:0:0:0:
475,192,6871,1,0,0:0:0:0:
329,192,6871,1,0,0:0:0:0:
182,192,6871,1,0,0:0:0:0:
36,192,7058,1,0,0:0:0:0:
109,192,7246,1,0,0:0:0:0:
329,192,7433,1,0,0:0:0:0:
475,192,7433,1,0,0:0:0:0:
182,192,7433,1,0,0:0:0:0:
109,192,7808,1,0,0:0:0:0:
256,192,7996,1,0,0:0:0:0:
402,192,8183,1,0,0:0:0:0:
329,192,9308,1,0,0:0:0:0:
182,192,9308,1,0,0:0:0:0:
36,192,9871,1,0,0:0:0:0:
256,192,9871,1,0,0:0:0:0:
475,192,9871,1,0,0:0:0:0:
182,192,10058,1,0,0:0:0:0:
329,192,10246,1,0,0:0:0:0:
475,192,10433,1,0,0:0:0:0:
256,192,10433,1,0,0:0:0:0:
36,192,10433,1,0,0:0:0:0:
182,192,10808,1,0,0:0:0:0:
329,192,10808,1,0,0:0:0:0:
256,192,10996,1,0,0:0:0:0:
402,192,10996,1,0,0:0:0:0:
329,192,11183,1,0,0:0:0:0:
182,192,11183,1,0,0:0:0:0:
36,192,11183,1,0,0:0:0:0:
256,192,11558,1,0,0:0:0:0:
109,192,11652,1,0,0:0:0:0:
329,192,11746,1,0,0:0:0:0:
475,192,11746,1,0,0:0:0:0:
182,192,11933,1,0,0:0:0:0:
36,192,11933,1,0,0:0:0:0:
402,192,12027,1,0,0:0:0:0:
109,192,12121,1,0,0:0:0:0:
256,192,12121,1,0,0:0:0:0:
329,192,12214,1,0,0:0:0:0:
182,192,12308,1,0,0:0:0:0:
475,192,12308,1,0,0:0:0:0:
256,192,12402,1,0,0:0:0:0:
329,192,12496,1,0,0:0:0:0:
475,192,12496,1,0,0:0:0:0:
109,192,12496,1,0,0:0:0:0:
36,192,12496,1,0,0:0:0:0:
256,192,12683,1,0,0:0:0:0:
36,192,12871,1,0,0:0:0:0:
475,192,12871,1,0,0:0:0:0:
329,192,12871,1,0,0:0:0:0:
109,192,12871,1,0,0:0:0:0:
256,192,12871,1,0,0:0:0:0:
182,192,13058,1,0,0:0:0:0:
329,192,13058,1,0,0:0:0:0:
475,192,13246,1,0,0:0:0:0:
402,192,13292,1,0,0:0:0:0:
329,192,13339,1,0,0:0:0:0:
256,192,13386,1,0,0:0:0:0:
36,192,13433,1,0,0:0:0:0:
109,192,13433,1,0,0:0:0:0:
182,192,13433,1,0,0:0:0:0:
329,192,13527,1,0,0:0:0:0:
475,192,13621,1,0,0:0:0:0:
402,192,13621,1,0,0:0:0:0:
182,192,13621,1,0,0:0:0:0:
36,192,13621,1,0,0:0:0:0:
256,192,13808,1,0,0:0:0:0:
109,192,13808,1,0,0:0:0:0:
182,192,13996,1,0,0:0:0:0:
329,192,13996,1,0,0:0:0:0:
109,192,14089,1,0,0:0:0:0:
36,192,14183,1,0,0:0:0:0:
256,192,14183,1,0,0:0:0:0:
402,192,14183,1,0,0:0:0:0:
475,192,14183,1,0,0:0:0:0:
329,192,14371,1,0,0:0:0:0:
182,192,14371,1,0,0:0:0:0:
36,192,14558,1,0,0:0:0:0:
109,192,14558,1,0,0:0:0:0:
402,192,14558,1,0,0:0:0:0:
475,192,14558,1,0,0:0:0:0:
182,192,14746,1,0,0:0:0:0:
256,192,14746,1,0,0:0:0:0:
329,192,14933,1,0,0:0:0:0:
256,192,14980,1,0,0:0:0:0:
182,192,15027,1,0,0:0:0:0:
109,192,15074,1,0,0:0:0:0:
402,192,15121,1,0,0:0:0:0:
475,192,15121,1,0,0:0:0:0:
36,192,15121,1,0,0:0:0:0:
256,192,15308,1,0,0:0:0:0:
36,192,15308,1,0,0:0:0:0:
109,192,15308,1,0,0:0:0:0:
329,192,15308,1,0,0:0:0:0:
182,192,15496,1,0,0:0:0:0:
256,192,15542,1,0,0:0:0:0:
329,192,15589,1,0,0:0:0:0:
402,192,15636,1,0,0:0:0:0:
109,192,15683,1,0,0:0:0:0:
182,192,15730,1,0,0:0:0:0:
256,192,15777,1,0,0:0:0:0:
329,192,15824,1,0,0:0:0:0:
36,192,15871,1,0,0:0:0:0:
402,192,15871,1,0,0:0:0:0:
109,192,15871,1,0,0:0:0:0:
475,192,15871,1,0,0:0:0:0:
182,192,16058,1,0,0:0:0:0:
329,192,16058,1,0,0:0:0:0:
36,192,16246,1,0,0:0:0:0:
109,192,16292,1,0,0:0:0:0:
182,192,16339,1,0,0:0:0:0:
256,192,16386,1,0,0:0:0:0:
329,192,16433,1,0,0:0:0:0:
402,192,16433,1,0,0:0:0:0:
475,192,16433,1,0,0:0:0:0:
182,192,16527,1,0,0:0:0:0:
475,192,16621,1,0,0:0:0:0:
256,192,16621,1,0,0:0:0:0:
402,192,16621,1,0,0:0:0:0:
36,192,16621,1,0,0:0:0:0:
329,192,16808,1,0,0:0:0:0:
182,192,16808,1,0,0:0:0:0:
256,192,16996,1,0,0:0:0:0:
109,192,16996,1,0,0:0:0:0:
329,192,17089,1,0,0:0:0:0:
36,192,17183,1,0,0:0:0:0:
402,192,17183,1,0,0:0:0:0:
475,192,17183,1,0,0:0:0:0:
182,192,17183,1,0,0:0:0:0:
109,192,17371,1,0,0:0:0:0:
256,192,17371,1,0,0:0:0:0:
36,192,17558,1,0,0:0:0:0:
402,192,17558,1,0,0:0:0:0:
182,192,17558,1,0,0:0:0:0:
475,192,17558,1,0,0:0:0:0:
329,192,17746,1,0,0:0:0:0:
109,192,17746,1,0,0:0:0:0:
182,192,17933,1,0,0:0:0:0:
256,192,17980,1,0,0:0:0:0:
329,192,18027,1,0,0:0:0:0:
402,192,18074,1,0,0:0:0:0:
36,192,18121,1,0,0:0:0:0:
109,192,18121,1,0,0:0:0:0:
475,192,18121,1,0,0:0:0:0:
402,192,18308,1,0,0:0:0:0:
109,192,18308,1,0,0:0:0:0:
256,192,18308,1,0,0:0:0:0:
475,192,18496,1,0,0:0:0:0:
36,192,18496,1,0,0:0:0:0:
329,192,18496,1,0,0:0:0:0:
109,192,18542,1,0,0:0:0:0:
182,192,18589,1,0,0:0:0:0:
256,192,18636,1,0,0:0:0:0:
36,192,18683,1,0,0:0:0:0:
475,192,18683,1,0,0:0:0:0:
402,192,18730,1,0,0:0:0:0:
329,192,18777,1,0,0:0:0:0:
256,192,18824,1,0,0:0:0:0:
475,192,18871,1,0,0:0:0:0:
36,192,18871,1,0,0:0:0:0:
109,192,18871,1,0,0:0:0:0:
182,192,18871,1,0,0:0:0:0:
402,192,18964,1,0,0:0:0:0:
182,192,19058,1,0,0:0:0:0:
329,192,19058,1,0,0:0:0:0:
109,192,19152,1,0,0:0:0:0:
36,192,19246,1,0,0:0:0:0:
256,192,19246,1,0,0:0:0:0:
475,192,19246,1,0,0:0:0:0:
329,192,19246,1,0,0:0:0:0:
182,192,19339,1,0,0:0:0:0:
402,192,19433,1,0,0:0:0:0:
109,192,19433,1,0,0:0:0:0:
329,192,19527,1,0,0:0:0:0:
36,192,19621,1,0,0:0:0:0:
475,192,19621,1,0,0:0:0:0:
109,192,19621,1,0,0:0:0:0:
256,192,19621,1,0,0:0:0:0:
329,192,19714,1,0,0:0:0:0:
402,192,19808,1,0,0:0:0:0:
36,192,19902,1,0,0:0:0:0:
182,192,19902,1,0,0:0:0:0:
256,192,19902,1,0,0:0:0:0:
402,192,19996,1,0,0:0:0:0:
475,192,19996,1,0,0:0:0:0:
329,192,19996,1,0,0:0:0:0:
182,192,20089,1,0,0:0:0:0:
109,192,20183,1,0,0:0:0:0:
36,192,20183,1,0,0:0:0:0:
475,192,20183,1,0,0:0:0:0:
329,192,20183,1,0,0:0:0:0:
256,192,20277,1,0,0:0:0:0:
402,192,20371,1,0,0:0:0:0:
182,192,20371,1,0,0:0:0:0:
329,192,20464,1,0,0:0:0:0:
256,192,20558,1,0,0:0:0:0:
36,192,20558,1,0,0:0:0:0:
109,192,20558,1,0,0:0:0:0:
475,192,20558,1,0,0:0:0:0:
182,192,20652,1,0,0:0:0:0:
402,192,20746,1,0,0:0:0:0:
475,192,20746,1,0,0:0:0:0:
36,192,20746,1,0,0:0:0:0:
109,192,20746,1,0,0:0:0:0:
256,192,20839,1,0,0:0:0:0:
182,192,20933,1,0,0:0:0:0:
329,192,20933,1,0,0:0:0:0:
402,192,21027,1,0,0:0:0:0:
109,192,21121,1,0,0:0:0:0:
36,192,21121,1,0,0:0:0:0:
475,192,21121,1,0,0:0:0:0:
256,192,21121,1,0,0:0:0:0:
402,192,21214,1,0,0:0:0:0:
329,192,21308,1,0,0:0:0:0:
36,192,21402,1,0,0:0:0:0:
256,192,21402,1,0,0:0:0:0:
182,192,21402,1,0,0:0:0:0:
402,192,21496,1,0,0:0:0:0:
475,192,21496,1,0,0:0:0:0:
109,192,21496,1,0,0:0:0:0:
329,192,21589,1,0,0:0:0:0:
109,192,21683,1,0,0:0:0:0:
36,192,21683,1,0,0:0:0:0:
256,192,21683,1,0,0:0:0:0:
329,192,21777,1,0,0:0:0:0:
182,192,21777,1,0,0:0:0:0:
475,192,21871,1,0,0:0:0:0:
36,192,21871,1,0,0:0:0:0:
256,192,21871,1,0,0:0:0:0:
402,192,21871,1,0,0:0:0:0:
109,192,21964,1,0,0:0:0:0:
329,192,22058,1,0,0:0:0:0:
182,192,22058,1,0,0:0:0:0:
402,192,22152,1,0,0:0:0:0:
475,192,22246,1,0,0:0:0:0:
36,192,22246,1,0,0:0:0:0:
182,192,22246,1,0,0:0:0:0:
256,192,22246,1,0,0:0:0:0:
329,192,22339,1,0,0:0:0:0:
402,192,22433,1,0,0:0:0:0:
109,192,22433,1,0,0:0:0:0:
182,192,22527,1,0,0:0:0:0:
475,192,22621,1,0,0:0:0:0:
402,192,22621,1,0,0:0:0:0:
36,192,22621,1,0,0:0:0:0:
256,192,22621,1,0,0:0:0:0:
182,192,22714,1,0,0:0:0:0:
109,192,22808,1,0,0:0:0:0:
36,192,22902,1,0,0:0:0:0:
329,192,22902,1,0,0:0:0:0:
402,192,22902,1,0,0:0:0:0:
182,192,22996,1,0,0:0:0:0:
256,192,22996,1,0,0:0:0:0:
475,192,22996,1,0,0:0:0:0:
402,192,23089,1,0,0:0:0:0:
36,192,23183,1,0,0:0:0:0:
256,192,23183,1,0,0:0:0:0:
109,192,23183,1,0,0:0:0:0:
329,192,23183,1,0,0:0:0:0:
182,192,23277,1,0,0:0:0:0:
109,192,23371,1,0,0:0:0:0:
329,192,23371,1,0,0:0:0:0:
402,192,23464,1,0,0:0:0:0:
36,192,23558,1,0,0:0:0:0:
475,192,23558,1,0,0:0:0:0:
182,192,23558,1,0,0:0:0:0:
256,192,23558,1,0,0:0:0:0:
329,192,23652,1,0,0:0:0:0:
36,192,23746,1,0,0:0:0:0:
182,192,23746,1,0,0:0:0:0:
109,192,23746,1,0,0:0:0:0:
475,192,23746,1,0,0:0:0:0:
402,192,23839,1,0,0:0:0:0:
109,192,23933,1,0,0:0:0:0:
329,192,23933,1,0,0:0:0:0:
256,192,24027,1,0,0:0:0:0:
402,192,24121,1,0,0:0:0:0:
36,192,24121,1,0,0:0:0:0:
475,192,24121,1,0,0:0:0:0:
182,192,24121,1,0,0:0:0:0:
329,192,24214,1,0,0:0:0:0:
109,192,24308,1,0,0:0:0:0:
402,192,24402,1,0,0:0:0:0:
36,192,24402,1,0,0:0:0:0:
256,192,24402,1,0,0:0:0:0:
329,192,24496,1,0,0:0:0:0:
109,192,24496,1,0,0:0:0:0:
475,192,24496,1,0,0:0:0:0:
182,192,24589,1,0,0:0:0:0:
36,192,24683,1,0,0:0:0:0:
256,192,24683,1,0,0:0:0:0:
475,192,24683,1,0,0:0:0:0:
402,192,24683,1,0,0:0:0:0:
109,192,24777,1,0,0:0:0:0:
182,192,25058,1,0,0:0:0:0:
475,192,25058,1,0,0:0:0:0:
329,192,25152,1,0,0:0:0:0:
109,192,25246,1,0,0:0:0:0:
402,192,25246,1,0,0:0:0:0:
256,192,25339,1,0,0:0:0:0:
36,192,25433,1,0,0:0:0:0:
329,192,25433,1,0,0:0:0:0:
182,192,25527,1,0,0:0:0:0:
402,192,25621,1,0,0:0:0:0:
109,192,25621,1,0,0:0:0:0:
182,192,25808,1,0,0:0:0:0:
329,192,25808,1,0,0:0:0:0:
36,192,25996,1,0,0:0:0:0:
475,192,25996,1,0,0:0:0:0:
109,192,26019,1,0,0:0:0:0:
402,192,26019,1,0,0:0:0:0:
182,192,26042,1,0,0:0:0:0:
329,192,26042,1,0,0:0:0:0:
36,192,26371,1,0,0:0:0:0:
475,192,26371,1,0,0:0:0:0:
256,192,26371,1,0,0:0:0:0:
109,192,26371,1,0,0:0:0:0:
402,192,26371,1,0,0:0:0:0:
109,192,26558,1,0,0:0:0:0:
256,192,26558,1,0,0:0:0:0:
182,192,26746,1,0,0:0:0:0:
475,192,26746,1,0,0:0:0:0:
402,192,26746,1,0,0:0:0:0:
329,192,26746,1,0,0:0:0:0:
36,192,26933,1,0,0:0:0:0:
475,192,26933,1,0,0:0:0:0:
329,192,26933,1,0,0:0:0:0:
109,192,26933,1,0,0:0:0:0:
36,192,27308,1,0,0:0:0:0:
182,192,27308,1,0,0:0:0:0:
329,192,27308,1,0,0:0:0:0:
109,192,27496,1,0,0:0:0:0:
475,192,27496,1,0,0:0:0:0:
402,192,27496,1,0,0:0:0:0:
256,192,27496,1,0,0:0:0:0:
36,192,27683,1,0,0:0:0:0:
109,192,27730,1,0,0:0:0:0:
182,192,27777,1,0,0:0:0:0:
256,192,27824,1,0,0:0:0:0:
329,192,27871,1,0,0:0:0:0:
36,192,28058,1,0,0:0:0:0:
402,192,28058,1,0,0:0:0:0:
182,192,28058,1,0,0:0:0:0:
329,192,28246,1,0,0:0:0:0:
475,192,28246,1,0,0:0:0:0:
109,192,28246,1,0,0:0:0:0:
256,192,28246,1,0,0:0:0:0:
182,192,28433,1,0,0:0:0:0:
329,192,28527,1,0,0:0:0:0:
182,192,28621,1,0,0:0:0:0:
329,192,28714,1,0,0:0:0:0:
36,192,28808,1,0,0:0:0:0:
109,192,28808,1,0,0:0:0:0:
256,192,28808,1,0,0:0:0:0:
475,192,28996,1,0,0:0:0:0:
182,192,28996,1,0,0:0:0:0:
402,192,28996,1,0,0:0:0:0:
329,192,28996,1,0,0:0:0:0:
36,192,29183,1,0,0:0:0:0:
329,192,29183,1,0,0:0:0:0:
109,192,29183,1,0,0:0:0:0:
256,192,29277,1,0,0:0:0:0:
36,192,29371,1,0,0:0:0:0:
182,192,29371,1,0,0:0:0:0:
402,192,29371,1,0,0:0:0:0:
475,192,29371,1,0,0:0:0:0:
402,192,29558,1,0,0:0:0:0:
182,192,29558,1,0,0:0:0:0:
475,192,29746,1,0,0:0:0:0:
329,192,29746,1,0,0:0:0:0:
256,192,29746,1,0,0:0:0:0:
109,192,29746,1,0,0:0:0:0:
475,192,29933,1,0,0:0:0:0:
182,192,29933,1,0,0:0:0:0:
36,192,29933,1,0,0:0:0:0:
329,192,29933,1,0,0:0:0:0:
36,192,30308,1,0,0:0:0:0:
109,192,30308,1,0,0:0:0:0:
256,192,30308,1,0,0:0:0:0:
475,192,30496,1,0,0:0:0:0:
402,192,30496,1,0,0:0:0:0:
329,192,30496,1,0,0:0:0:0:
182,192,30496,1,0,0:0:0:0:
109,192,30683,1,0,0:0:0:0:
182,192,30683,1,0,0:0:0:0:
36,192,30683,1,0,0:0:0:0:
475,192,30683,1,0,0:0:0:0:
256,192,30777,1,0,0:0:0:0:
329,192,30871,1,0,0:0:0:0:
182,192,31058,1,0,0:0:0:0:
109,192,31058,1,0,0:0:0:0:
402,192,31058,1,0,0:0:0:0:
329,192,31246,1,0,0:0:0:0:
475,192,31246,1,0,0:0:0:0:
36,192,31246,1,0,0:0:0:0:
256,192,31246,1,0,0:0:0:0:
402,192,31433,1,0,0:0:0:0:
329,192,31480,1,0,0:0:0:0:
256,192,31527,1,0,0:0:0:0:
182,192,31574,1,0,0:0:0:0:
109,192,31621,1,0,0:0:0:0:
329,192,31714,1,0,0:0:0:0:
182,192,31808,1,0,0:0:0:0:
36,192,31808,1,0,0:0:0:0:
256,192,31808,1,0,0:0:0:0:
475,192,31996,1,0,0:0:0:0:
402,192,31996,1,0,0:0:0:0:
182,192,31996,1,0,0:0:0:0:
329,192,31996,1,0,0:0:0:0:
109,192,32183,1,0,0:0:0:0:
256,192,32183,1,0,0:0:0:0:
329,192,32183,1,0,0:0:0:0:
402,192,32277,1,0,0:0:0:0:
36,192,32371,1,0,0:0:0:0:
182,192,32371,1,0,0:0:0:0:
475,192,32371,1,0,0:0:0:0:
256,192,32371,1,0,0:0:0:0:
36,192,32558,1,0,0:0:0:0:
182,192,32558,1,0,0:0:0:0:
402,192,32746,1,0,0:0:0:0:
475,192,32746,1,0,0:0:0:0:
256,192,32746,1,0,0:0:0:0:
109,192,32746,1,0,0:0:0:0:
475,192,32933,1,0,0:0:0:0:
402,192,32933,1,0,0:0:0:0:
329,192,32933,1,0,0:0:0:0:
182,192,32933,1,0,0:0:0:0:
109,192,33308,1,0,0:0:0:0:
475,192,33308,1,0,0:0:0:0:
329,192,33308,1,0,0:0:0:0:
182,192,33496,1,0,0:0:0:0:
256,192,33496,1,0,0:0:0:0:
402,192,33496,1,0,0:0:0:0:
36,192,33496,1,0,0:0:0:0:
475,192,33683,1,0,0:0:0:0:
402,192,33730,1,0,0:0:0:0:
329,192,33777,1,0,0:0:0:0:
256,192,33824,1,0,0:0:0:0:
182,192,33871,1,0,0:0:0:0:
109,192,34058,1,0,0:0:0:0:
36,192,34058,1,0,0:0:0:0:
329,192,34058,1,0,0:0:0:0:
402,192,34246,1,0,0:0:0:0:
475,192,34246,1,0,0:0:0:0:
182,192,34246,1,0,0:0:0:0:
256,192,34246,1,0,0:0:0:0:
36,192,34433,1,0,0:0:0:0:
475,192,34527,1,0,0:0:0:0:
36,192,34621,1,0,0:0:0:0:
475,192,34714,1,0,0:0:0:0:
36,192,34808,1,0,0:0:0:0:
329,192,34808,1,0,0:0:0:0:
109,192,34808,1,0,0:0:0:0:
256,192,34808,1,0,0:0:0:0:
402,192,34996,1,0,0:0:0:0:
475,192,34996,1,0,0:0:0:0:
182,192,34996,1,0,0:0:0:0:
256,192,34996,1,0,0:0:0:0:
329,192,35183,1,0,0:0:0:0:
36,192,35183,1,0,0:0:0:0:
182,192,35183,1,0,0:0:0:0:
402,192,35277,1,0,0:0:0:0:
109,192,35371,1,0,0:0:0:0:
36,192,35371,1,0,0:0:0:0:
475,192,35371,1,0,0:0:0:0:
256,192,35371,1,0,0:0:0:0:
109,192,35558,1,0,0:0:0:0:
256,192,35558,1,0,0:0:0:0:
329,192,35746,1,0,0:0:0:0:
475,192,35746,1,0,0:0:0:0:
402,192,35746,1,0,0:0:0:0:
182,192,35746,1,0,0:0:0:0:
109,192,35933,1,0,0:0:0:0:
402,192,35933,1,0,0:0:0:0:
36,192,35933,1,0,0:0:0:0:
329,192,35933,1,0,0:0:0:0:
256,192,36308,1,0,0:0:0:0:
109,192,36308,1,0,0:0:0:0:
402,192,36308,1,0,0:0:0:0:
182,192,36496,1,0,0:0:0:0:
475,192,36496,1,0,0:0:0:0:
329,192,36496,1,0,0:0:0:0:
36,192,36496,1,0,0:0:0:0:
256,192,36683,1,0,0:0:0:0:
36,192,36683,1,0,0:0:0:0:
109,192,36683,1,0,0:0:0:0:
402,192,36683,1,0,0:0:0:0:
329,192,36777,1,0,0:0:0:0:
182,192,36871,1,0,0:0:0:0:
256,192,37058,1,0,0:0:0:0:
36,192,37058,1,0,0:0:0:0:
402,192,37058,1,0,0:0:0:0:
475,192,37246,1,0,0:0:0:0:
109,192,37246,1,0,0:0:0:0:
329,192,37246,1,0,0:0:0:0:
182,192,37246,1,0,0:0:0:0:
36,192,37433,1,0,0:0:0:0:
475,192,37433,1,0,0:0:0:0:
109,192,37433,1,0,0:0:0:0:
402,192,37433,1,0,0:0:0:0:
182,192,37480,1,0,0:0:0:0:
256,192,37527,1,0,0:0:0:0:
329,192,37574,1,0,0:0:0:0:
402,192,37621,1,0,0:0:0:0:
109,192,37714,1,0,0:0:0:0:
329,192,37808,1,0,0:0:0:0:
256,192,37808,1,0,0:0:0:0:
36,192,37808,1,0,0:0:0:0:
475,192,37808,1,0,0:0:0:0:
182,192,37996,1,0,0:0:0:0:
402,192,37996,1,0,0:0:0:0:
256,192,37996,1,0,0:0:0:0:
109,192,37996,1,0,0:0:0:0:
329,192,38183,1,0,0:0:0:0:
36,192,38183,1,0,0:0:0:0:
256,192,38230,1,0,0:0:0:0:
182,192,38277,1,0,0:0:0:0:
109,192,38324,1,0,0:0:0:0:
402,192,38371,1,0,0:0:0:0:
329,192,38371,1,0,0:0:0:0:
475,192,38371,1,0,0:0:0:0:
36,192,38371,1,0,0:0:0:0:
402,192,38558,1,0,0:0:0:0:
475,192,38558,1,0,0:0:0:0:
256,192,38746,1,0,0:0:0:0:
329,192,38746,1,0,0:0:0:0:
36,192,38746,1,0,0:0:0:0:
182,192,38746,1,0,0:0:0:0:
36,192,38933,1,0,0:0:0:0:
182,192,38933,1,0,0:0:0:0:
475,192,38933,1,0,0:0:0:0:
402,192,38933,1,0,0:0:0:0:
109,192,39308,1,0,0:0:0:0:
182,192,39308,1,0,0:0:0:0:
329,192,39308,1,0,0:0:0:0:
475,192,39496,1,0,0:0:0:0:
402,192,39496,1,0,0:0:0:0:
36,192,39496,1,0,0:0:0:0:
256,192,39496,1,0,0:0:0:0:
329,192,39683,1,0,0:0:0:0:
256,192,39730,1,0,0:0:0:0:
182,192,39777,1,0,0:0:0:0:
109,192,39824,1,0,0:0:0:0:
36,192,39871,1,0,0:0:0:0:
182,192,40058,1,0,0:0:0:0:
256,192,40058,1,0,0:0:0:0:
402,192,40058,1,0,0:0:0:0:
475,192,40246,1,0,0:0:0:0:
329,192,40246,1,0,0:0:0:0:
109,192,40246,1,0,0:0:0:0:
36,192,40246,1,0,0:0:0:0:
182,192,40433,1,0,0:0:0:0:
329,192,40527,1,0,0:0:0:0:
182,192,40621,1,0,0:0:0:0:
329,192,40714,1,0,0:0:0:0:
109,192,40808,1,0,0:0:0:0:
36,192,40808,1,0,0:0:0:0:
256,192,40808,1,0,0:0:0:0:
475,192,40996,1,0,0:0:0:0:
402,192,40996,1,0,0:0:0:0:
182,192,40996,1,0,0:0:0:0:
36,192,40996,1,0,0:0:0:0:
109,192,41183,1,0,0:0:0:0:
402,192,41183,1,0,0:0:0:0:
329,192,41183,1,0,0:0:0:0:
256,192,41277,1,0,0:0:0:0:
182,192,41371,1,0,0:0:0:0:
36,192,41371,1,0,0:0:0:0:
475,192,41371,1,0,0:0:0:0:
329,192,41371,1,0,0:0:0:0:
475,192,41558,1,0,0:0:0:0:
36,192,41558,1,0,0:0:0:0:
182,192,41746,1,0,0:0:0:0:
329,192,41746,1,0,0:0:0:0:
256,192,41746,1,0,0:0:0:0:
402,192,41746,1,0,0:0:0:0:
109,192,41933,1,0,0:0:0:0:
329,192,41933,1,0,0:0:0:0:
182,192,41933,1,0,0:0:0:0:
475,192,41933,1,0,0:0:0:0:
182,192,42308,1,0,0:0:0:0:
36,192,42308,1,0,0:0:0:0:
329,192,42308,1,0,0:0:0:0:
402,192,42496,1,0,0:0:0:0:
109,192,42496,1,0,0:0:0:0:
475,192,42496,1,0,0:0:0:0:
256,192,42496,1,0,0:0:0:0:
475,192,42683,1,0,0:0:0:0:
36,192,42683,1,0,0:0:0:0:
329,192,42683,1,0,0:0:0:0:
182,192,42683,1,0,0:0:0:0:
256,192,42777,1,0,0:0:0:0:
402,192,42871,1,0,0:0:0:0:
182,192,43058,1,0,0:0:0:0:
109,192,43058,1,0,0:0:0:0:
329,192,43058,1,0,0:0:0:0:
475,192,43246,1,0,0:0:0:0:
36,192,43246,1,0,0:0:0:0:
256,192,43246,1,0,0:0:0:0:
402,192,43246,1,0,0:0:0:0:
109,192,43433,1,0,0:0:0:0:
182,192,43480,1,0,0:0:0:0:
256,192,43527,1,0,0:0:0:0:
329,192,43574,1,0,0:0:0:0:
402,192,43621,1,0,0:0:0:0:
182,192,43714,1,0,0:0:0:0:
36,192,43808,1,0,0:0:0:0:
475,192,43808,1,0,0:0:0:0:
329,192,43808,1,0,0:0:0:0:
109,192,43808,1,0,0:0:0:0:
402,192,43996,1,0,0:0:0:0:
36,192,43996,1,0,0:0:0:0:
475,192,43996,1,0,0:0:0:0:
256,192,43996,1,0,0:0:0:0:
329,192,44183,1,0,0:0:0:0:
182,192,44183,1,0,0:0:0:0:
402,192,44183,1,0,0:0:0:0:
109,192,44277,1,0,0:0:0:0:
475,192,44371,1,0,0:0:0:0:
256,192,44371,1,0,0:0:0:0:
36,192,44371,1,0,0:0:0:0:
182,192,44371,1,0,0:0:0:0:
329,192,44371,1,0,0:0:0:0:
475,192,44558,1,0,0:0:0:0:
256,192,44558,1,0,0:0:0:0:
182,192,44746,1,0,0:0:0:0:
329,192,44746,1,0,0:0:0:0:
402,192,44746,1,0,0:0:0:0:
36,192,44746,1,0,0:0:0:0:
182,192,44933,1,0,0:0:0:0:
256,192,44933,1,0,0:0:0:0:
475,192,44933,1,0,0:0:0:0:
36,192,44933,1,0,0:0:0:0:
475,192,45308,1,0,0:0:0:0:
36,192,45308,1,0,0:0:0:0:
109,192,45308,1,0,0:0:0:0:
329,192,45496,1,0,0:0:0:0:
256,192,45496,1,0,0:0:0:0:
402,192,45496,1,0,0:0:0:0:
182,192,45496,1,0,0:0:0:0:
36,192,45683,1,0,0:0:0:0:
109,192,45683,1,0,0:0:0:0:
475,192,45683,1,0,0:0:0:0:
182,192,45683,1,0,0:0:0:0:
256,192,45730,1,0,0:0:0:0:
329,192,45777,1,0,0:0:0:0:
402,192,45824,1,0,0:0:0:0:
475,192,45871,1,0,0:0:0:0:
256,192,46058,1,0,0:0:0:0:
109,192,46058,1,0,0:0:0:0:
475,192,46246,1,0,0:0:0:0:
402,192,46246,1,0,0:0:0:0:
329,192,46246,1,0,0:0:0:0:
182,192,46246,1,0,0:0:0:0:
109,192,46433,1,0,0:0:0:0:
36,192,46433,1,0,0:0:0:0:
475,192,46433,1,0,0:0:0:0:
256,192,46433,1,0,0:0:0:0:
402,192,46527,1,0,0:0:0:0:
109,192,46621,1,0,0:0:0:0:
402,192,46714,1,0,0:0:0:0:
329,192,46808,1,0,0:0:0:0:
36,192,46808,1,0,0:0:0:0:
256,192,46808,1,0,0:0:0:0:
109,192,46808,1,0,0:0:0:0:
402,192,46996,1,0,0:0:0:0:
475,192,46996,1,0,0:0:0:0:
182,192,46996,1,0,0:0:0:0:
329,192,46996,1,0,0:0:0:0:
475,192,47183,1,0,0:0:0:0:
402,192,47183,1,0,0:0:0:0:
36,192,47183,1,0,0:0:0:0:
109,192,47183,1,0,0:0:0:0:
329,192,47230,1,0,0:0:0:0:
256,192,47277,1,0,0:0:0:0:
182,192,47324,1,0,0:0:0:0:
109,192,47371,1,0,0:0:0:0:
182,192,47558,1,0,0:0:0:0:
329,192,47558,1,0,0:0:0:0:
402,192,47746,1,0,0:0:0:0:
109,192,47746,1,0,0:0:0:0:
256,192,47746,1,0,0:0:0:0:
36,192,47746,1,0,0:0:0:0:
182,192,47933,1,0,0:0:0:0:
36,192,47933,1,0,0:0:0:0:
402,192,47933,1,0,0:0:0:0:
475,192,47933,1,0,0:0:0:0:
329,192,48027,1,0,0:0:0:0:
182,192,48121,1,0,0:0:0:0:
329,192,48214,1,0,0:0:0:0:
109,192,48308,1,0,0:0:0:0:
402,192,48308,1,0,0:0:0:0:
36,192,48308,1,0,0:0:0:0:
256,192,48308,1,0,0:0:0:0:
109,192,48496,1,0,0:0:0:0:
475,192,48496,1,0,0:0:0:0:
182,192,48496,1,0,0:0:0:0:
329,192,48496,1,0,0:0:0:0:
475,192,48683,1,0,0:0:0:0:
182,192,48683,1,0,0:0:0:0:
402,192,48683,1,0,0:0:0:0:
36,192,48683,1,0,0:0:0:0:
256,192,48683,1,0,0:0:0:0:
109,192,48871,1,0,0:0:0:0:
36,192,49058,1,0,0:0:0:0:
182,192,49058,1,0,0:0:0:0:
36,192,49246,1,0,0:0:0:0:
256,192,49246,1,0,0:0:0:0:
329,192,49433,1,0,0:0:0:0:
36,192,49433,1,0,0:0:0:0:
36,192,49621,1,0,0:0:0:0:
182,192,49808,1,0,0:0:0:0:
329,192,49808,1,0,0:0:0:0:
182,192,49996,1,0,0:0:0:0:
402,192,49996,1,0,0:0:0:0:
475,192,50183,1,0,0:0:0:0:
182,192,50183,1,0,0:0:0:0:
182,192,50371,1,0,0:0:0:0:
36,192,50558,1,0,0:0:0:0:
329,192,50558,1,0,0:0:0:0:
329,192,50746,1,0,0:0:0:0:
109,192,50746,1,0,0:0:0:0:
182,192,50933,1,0,0:0:0:0:
329,192,50933,1,0,0:0:0:0:
329,192,51121,1,0,0:0:0:0:
182,192,51285,1,0,0:0:0:0:
109,192,51308,1,0,0:0:0:0:
475,192,51308,1,0,0:0:0:0:
36,192,51331,1,0,0:0:0:0:
475,192,51496,1,0,0:0:0:0:
475,192,51683,1,0,0:0:0:0:
36,192,51871,1,0,0:0:0:0:
475,192,51871,1,0,0:0:0:0:
182,192,51871,1,0,0:0:0:0:
329,192,51871,1,0,0:0:0:0:
36,192,52246,1,0,0:0:0:0:
182,192,52371,1,0,0:0:0:0:
36,192,52496,1,0,0:0:0:0:
329,192,52621,1,0,0:0:0:0:
402,192,52644,1,0,0:0:0:0:
475,192,52667,1,0,0:0:0:0:
36,192,52996,1,0,0:0:0:0:
182,192,53121,1,0,0:0:0:0:
36,192,53246,1,0,0:0:0:0:
256,192,53371,1,0,0:0:0:0:
329,192,53394,1,0,0:0:0:0:
402,192,53417,1,0,0:0:0:0:
36,192,53746,1,0,0:0:0:0:
182,192,53871,1,0,0:0:0:0:
36,192,53996,1,0,0:0:0:0:
182,192,54121,1,0,0:0:0:0:
256,192,54144,1,0,0:0:0:0:
329,192,54167,1,0,0:0:0:0:
36,192,54246,1,0,0:0:0:0:
182,192,54371,1,0,0:0:0:0:
329,192,54496,1,0,0:0:0:0:
182,192,54558,1,0,0:0:0:0:
329,192,54621,1,0,0:0:0:0:
109,192,54683,1,0,0:0:0:0:
402,192,54746,1,0,0:0:0:0:
109,192,54808,1,0,0:0:0:0:
475,192,54871,1,0,0:0:0:0:
256,192,54871,1,0,0:0:0:0:
329,192,54871,1,0,0:0:0:0:
36,192,54871,1,0,0:0:0:0:
475,192,55246,1,0,0:0:0:0:
329,192,55371,1,0,0:0:0:0:
475,192,55496,1,0,0:0:0:0:
182,192,55621,1,0,0:0:0:0:
109,192,55644,1,0,0:0:0:0:
36,192,55667,1,0,0:0:0:0:
475,192,55996,1,0,0:0:0:0:
329,192,56121,1,0,0:0:0:0:
475,192,56246,1,0,0:0:0:0:
256,192,56371,1,0,0:0:0:0:
402,192,56371,1,0,0:0:0:0:
329,192,56371,1,0,0:0:0:0:
182,192,56394,1,0,0:0:0:0:
109,192,56417,1,0,0:0:0:0:
475,192,56746,1,0,0:0:0:0:
329,192,56871,1,0,0:0:0:0:
475,192,56996,1,0,0:0:0:0:
329,192,57121,1,0,0:0:0:0:
256,192,57144,1,0,0:0:0:0:
182,192,57167,1,0,0:0:0:0:
475,192,57246,1,0,0:0:0:0:
329,192,57371,1,0,0:0:0:0:
182,192,57496,1,0,0:0:0:0:
329,192,57558,1,0,0:0:0:0:
182,192,57621,1,0,0:0:0:0:
402,192,57683,1,0,0:0:0:0:
109,192,57746,1,0,0:0:0:0:
402,192,57808,1,0,0:0:0:0:
36,192,57871,1,0,0:0:0:0:
182,192,57871,1,0,0:0:0:0:
475,192,57871,1,0,0:0:0:0:
256,192,57894,1,0,0:0:0:0:
329,192,57917,1,0,0:0:0:0:
402,192,58246,1,0,0:0:0:0:
256,192,58371,1,0,0:0:0:0:
402,192,58496,1,0,0:0:0:0:
36,192,58621,1,0,0:0:0:0:
109,192,58644,1,0,0:0:0:0:
182,192,58667,1,0,0:0:0:0:
402,192,58996,1,0,0:0:0:0:
256,192,59121,1,0,0:0:0:0:
402,192,59246,1,0,0:0:0:0:
109,192,59371,1,0,0:0:0:0:
475,192,59371,1,0,0:0:0:0:
36,192,59371,1,0,0:0:0:0:
182,192,59394,1,0,0:0:0:0:
256,192,59417,1,0,0:0:0:0:
109,192,59746,1,0,0:0:0:0:
256,192,59871,1,0,0:0:0:0:
109,192,59996,1,0,0:0:0:0:
329,192,60121,1,0,0:0:0:0:
402,192,60144,1,0,0:0:0:0:
475,192,60167,1,0,0:0:0:0:
109,192,60246,1,0,0:0:0:0:
256,192,60371,1,0,0:0:0:0:
36,192,60496,1,0,0:0:0:0:
329,192,60558,1,0,0:0:0:0:
36,192,60621,1,0,0:0:0:0:
475,192,60683,1,0,0:0:0:0:
182,192,60746,1,0,0:0:0:0:
475,192,60808,1,0,0:0:0:0:
256,192,60871,1,0,0:0:0:0:
36,192,60871,1,0,0:0:0:0:
109,192,60871,1,0,0:0:0:0:
329,192,60894,1,0,0:0:0:0:
402,192,60917,1,0,0:0:0:0:
36,192,61246,1,0,0:0:0:0:
182,192,61371,1,0,0:0:0:0:
36,192,61496,1,0,0:0:0:0:
182,192,61621,1,0,0:0:0:0:
475,192,61996,1,0,0:0:0:0:
329,192,62121,1,0,0:0:0:0:
475,192,62246,1,0,0:0:0:0:
182,192,62371,1,0,0:0:0:0:
256,192,62371,1,0,0:0:0:0:
402,192,62371,1,0,0:0:0:0:
36,192,62371,1,0,0:0:0:0:
109,192,62371,1,0,0:0:0:0:
182,192,62746,1,0,0:0:0:0:
36,192,62871,1,0,0:0:0:0:
182,192,62996,1,0,0:0:0:0:
475,192,63121,1,0,0:0:0:0:
256,192,63121,1,0,0:0:0:0:
402,192,63121,1,0,0:0:0:0:
36,192,63121,1,0,0:0:0:0:
109,192,63121,1,0,0:0:0:0:
329,192,63246,1,0,0:0:0:0:
475,192,63371,1,0,0:0:0:0:
182,192,63496,1,0,0:0:0:0:
329,192,63558,1,0,0:0:0:0:
182,192,63621,1,0,0:0:0:0:
402,192,63683,1,0,0:0:0:0:
109,192,63746,1,0,0:0:0:0:
402,192,63808,1,0,0:0:0:0:
36,192,63871,1,0,0:0:0:0:
475,192,63871,1,0,0:0:0:0:
256,192,63871,1,0,0:0:0:0:
182,192,63871,1,0,0:0:0:0:
329,192,63996,1,0,0:0:0:0:
402,192,64121,1,0,0:0:0:0:
36,192,64121,1,0,0:0:0:0:
109,192,64121,1,0,0:0:0:0:
475,192,64121,1,0,0:0:0:0:
402,192,64246,1,0,0:0:0:0:
182,192,64246,1,0,0:0:0:0:
36,192,64371,1,0,0:0:0:0:
109,192,64371,1,0,0:0:0:0:
329,192,64371,1,0,0:0:0:0:
256,192,64371,1,0,0:0:0:0:
402,192,64496,1,0,0:0:0:0:
109,192,64496,1,0,0:0:0:0:
329,192,64621,1,0,0:0:0:0:
182,192,64621,1,0,0:0:0:0:
475,192,64621,1,0,0:0:0:0:
256,192,64621,1,0,0:0:0:0:
109,192,64746,1,0,0:0:0:0:
36,192,64871,1,0,0:0:0:0:
402,192,64871,1,0,0:0:0:0:
329,192,64871,1,0,0:0:0:0:
256,192,64871,1,0,0:0:0:0:
182,192,64996,1,0,0:0:0:0:
256,192,64996,1,0,0:0:0:0:
475,192,65121,1,0,0:0:0:0:
36,192,65121,1,0,0:0:0:0:
109,192,65121,1,0,0:0:0:0:
329,192,65121,1,0,0:0:0:0:
475,192,65246,1,0,0:0:0:0:
182,192,65246,1,0,0:0:0:0:
402,192,65371,1,0,0:0:0:0:
109,192,65371,1,0,0:0:0:0:
256,192,65371,1,0,0:0:0:0:
36,192,65371,1,0,0:0:0:0:
329,192,65496,1,0,0:0:0:0:
36,192,65621,1,0,0:0:0:0:
402,192,65621,1,0,0:0:0:0:
182,192,65621,1,0,0:0:0:0:
475,192,65621,1,0,0:0:0:0:
256,192,65746,1,0,0:0:0:0:
182,192,65746,1,0,0:0:0:0:
475,192,65871,1,0,0:0:0:0:
109,192,65871,1,0,0:0:0:0:
329,192,65871,1,0,0:0:0:0:
36,192,65871,1,0,0:0:0:0:
182,192,65996,1,0,0:0:0:0:
329,192,65996,1,0,0:0:0:0:
36,192,66121,1,0,0:0:0:0:
256,192,66121,1,0,0:0:0:0:
475,192,66121,1,0,0:0:0:0:
402,192,66121,1,0,0:0:0:0:
182,192,66246,1,0,0:0:0:0:
475,192,66371,1,0,0:0:0:0:
109,192,66371,1,0,0:0:0:0:
256,192,66371,1,0,0:0:0:0:
329,192,66371,1,0,0:0:0:0:
402,192,66496,1,0,0:0:0:0:
256,192,66496,1,0,0:0:0:0:
36,192,66621,1,0,0:0:0:0:
329,192,66621,1,0,0:0:0:0:
182,192,66621,1,0,0:0:0:0:
109,192,66621,1,0,0:0:0:0:
256,192,66746,1,0,0:0:0:0:
36,192,66746,1,0,0:0:0:0:
109,192,66871,1,0,0:0:0:0:
475,192,66871,1,0,0:0:0:0:
329,192,66871,1,0,0:0:0:0:
402,192,66871,1,0,0:0:0:0:
182,192,66996,1,0,0:0:0:0:
475,192,67121,1,0,0:0:0:0:
402,192,67121,1,0,0:0:0:0:
36,192,67121,1,0,0:0:0:0:
256,192,67121,1,0,0:0:0:0:
182,192,67246,1,0,0:0:0:0:
402,192,67246,1,0,0:0:0:0:
475,192,67371,1,0,0:0:0:0:
36,192,67371,1,0,0:0:0:0:
329,192,67371,1,0,0:0:0:0:
109,192,67371,1,0,0:0:0:0:
109,192,67496,1,0,0:0:0:0:
256,192,67496,1,0,0:0:0:0:
402,192,67621,1,0,0:0:0:0:
36,192,67621,1,0,0:0:0:0:
182,192,67621,1,0,0:0:0:0:
475,192,67621,1,0,0:0:0:0:
329,192,67746,1,0,0:0:0:0:
109,192,67871,1,0,0:0:0:0:
36,192,67871,1,0,0:0:0:0:
256,192,67871,1,0,0:0:0:0:
475,192,67871,1,0,0:0:0:0:
36,192,67996,1,0,0:0:0:0:
402,192,67996,1,0,0:0:0:0:
329,192,68121,1,0,0:0:0:0:
109,192,68121,1,0,0:0:0:0:
475,192,68121,1,0,0:0:0:0:
182,192,68121,1,0,0:0:0:0:
475,192,68246,1,0,0:0:0:0:
256,192,68246,1,0,0:0:0:0:
36,192,68371,1,0,0:0:0:0:
329,192,68371,1,0,0:0:0:0:
182,192,68371,1,0,0:0:0:0:
109,192,68371,1,0,0:0:0:0:
402,192,68371,1,0,0:0:0:0:
475,192,68464,1,0,0:0:0:0:
402,192,68558,1,0,0:0:0:0:
329,192,68652,1,0,0:0:0:0:
256,192,68746,1,0,0:0:0:0:
182,192,68839,1,0,0:0:0:0:
109,192,68933,1,0,0:0:0:0:
36,192,69027,1,0,0:0:0:0:
256,192,69121,1,0,0:0:0:0:
182,192,69308,1,0,0:0:0:0:
329,192,69308,1,0,0:0:0:0:
36,192,69496,1,0,0:0:0:0:
109,192,69519,1,0,0:0:0:0:
182,192,69542,1,0,0:0:0:0:
256,192,69566,1,0,0:0:0:0:
475,192,69683,1,0,0:0:0:0:
402,192,69706,1,0,0:0:0:0:
329,192,69730,1,0,0:0:0:0:
256,192,69753,1,0,0:0:0:0:
475,192,69871,1,0,0:0:0:0:
36,192,69871,1,0,0:0:0:0:
109,192,69871,1,0,0:0:0:0:
402,192,69871,1,0,0:0:0:0:
182,192,69871,1,0,0:0:0:0:
256,192,70058,1,0,0:0:0:0:
402,192,70058,1,0,0:0:0:0:
109,192,70058,1,0,0:0:0:0:
36,192,70246,1,0,0:0:0:0:
475,192,70246,1,0,0:0:0:0:
329,192,70246,1,0,0:0:0:0:
256,192,70246,1,0,0:0:0:0:
182,192,70433,1,0,0:0:0:0:
109,192,70433,1,0,0:0:0:0:
329,192,70433,1,0,0:0:0:0:
475,192,70621,1,0,0:0:0:0:
256,192,70621,1,0,0:0:0:0:
36,192,70621,1,0,0:0:0:0:
182,192,70621,1,0,0:0:0:0:
109,192,70808,1,0,0:0:0:0:
329,192,70808,1,0,0:0:0:0:
402,192,70902,1,0,0:0:0:0:
475,192,70902,1,0,0:0:0:0:
182,192,70902,1,0,0:0:0:0:
36,192,70996,1,0,0:0:0:0:
109,192,70996,1,0,0:0:0:0:
256,192,70996,1,0,0:0:0:0:
329,192,71183,1,0,0:0:0:0:
109,192,71183,1,0,0:0:0:0:
475,192,71183,1,0,0:0:0:0:
182,192,71183,1,0,0:0:0:0:
402,192,71277,1,0,0:0:0:0:
256,192,71277,1,0,0:0:0:0:
182,192,71371,1,0,0:0:0:0:
36,192,71371,1,0,0:0:0:0:
329,192,71371,1,0,0:0:0:0:
402,192,71558,1,0,0:0:0:0:
475,192,71558,1,0,0:0:0:0:
256,192,71558,1,0,0:0:0:0:
109,192,71558,1,0,0:0:0:0:
402,192,71746,1,0,0:0:0:0:
36,192,71746,1,0,0:0:0:0:
475,192,71746,1,0,0:0:0:0:
256,192,71746,1,0,0:0:0:0:
109,192,71933,1,0,0:0:0:0:
329,192,71933,1,0,0:0:0:0:
182,192,71933,1,0,0:0:0:0:
36,192,72121,1,0,0:0:0:0:
475,192,72121,1,0,0:0:0:0:
109,192,72121,1,0,0:0:0:0:
256,192,72121,1,0,0:0:0:0:
329,192,72308,1,0,0:0:0:0:
182,192,72308,1,0,0:0:0:0:
402,192,72402,1,0,0:0:0:0:
475,192,72402,1,0,0:0:0:0:
256,192,72402,1,0,0:0:0:0:
109,192,72496,1,0,0:0:0:0:
36,192,72496,1,0,0:0:0:0:
329,192,72496,1,0,0:0:0:0:
182,192,72589,1,0,0:0:0:0:
475,192,72589,1,0,0:0:0:0:
402,192,72683,1,0,0:0:0:0:
36,192,72683,1,0,0:0:0:0:
256,192,72683,1,0,0:0:0:0:
329,192,72777,1,0,0:0:0:0:
182,192,72777,1,0,0:0:0:0:
36,192,72871,1,0,0:0:0:0:
109,192,72871,1,0,0:0:0:0:
475,192,72871,1,0,0:0:0:0:
256,192,72871,1,0,0:0:0:0:
402,192,72871,1,0,0:0:0:0:
475,192,73058,1,0,0:0:0:0:
182,192,73058,1,0,0:0:0:0:
329,192,73058,1,0,0:0:0:0:
402,192,73246,1,0,0:0:0:0:
36,192,73246,1,0,0:0:0:0:
182,192,73246,1,0,0:0:0:0:
256,192,73246,1,0,0:0:0:0:
329,192,73433,1,0,0:0:0:0:
109,192,73433,1,0,0:0:0:0:
475,192,73433,1,0,0:0:0:0:
402,192,73621,1,0,0:0:0:0:
109,192,73621,1,0,0:0:0:0:
36,192,73621,1,0,0:0:0:0:
256,192,73621,1,0,0:0:0:0:
329,192,73808,1,0,0:0:0:0:
182,192,73808,1,0,0:0:0:0:
109,192,73902,1,0,0:0:0:0:
475,192,73902,1,0,0:0:0:0:
402,192,73902,1,0,0:0:0:0:
36,192,73996,1,0,0:0:0:0:
256,192,73996,1,0,0:0:0:0:
329,192,73996,1,0,0:0:0:0:
182,192,74183,1,0,0:0:0:0:
329,192,74183,1,0,0:0:0:0:
475,192,74183,1,0,0:0:0:0:
402,192,74183,1,0,0:0:0:0:
109,192,74277,1,0,0:0:0:0:
256,192,74277,1,0,0:0:0:0:
36,192,74371,1,0,0:0:0:0:
402,192,74371,1,0,0:0:0:0:
182,192,74371,1,0,0:0:0:0:
475,192,74371,1,0,0:0:0:0:
256,192,74558,1,0,0:0:0:0:
475,192,74558,1,0,0:0:0:0:
109,192,74558,1,0,0:0:0:0:
329,192,74558,1,0,0:0:0:0:
36,192,74746,1,0,0:0:0:0:
475,192,74746,1,0,0:0:0:0:
329,192,74746,1,0,0:0:0:0:
256,192,74746,1,0,0:0:0:0:
182,192,74933,1,0,0:0:0:0:
109,192,74933,1,0,0:0:0:0:
402,192,74933,1,0,0:0:0:0:
36,192,75121,1,0,0:0:0:0:
475,192,75121,1,0,0:0:0:0:
256,192,75121,1,0,0:0:0:0:
109,192,75121,1,0,0:0:0:0:
402,192,75308,1,0,0:0:0:0:
182,192,75308,1,0,0:0:0:0:
475,192,75402,1,0,0:0:0:0:
109,192,75402,1,0,0:0:0:0:
329,192,75402,1,0,0:0:0:0:
36,192,75496,1,0,0:0:0:0:
256,192,75496,1,0,0:0:0:0:
402,192,75496,1,0,0:0:0:0:
182,192,75589,1,0,0:0:0:0:
329,192,75589,1,0,0:0:0:0:
109,192,75683,1,0,0:0:0:0:
36,192,75683,1,0,0:0:0:0:
475,192,75683,1,0,0:0:0:0:
256,192,75777,1,0,0:0:0:0:
402,192,75777,1,0,0:0:0:0:
182,192,75871,1,0,0:0:0:0:
36,192,75871,1,0,0:0:0:0:
475,192,75871,1,0,0:0:0:0:
329,192,75871,1,0,0:0:0:0:
109,192,75871,1,0,0:0:0:0:
475,192,76058,1,0,0:0:0:0:
402,192,76058,1,0,0:0:0:0:
109,192,76058,1,0,0:0:0:0:
256,192,76058,1,0,0:0:0:0:
182,192,76246,1,0,0:0:0:0:
256,192,76246,1,0,0:0:0:0:
329,192,76246,1,0,0:0:0:0:
36,192,76246,1,0,0:0:0:0:
329,192,76433,1,0,0:0:0:0:
402,192,76433,1,0,0:0:0:0:
109,192,76433,1,0,0:0:0:0:
256,192,76433,1,0,0:0:0:0:
402,192,76621,1,0,0:0:0:0:
329,192,76621,1,0,0:0:0:0:
475,192,76621,1,0,0:0:0:0:
182,192,76621,1,0,0:0:0:0:
36,192,76808,1,0,0:0:0:0:
402,192,76808,1,0,0:0:0:0:
256,192,76808,1,0,0:0:0:0:
109,192,76808,1,0,0:0:0:0:
329,192,76996,1,0,0:0:0:0:
109,192,76996,1,0,0:0:0:0:
475,192,76996,1,0,0:0:0:0:
182,192,76996,1,0,0:0:0:0:
256,192,77183,1,0,0:0:0:0:
329,192,77183,1,0,0:0:0:0:
36,192,77183,1,0,0:0:0:0:
109,192,77183,1,0,0:0:0:0:
402,192,77277,1,0,0:0:0:0:
182,192,77277,1,0,0:0:0:0:
36,192,77371,1,0,0:0:0:0:
256,192,77371,1,0,0:0:0:0:
475,192,77371,1,0,0:0:0:0:
329,192,77371,1,0,0:0:0:0:
402,192,77558,1,0,0:0:0:0:
182,192,77558,1,0,0:0:0:0:
475,192,77558,1,0,0:0:0:0:
256,192,77558,1,0,0:0:0:0:
329,192,77746,1,0,0:0:0:0:
402,192,77746,1,0,0:0:0:0:
182,192,77746,1,0,0:0:0:0:
109,192,77746,1,0,0:0:0:0:
329,192,77933,1,0,0:0:0:0:
109,192,77933,1,0,0:0:0:0:
256,192,77933,1,0,0:0:0:0:
36,192,77933,1,0,0:0:0:0:
402,192,78121,1,0,0:0:0:0:
36,192,78121,1,0,0:0:0:0:
182,192,78121,1,0,0:0:0:0:
475,192,78121,1,0,0:0:0:0:
182,192,78308,1,0,0:0:0:0:
109,192,78308,1,0,0:0:0:0:
402,192,78308,1,0,0:0:0:0:
329,192,78308,1,0,0:0:0:0:
109,192,78496,1,0,0:0:0:0:
475,192,78496,1,0,0:0:0:0:
256,192,78496,1,0,0:0:0:0:
329,192,78496,1,0,0:0:0:0:
36,192,78683,1,0,0:0:0:0:
182,192,78683,1,0,0:0:0:0:
329,192,78683,1,0,0:0:0:0:
256,192,78777,1,0,0:0:0:0:
402,192,78777,1,0,0:0:0:0:
109,192,78871,1,0,0:0:0:0:
36,192,78871,1,0,0:0:0:0:
475,192,78871,1,0,0:0:0:0:
182,192,78964,1,0,0:0:0:0:
329,192,78964,1,0,0:0:0:0:
256,192,79058,1,0,0:0:0:0:
402,192,79058,1,0,0:0:0:0:
36,192,79058,1,0,0:0:0:0:
475,192,79152,1,0,0:0:0:0:
109,192,79152,1,0,0:0:0:0:
256,192,79246,1,0,0:0:0:0:
329,192,79246,1,0,0:0:0:0:
182,192,79246,1,0,0:0:0:0:
475,192,79339,1,0,0:0:0:0:
109,192,79339,1,0,0:0:0:0:
36,192,79433,1,0,0:0:0:0:
256,192,79433,1,0,0:0:0:0:
402,192,79433,1,0,0:0:0:0:
182,192,79527,1,0,0:0:0:0:
329,192,79527,1,0,0:0:0:0:
475,192,79621,1,0,0:0:0:0:
109,192,79621,1,0,0:0:0:0:
36,192,79621,1,0,0:0:0:0:
402,192,79714,1,0,0:0:0:0:
256,192,79714,1,0,0:0:0:0:
36,192,79808,1,0,0:0:0:0:
329,192,79808,1,0,0:0:0:0:
109,192,79855,1,0,0:0:0:0:
182,192,79902,1,0,0:0:0:0:
475,192,79902,1,0,0:0:0:0:
402,192,79949,1,0,0:0:0:0:
329,192,79996,1,0,0:0:0:0:
256,192,79996,1,0,0:0:0:0:
36,192,79996,1,0,0:0:0:0:
475,192,80089,1,0,0:0:0:0:
182,192,80089,1,0,0:0:0:0:
256,192,80183,1,0,0:0:0:0:
36,192,80183,1,0,0:0:0:0:
329,192,80230,1,0,0:0:0:0:
402,192,80277,1,0,0:0:0:0:
109,192,80277,1,0,0:0:0:0:
475,192,80324,1,0,0:0:0:0:
329,192,80558,1,0,0:0:0:0:
256,192,80581,1,0,0:0:0:0:
182,192,80605,1,0,0:0:0:0:
109,192,80746,1,0,0:0:0:0:
402,192,80746,1,0,0:0:0:0:
475,192,80839,1,0,0:0:0:0:
182,192,80933,1,0,0:0:0:0:
329,192,80933,1,0,0:0:0:0:
36,192,81027,1,0,0:0:0:0:
109,192,81121,1,0,0:0:0:0:
402,192,81121,1,0,0:0:0:0:
329,192,81214,1,0,0:0:0:0:
256,192,81308,1,0,0:0:0:0:
182,192,81402,1,0,0:0:0:0:
475,192,81496,1,0,0:0:0:0:
36,192,81496,1,0,0:0:0:0:
109,192,81496,1,0,0:0:0:0:
329,192,81496,1,0,0:0:0:0:
256,192,81683,1,0,0:0:0:0:
109,192,81871,1,0,0:0:0:0:
402,192,81871,1,0,0:0:0:0:
182,192,81871,1,0,0:0:0:0:
329,192,81871,1,0,0:0:0:0:
256,192,81871,1,0,0:0:0:0:
182,192,82246,1,0,0:0:0:0:
329,192,82339,1,0,0:0:0:0:
182,192,82433,1,0,0:0:0:0:
329,192,82527,1,0,0:0:0:0:
109,192,82621,1,0,0:0:0:0:
182,192,82621,1,0,0:0:0:0:
402,192,82714,1,0,0:0:0:0:
329,192,82714,1,0,0:0:0:0:
109,192,82808,1,0,0:0:0:0:
182,192,82808,1,0,0:0:0:0:
402,192,82902,1,0,0:0:0:0:
329,192,82902,1,0,0:0:0:0:
109,192,82996,1,0,0:0:0:0:
182,192,82996,1,0,0:0:0:0:
402,192,83089,1,0,0:0:0:0:
329,192,83089,1,0,0:0:0:0:
109,192,83183,1,0,0:0:0:0:
182,192,83183,1,0,0:0:0:0:
402,192,83277,1,0,0:0:0:0:
329,192,83277,1,0,0:0:0:0:
36,192,83371,1,0,0:0:0:0:
475,192,83371,1,0,0:0:0:0:
256,192,83371,1,0,0:0:0:0:
182,192,83371,1,0,0:0:0:0:
109,192,83464,1,0,0:0:0:0:
182,192,83558,1,0,0:0:0:0:
329,192,83558,1,0,0:0:0:0:
256,192,83652,1,0,0:0:0:0:
475,192,83652,1,0,0:0:0:0:
329,192,83746,1,0,0:0:0:0:
36,192,83746,1,0,0:0:0:0:
109,192,83746,1,0,0:0:0:0:
402,192,83746,1,0,0:0:0:0:
182,192,83839,1,0,0:0:0:0:
475,192,83933,1,0,0:0:0:0:
402,192,83933,1,0,0:0:0:0:
109,192,84027,1,0,0:0:0:0:
256,192,84027,1,0,0:0:0:0:
329,192,84121,1,0,0:0:0:0:
36,192,84121,1,0,0:0:0:0:
475,192,84121,1,0,0:0:0:0:
182,192,84214,1,0,0:0:0:0:
109,192,84308,1,0,0:0:0:0:
329,192,84308,1,0,0:0:0:0:
475,192,84402,1,0,0:0:0:0:
256,192,84402,1,0,0:0:0:0:
36,192,84496,1,0,0:0:0:0:
402,192,84496,1,0,0:0:0:0:
182,192,84496,1,0,0:0:0:0:
109,192,84496,1,0,0:0:0:0:
256,192,84589,1,0,0:0:0:0:
109,192,84683,1,0,0:0:0:0:
402,192,84683,1,0,0:0:0:0:
329,192,84777,1,0,0:0:0:0:
182,192,84777,1,0,0:0:0:0:
36,192,84871,1,0,0:0:0:0:
256,192,84871,1,0,0:0:0:0:
475,192,84871,1,0,0:0:0:0:
109,192,84964,1,0,0:0:0:0:
402,192,85058,1,0,0:0:0:0:
182,192,85058,1,0,0:0:0:0:
475,192,85152,1,0,0:0:0:0:
256,192,85152,1,0,0:0:0:0:
329,192,85246,1,0,0:0:0:0:
109,192,85246,1,0,0:0:0:0:
182,192,85246,1,0,0:0:0:0:
36,192,85246,1,0,0:0:0:0:
256,192,85339,1,0,0:0:0:0:
475,192,85433,1,0,0:0:0:0:
329,192,85433,1,0,0:0:0:0:
182,192,85527,1,0,0:0:0:0:
36,192,85527,1,0,0:0:0:0:
256,192,85621,1,0,0:0:0:0:
475,192,85621,1,0,0:0:0:0:
402,192,85621,1,0,0:0:0:0:
109,192,85714,1,0,0:0:0:0:
329,192,85808,1,0,0:0:0:0:
36,192,85808,1,0,0:0:0:0:
182,192,85902,1,0,0:0:0:0:
402,192,85902,1,0,0:0:0:0:
329,192,85996,1,0,0:0:0:0:
109,192,85996,1,0,0:0:0:0:
475,192,85996,1,0,0:0:0:0:
256,192,85996,1,0,0:0:0:0:
36,192,86089,1,0,0:0:0:0:
402,192,86183,1,0,0:0:0:0:
109,192,86183,1,0,0:0:0:0:
182,192,86277,1,0,0:0:0:0:
329,192,86277,1,0,0:0:0:0:
36,192,86371,1,0,0:0:0:0:
256,192,86371,1,0,0:0:0:0:
475,192,86371,1,0,0:0:0:0:
402,192,86464,1,0,0:0:0:0:
329,192,86558,1,0,0:0:0:0:
109,192,86558,1,0,0:0:0:0:
256,192,86652,1,0,0:0:0:0:
36,192,86652,1,0,0:0:0:0:
329,192,86746,1,0,0:0:0:0:
475,192,86746,1,0,0:0:0:0:
182,192,86746,1,0,0:0:0:0:
402,192,86746,1,0,0:0:0:0:
256,192,86839,1,0,0:0:0:0:
36,192,86933,1,0,0:0:0:0:
182,192,86933,1,0,0:0:0:0:
475,192,87027,1,0,0:0:0:0:
329,192,87027,1,0,0:0:0:0:
109,192,87121,1,0,0:0:0:0:
256,192,87121,1,0,0:0:0:0:
36,192,87121,1,0,0:0:0:0:
402,192,87214,1,0,0:0:0:0:
475,192,87308,1,0,0:0:0:0:
182,192,87308,1,0,0:0:0:0:
109,192,87402,1,0,0:0:0:0:
329,192,87402,1,0,0:0:0:0:
36,192,87496,1,0,0:0:0:0:
402,192,87496,1,0,0:0:0:0:
182,192,87496,1,0,0:0:0:0:
256,192,87496,1,0,0:0:0:0:
475,192,87589,1,0,0:0:0:0:
36,192,87683,1,0,0:0:0:0:
109,192,87683,1,0,0:0:0:0:
402,192,87683,1,0,0:0:0:0:
329,192,87777,1,0,0:0:0:0:
182,192,87777,1,0,0:0:0:0:
256,192,87871,1,0,0:0:0:0:
475,192,87871,1,0,0:0:0:0:
36,192,87871,1,0,0:0:0:0:
402,192,87964,1,0,0:0:0:0:
109,192,88058,1,0,0:0:0:0:
329,192,88058,1,0,0:0:0:0:
256,192,88152,1,0,0:0:0:0:
402,192,88152,1,0,0:0:0:0:
329,192,88246,1,0,0:0:0:0:
36,192,88246,1,0,0:0:0:0:
475,192,88246,1,0,0:0:0:0:
182,192,88246,1,0,0:0:0:0:
256,192,88339,1,0,0:0:0:0:
182,192,88433,1,0,0:0:0:0:
402,192,88433,1,0,0:0:0:0:
109,192,88527,1,0,0:0:0:0:
329,192,88527,1,0,0:0:0:0:
182,192,88621,1,0,0:0:0:0:
402,192,88621,1,0,0:0:0:0:
36,192,88621,1,0,0:0:0:0:
256,192,88714,1,0,0:0:0:0:
109,192,88808,1,0,0:0:0:0:
329,192,88808,1,0,0:0:0:0:
182,192,88902,1,0,0:0:0:0:
402,192,88902,1,0,0:0:0:0:
36,192,88996,1,0,0:0:0:0:
109,192,88996,1,0,0:0:0:0:
475,192,88996,1,0,0:0:0:0:
256,192,88996,1,0,0:0:0:0:
329,192,89089,1,0,0:0:0:0:
256,192,89183,1,0,0:0:0:0:
402,192,89183,1,0,0:0:0:0:
182,192,89277,1,0,0:0:0:0:
329,192,89277,1,0,0:0:0:0:
256,192,89371,1,0,0:0:0:0:
109,192,89371,1,0,0:0:0:0:
475,192,89371,1,0,0:0:0:0:
36,192,89464,1,0,0:0:0:0:
402,192,89558,1,0,0:0:0:0:
182,192,89558,1,0,0:0:0:0:
256,192,89652,1,0,0:0:0:0:
109,192,89652,1,0,0:0:0:0:
182,192,89746,1,0,0:0:0:0:
475,192,89746,1,0,0:0:0:0:
36,192,89746,1,0,0:0:0:0:
329,192,89746,1,0,0:0:0:0:
256,192,89839,1,0,0:0:0:0:
329,192,89933,1,0,0:0:0:0:
109,192,89933,1,0,0:0:0:0:
402,192,90027,1,0,0:0:0:0:
182,192,90027,1,0,0:0:0:0:
329,192,90121,1,0,0:0:0:0:
109,192,90121,1,0,0:0:0:0:
475,192,90121,1,0,0:0:0:0:
256,192,90214,1,0,0:0:0:0:
402,192,90308,1,0,0:0:0:0:
182,192,90308,1,0,0:0:0:0:
329,192,90402,1,0,0:0:0:0:
109,192,90402,1,0,0:0:0:0:
475,192,90496,1,0,0:0:0:0:
402,192,90496,1,0,0:0:0:0:
36,192,90496,1,0,0:0:0:0:
256,192,90496,1,0,0:0:0:0:
182,192,90589,1,0,0:0:0:0:
256,192,90683,1,0,0:0:0:0:
109,192,90683,1,0,0:0:0:0:
329,192,90777,1,0,0:0:0:0:
182,192,90777,1,0,0:0:0:0:
36,192,90871,1,0,0:0:0:0:
402,192,90871,1,0,0:0:0:0:
256,192,90871,1,0,0:0:0:0:
109,192,90964,1,0,0:0:0:0:
182,192,91058,1,0,0:0:0:0:
475,192,91058,1,0,0:0:0:0:
329,192,91152,1,0,0:0:0:0:
36,192,91152,1,0,0:0:0:0:
402,192,91246,1,0,0:0:0:0:
109,192,91246,1,0,0:0:0:0:
475,192,91246,1,0,0:0:0:0:
256,192,91246,1,0,0:0:0:0:
329,192,91339,1,0,0:0:0:0:
182,192,91433,1,0,0:0:0:0:
402,192,91433,1,0,0:0:0:0:
329,192,91527,1,0,0:0:0:0:
109,192,91527,1,0,0:0:0:0:
36,192,91621,1,0,0:0:0:0:
475,192,91621,1,0,0:0:0:0:
256,192,91621,1,0,0:0:0:0:
182,192,91714,1,0,0:0:0:0:
109,192,91808,1,0,0:0:0:0:
329,192,91808,1,0,0:0:0:0:
402,192,91902,1,0,0:0:0:0:
256,192,91902,1,0,0:0:0:0:
329,192,91996,1,0,0:0:0:0:
36,192,91996,1,0,0:0:0:0:
475,192,91996,1,0,0:0:0:0:
182,192,91996,1,0,0:0:0:0:
109,192,92089,1,0,0:0:0:0:
182,192,92183,1,0,0:0:0:0:
402,192,92183,1,0,0:0:0:0:
475,192,92277,1,0,0:0:0:0:
256,192,92277,1,0,0:0:0:0:
109,192,92371,1,0,0:0:0:0:
402,192,92371,1,0,0:0:0:0:
36,192,92371,1,0,0:0:0:0:
329,192,92464,1,0,0:0:0:0:
182,192,92558,1,0,0:0:0:0:
475,192,92558,1,0,0:0:0:0:
109,192,92558,1,0,0:0:0:0:
329,192,92652,1,0,0:0:0:0:
256,192,92652,1,0,0:0:0:0:
402,192,92746,1,0,0:0:0:0:
36,192,92746,1,0,0:0:0:0:
475,192,92746,1,0,0:0:0:0:
182,192,92746,1,0,0:0:0:0:
256,192,92839,1,0,0:0:0:0:
329,192,92933,1,0,0:0:0:0:
109,192,92933,1,0,0:0:0:0:
402,192,93027,1,0,0:0:0:0:
182,192,93027,1,0,0:0:0:0:
475,192,93121,1,0,0:0:0:0:
256,192,93121,1,0,0:0:0:0:
36,192,93121,1,0,0:0:0:0:
109,192,93214,1,0,0:0:0:0:
182,192,93308,1,0,0:0:0:0:
329,192,93308,1,0,0:0:0:0:
402,192,93402,1,0,0:0:0:0:
109,192,93402,1,0,0:0:0:0:
256,192,93402,1,0,0:0:0:0:
475,192,93496,1,0,0:0:0:0:
36,192,93496,1,0,0:0:0:0:
329,192,93496,1,0,0:0:0:0:
182,192,93496,1,0,0:0:0:0:
109,192,93589,1,0,0:0:0:0:
36,192,93683,1,0,0:0:0:0:
402,192,93683,1,0,0:0:0:0:
475,192,93683,1,0,0:0:0:0:
182,192,93777,1,0,0:0:0:0:
329,192,93777,1,0,0:0:0:0:
36,192,93871,1,0,0:0:0:0:
475,192,93871,1,0,0:0:0:0:
256,192,93871,1,0,0:0:0:0:
402,192,93871,1,0,0:0:0:0:
109,192,93964,1,0,0:0:0:0:
182,192,94058,1,0,0:0:0:0:
329,192,94058,1,0,0:0:0:0:
256,192,94152,1,0,0:0:0:0:
475,192,94152,1,0,0:0:0:0:
36,192,94246,1,0,0:0:0:0:
182,192,94246,1,0,0:0:0:0:
109,192,94246,1,0,0:0:0:0:
402,192,94246,1,0,0:0:0:0:
329,192,94339,1,0,0:0:0:0:
256,192,94433,1,0,0:0:0:0:
109,192,94433,1,0,0:0:0:0:
329,192,94527,1,0,0:0:0:0:
182,192,94527,1,0,0:0:0:0:
36,192,94621,1,0,0:0:0:0:
109,192,94621,1,0,0:0:0:0:
402,192,94621,1,0,0:0:0:0:
256,192,94714,1,0,0:0:0:0:
475,192,94808,1,0,0:0:0:0:
182,192,94808,1,0,0:0:0:0:
109,192,94902,1,0,0:0:0:0:
329,192,94902,1,0,0:0:0:0:
475,192,94996,1,0,0:0:0:0:
36,192,94996,1,0,0:0:0:0:
256,192,94996,1,0,0:0:0:0:
402,192,94996,1,0,0:0:0:0:
182,192,95089,1,0,0:0:0:0:
109,192,95183,1,0,0:0:0:0:
329,192,95183,1,0,0:0:0:0:
256,192,95277,1,0,0:0:0:0:
402,192,95277,1,0,0:0:0:0:
475,192,95371,1,0,0:0:0:0:
182,192,95371,1,0,0:0:0:0:
36,192,95371,1,0,0:0:0:0:
256,192,95464,1,0,0:0:0:0:
329,192,95558,1,0,0:0:0:0:
109,192,95558,1,0,0:0:0:0:
402,192,95652,1,0,0:0:0:0:
182,192,95652,1,0,0:0:0:0:
36,192,95746,1,0,0:0:0:0:
109,192,95746,1,0,0:0:0:0:
475,192,95746,1,0,0:0:0:0:
256,192,95746,1,0,0:0:0:0:
329,192,95839,1,0,0:0:0:0:
402,192,95933,1,0,0:0:0:0:
256,192,95933,1,0,0:0:0:0:
329,192,96027,1,0,0:0:0:0:
182,192,96027,1,0,0:0:0:0:
36,192,96121,1,0,0:0:0:0:
256,192,96121,1,0,0:0:0:0:
475,192,96121,1,0,0:0:0:0:
182,192,96214,1,0,0:0:0:0:
329,192,96308,1,0,0:0:0:0:
109,192,96308,1,0,0:0:0:0:
402,192,96402,1,0,0:0:0:0:
36,192,96402,1,0,0:0:0:0:
182,192,96496,1,0,0:0:0:0:
109,192,96496,1,0,0:0:0:0:
256,192,96496,1,0,0:0:0:0:
475,192,96496,1,0,0:0:0:0:
329,192,96589,1,0,0:0:0:0:
402,192,96683,1,0,0:0:0:0:
182,192,96683,1,0,0:0:0:0:
329,192,96777,1,0,0:0:0:0:
109,192,96777,1,0,0:0:0:0:
475,192,96871,1,0,0:0:0:0:
36,192,96871,1,0,0:0:0:0:
256,192,96871,1,0,0:0:0:0:
402,192,96964,1,0,0:0:0:0:
329,192,97058,1,0,0:0:0:0:
182,192,97058,1,0,0:0:0:0:
256,192,97152,1,0,0:0:0:0:
36,192,97152,1,0,0:0:0:0:
475,192,97246,1,0,0:0:0:0:
329,192,97246,1,0,0:0:0:0:
402,192,97246,1,0,0:0:0:0:
109,192,97246,1,0,0:0:0:0:
182,192,97339,1,0,0:0:0:0:
256,192,97433,1,0,0:0:0:0:
402,192,97433,1,0,0:0:0:0:
182,192,97527,1,0,0:0:0:0:
329,192,97527,1,0,0:0:0:0:
475,192,97621,1,0,0:0:0:0:
402,192,97621,1,0,0:0:0:0:
109,192,97621,1,0,0:0:0:0:
256,192,97714,1,0,0:0:0:0:
36,192,97808,1,0,0:0:0:0:
329,192,97808,1,0,0:0:0:0:
402,192,97902,1,0,0:0:0:0:
182,192,97902,1,0,0:0:0:0:
36,192,97996,1,0,0:0:0:0:
475,192,97996,1,0,0:0:0:0:
256,192,97996,1,0,0:0:0:0:
109,192,97996,1,0,0:0:0:0:
329,192,98089,1,0,0:0:0:0:
402,192,98183,1,0,0:0:0:0:
182,192,98183,1,0,0:0:0:0:
256,192,98277,1,0,0:0:0:0:
109,192,98277,1,0,0:0:0:0:
36,192,98371,1,0,0:0:0:0:
329,192,98371,1,0,0:0:0:0:
475,192,98371,1,0,0:0:0:0:
256,192,98464,1,0,0:0:0:0:
182,192,98558,1,0,0:0:0:0:
402,192,98558,1,0,0:0:0:0:
109,192,98652,1,0,0:0:0:0:
329,192,98652,1,0,0:0:0:0:
475,192,98746,1,0,0:0:0:0:
402,192,98746,1,0,0:0:0:0:
36,192,98746,1,0,0:0:0:0:
256,192,98746,1,0,0:0:0:0:
182,192,98839,1,0,0:0:0:0:
109,192,98933,1,0,0:0:0:0:
256,192,98933,1,0,0:0:0:0:
182,192,99027,1,0,0:0:0:0:
329,192,99027,1,0,0:0:0:0:
475,192,99121,1,0,0:0:0:0:
256,192,99121,1,0,0:0:0:0:
36,192,99121,1,0,0:0:0:0:
329,192,99214,1,0,0:0:0:0:
182,192,99308,1,0,0:0:0:0:
402,192,99308,1,0,0:0:0:0:
109,192,99402,1,0,0:0:0:0:
475,192,99402,1,0,0:0:0:0:
329,192,99496,1,0,0:0:0:0:
402,192,99496,1,0,0:0:0:0:
256,192,99496,1,0,0:0:0:0:
36,192,99496,1,0,0:0:0:0:
182,192,99589,1,0,0:0:0:0:
109,192,99683,1,0,0:0:0:0:
329,192,99683,1,0,0:0:0:0:
475,192,99683,1,0,0:0:0:0:
182,192,99777,1,0,0:0:0:0:
402,192,99777,1,0,0:0:0:0:
256,192,99871,1,0,0:0:0:0:
36,192,99871,1,0,0:0:0:0:
109,192,99871,1,0,0:0:0:0:
475,192,99871,1,0,0:0:0:0:
329,192,100058,1,0,0:0:0:0:
182,192,100058,1,0,0:0:0:0:
36,192,100246,1,0,0:0:0:0:
109,192,100292,1,0,0:0:0:0:
182,192,100339,1,0,0:0:0:0:
256,192,100386,1,0,0:0:0:0:
402,192,100433,1,0,0:0:0:0:
329,192,100433,1,0,0:0:0:0:
475,192,100433,1,0,0:0:0:0:
36,192,100527,1,0,0:0:0:0:
109,192,100527,1,0,0:0:0:0:
182,192,100621,1,0,0:0:0:0:
402,192,100621,1,0,0:0:0:0:
475,192,100621,1,0,0:0:0:0:
256,192,100621,1,0,0:0:0:0:
109,192,100808,1,0,0:0:0:0:
329,192,100808,1,0,0:0:0:0:
36,192,100996,1,0,0:0:0:0:
182,192,100996,1,0,0:0:0:0:
256,192,100996,1,0,0:0:0:0:
475,192,100996,1,0,0:0:0:0:
402,192,101089,1,0,0:0:0:0:
36,192,101183,1,0,0:0:0:0:
329,192,101183,1,0,0:0:0:0:
182,192,101183,1,0,0:0:0:0:
475,192,101277,1,0,0:0:0:0:
256,192,101371,1,0,0:0:0:0:
109,192,101371,1,0,0:0:0:0:
329,192,101558,1,0,0:0:0:0:
475,192,101558,1,0,0:0:0:0:
182,192,101558,1,0,0:0:0:0:
36,192,101558,1,0,0:0:0:0:
402,192,101746,1,0,0:0:0:0:
475,192,101746,1,0,0:0:0:0:
256,192,101746,1,0,0:0:0:0:
109,192,101839,1,0,0:0:0:0:
36,192,101839,1,0,0:0:0:0:
402,192,101933,1,0,0:0:0:0:
475,192,101933,1,0,0:0:0:0:
329,192,101980,1,0,0:0:0:0:
109,192,102027,1,0,0:0:0:0:
36,192,102027,1,0,0:0:0:0:
182,192,102074,1,0,0:0:0:0:
256,192,102121,1,0,0:0:0:0:
402,192,102121,1,0,0:0:0:0:
475,192,102121,1,0,0:0:0:0:
182,192,102308,1,0,0:0:0:0:
329,192,102308,1,0,0:0:0:0:
36,192,102308,1,0,0:0:0:0:
475,192,102308,1,0,0:0:0:0:
256,192,102496,1,0,0:0:0:0:
182,192,102542,1,0,0:0:0:0:
109,192,102589,1,0,0:0:0:0:
36,192,102636,1,0,0:0:0:0:
329,192,102683,1,0,0:0:0:0:
475,192,102683,1,0,0:0:0:0:
402,192,102683,1,0,0:0:0:0:
256,192,102683,1,0,0:0:0:0:
182,192,103058,1,0,0:0:0:0:
36,192,103058,1,0,0:0:0:0:
109,192,103058,1,0,0:0:0:0:
329,192,103058,1,0,0:0:0:0:
256,192,103246,1,0,0:0:0:0:
182,192,103246,1,0,0:0:0:0:
109,192,103246,1,0,0:0:0:0:
402,192,103246,1,0,0:0:0:0:
329,192,103433,1,0,0:0:0:0:
256,192,103433,1,0,0:0:0:0:
182,192,103433,1,0,0:0:0:0:
475,192,103433,1,0,0:0:0:0:
256,192,103621,1,0,0:0:0:0:
402,192,103621,1,0,0:0:0:0:
36,192,103621,1,0,0:0:0:0:
109,192,103714,1,0,0:0:0:0:
329,192,103714,1,0,0:0:0:0:
182,192,103808,1,0,0:0:0:0:
402,192,103808,1,0,0:0:0:0:
475,192,103808,1,0,0:0:0:0:
36,192,103902,1,0,0:0:0:0:
329,192,103902,1,0,0:0:0:0:
256,192,103996,1,0,0:0:0:0:
109,192,103996,1,0,0:0:0:0:
475,192,103996,1,0,0:0:0:0:
402,192,104089,1,0,0:0:0:0:
182,192,104089,1,0,0:0:0:0:
256,192,104183,1,0,0:0:0:0:
36,192,104183,1,0,0:0:0:0:
329,192,104183,1,0,0:0:0:0:
402,192,104277,1,0,0:0:0:0:
109,192,104277,1,0,0:0:0:0:
256,192,104371,1,0,0:0:0:0:
329,192,104371,1,0,0:0:0:0:
36,192,104371,1,0,0:0:0:0:
475,192,104371,1,0,0:0:0:0:
182,192,104371,1,0,0:0:0:0:
182,192,104558,1,0,0:0:0:0:
256,192,104581,1,0,0:0:0:0:
329,192,104605,1,0,0:0:0:0:
402,192,104746,1,0,0:0:0:0:
109,192,104746,1,0,0:0:0:0:
329,192,104839,1,0,0:0:0:0:
475,192,104933,1,0,0:0:0:0:
182,192,104933,1,0,0:0:0:0:
256,192,105027,1,0,0:0:0:0:
329,192,105121,1,0,0:0:0:0:
36,192,105121,1,0,0:0:0:0:
182,192,105214,1,0,0:0:0:0:
402,192,105308,1,0,0:0:0:0:
256,192,105308,1,0,0:0:0:0:
109,192,105308,1,0,0:0:0:0:
109,192,105496,1,0,0:0:0:0:
402,192,105496,1,0,0:0:0:0:
475,192,105496,1,0,0:0:0:0:
36,192,105496,1,0,0:0:0:0:
182,192,105871,1,0,0:0:0:0:
402,192,105871,1,0,0:0:0:0:
475,192,105871,1,0,0:0:0:0:
36,192,105871,1,0,0:0:0:0:
256,192,105871,1,0,0:0:0:0:
256,192,106058,1,0,0:0:0:0:
402,192,106058,1,0,0:0:0:0:
256,192,106433,1,0,0:0:0:0:
402,192,106433,1,0,0:0:0:0:
36,192,106433,1,0,0:0:0:0:
475,192,106433,1,0,0:0:0:0:
182,192,106433,1,0,0:0:0:0:
329,192,106808,1,0,0:0:0:0:
182,192,106808,1,0,0:0:0:0:
475,192,106996,1,0,0:0:0:0:
256,192,106996,1,0,0:0:0:0:
182,192,106996,1,0,0:0:0:0:
402,192,106996,1,0,0:0:0:0:
36,192,107058,1,0,0:0:0:0:
109,192,107121,1,0,0:0:0:0:
182,192,107183,1,0,0:0:0:0:
256,192,107246,1,0,0:0:0:0:
329,192,107308,1,0,0:0:0:0:
402,192,107371,1,0,0:0:0:0:
475,192,107433,1,0,0:0:0:0:
36,192,107496,1,0,0:0:0:0:
109,192,107558,1,0,0:0:0:0:
182,192,107621,1,0,0:0:0:0:
256,192,107683,1,0,0:0:0:0:
329,192,107746,1,0,0:0:0:0:
402,192,107808,1,0,0:0:0:0:
475,192,107871,1,0,0:0:0:0:
109,192,107933,1,0,0:0:0:0:
36,192,107933,1,0,0:0:0:0:
256,192,107933,1,0,0:0:0:0:
182,192,108027,1,0,0:0:0:0:
329,192,108027,1,0,0:0:0:0:
402,192,108121,1,0,0:0:0:0:
36,192,108121,1,0,0:0:0:0:
256,192,108121,1,0,0:0:0:0:
475,192,108121,1,0,0:0:0:0:
109,192,108183,1,0,0:0:0:0:
182,192,108246,1,0,0:0:0:0:
329,192,108308,1,0,0:0:0:0:
256,192,108371,1,0,0:0:0:0:
182,192,108433,1,0,0:0:0:0:
475,192,108496,1,0,0:0:0:0:
402,192,108558,1,0,0:0:0:0:
329,192,108621,1,0,0:0:0:0:
182,192,108683,1,0,0:0:0:0:
256,192,108746,1,0,0:0:0:0:
329,192,108808,1,0,0:0:0:0:
402,192,108871,1,0,0:0:0:0:
36,192,108871,1,0,0:0:0:0:
475,192,108871,1,0,0:0:0:0:
109,192,108871,1,0,0:0:0:0:
475,192,109058,1,0,0:0:0:0:
36,192,109058,1,0,0:0:0:0:
182,192,109246,1,0,0:0:0:0:
329,192,109246,1,0,0:0:0:0:
256,192,109433,1,0,0:0:0:0:
182,192,109433,1,0,0:0:0:0:
36,192,109433,1,0,0:0:0:0:
475,192,109433,1,0,0:0:0:0:
329,192,109433,1,0,0:0:0:0:
256,192,109808,1,0,0:0:0:0:
109,192,109808,1,0,0:0:0:0:
329,192,109902,1,0,0:0:0:0:
182,192,109902,1,0,0:0:0:0:
475,192,109996,1,0,0:0:0:0:
256,192,109996,1,0,0:0:0:0:
36,192,109996,1,0,0:0:0:0:
402,192,109996,1,0,0:0:0:0:
109,192,110058,1,0,0:0:0:0:
182,192,110121,1,0,0:0:0:0:
402,192,110183,1,0,0:0:0:0:
329,192,110246,1,0,0:0:0:0:
256,192,110308,1,0,0:0:0:0:
182,192,110371,1,0,0:0:0:0:
109,192,110433,1,0,0:0:0:0:
36,192,110496,1,0,0:0:0:0:
329,192,110558,1,0,0:0:0:0:
402,192,110581,1,0,0:0:0:0:
475,192,110605,1,0,0:0:0:0:
182,192,110746,1,0,0:0:0:0:
329,192,110746,1,0,0:0:0:0:
256,192,110933,1,0,0:0:0:0:
475,192,110933,1,0,0:0:0:0:
402,192,110933,1,0,0:0:0:0:
182,192,111027,1,0,0:0:0:0:
329,192,111027,1,0,0:0:0:0:
475,192,111121,1,0,0:0:0:0:
36,192,111121,1,0,0:0:0:0:
109,192,111121,1,0,0:0:0:0:
256,192,111121,1,0,0:0:0:0:
329,192,111308,1,0,0:0:0:0:
36,192,111308,1,0,0:0:0:0:
182,192,111308,1,0,0:0:0:0:
402,192,111308,1,0,0:0:0:0:
475,192,111402,1,0,0:0:0:0:
256,192,111496,1,0,0:0:0:0:
109,192,111496,1,0,0:0:0:0:
402,192,111589,1,0,0:0:0:0:
36,192,111683,1,0,0:0:0:0:
329,192,111683,1,0,0:0:0:0:
256,192,111683,1,0,0:0:0:0:
182,192,111683,1,0,0:0:0:0:
36,192,111871,1,0,0:0:0:0:
402,192,111871,1,0,0:0:0:0:
475,192,111871,1,0,0:0:0:0:
256,192,111871,1,0,0:0:0:0:
109,192,111871,1,0,0:0:0:0:
256,192,112058,1,0,0:0:0:0:
475,192,112058,1,0,0:0:0:0:
36,192,112433,1,0,0:0:0:0:
402,192,112433,1,0,0:0:0:0:
475,192,112433,1,0,0:0:0:0:
109,192,112433,1,0,0:0:0:0:
329,192,112433,1,0,0:0:0:0:
182,192,112527,1,0,0:0:0:0:
402,192,112621,1,0,0:0:0:0:
256,192,112621,1,0,0:0:0:0:
109,192,112714,1,0,0:0:0:0:
182,192,112808,1,0,0:0:0:0:
329,192,112808,1,0,0:0:0:0:
36,192,112902,1,0,0:0:0:0:
256,192,112996,1,0,0:0:0:0:
109,192,112996,1,0,0:0:0:0:
402,192,113089,1,0,0:0:0:0:
36,192,113183,1,0,0:0:0:0:
475,192,113183,1,0,0:0:0:0:
182,192,113183,1,0,0:0:0:0:
329,192,113183,1,0,0:0:0:0:
256,192,113277,1,0,0:0:0:0:
475,192,113371,1,0,0:0:0:0:
36,192,113371,1,0,0:0:0:0:
402,192,113433,1,0,0:0:0:0:
109,192,113433,1,0,0:0:0:0:
329,192,113496,1,0,0:0:0:0:
182,192,113496,1,0,0:0:0:0:
36,192,113558,1,0,0:0:0:0:
475,192,113558,1,0,0:0:0:0:
109,192,113652,1,0,0:0:0:0:
402,192,113652,1,0,0:0:0:0:
182,192,113746,1,0,0:0:0:0:
329,192,113746,1,0,0:0:0:0:
402,192,113933,1,0,0:0:0:0:
109,192,113933,1,0,0:0:0:0:
256,192,114121,1,0,0:0:0:0:
36,192,114121,1,0,0:0:0:0:
329,192,114121,1,0,0:0:0:0:
475,192,114121,1,0,0:0:0:0:
475,192,114308,1,0,0:0:0:0:
36,192,114308,1,0,0:0:0:0:
182,192,114308,1,0,0:0:0:0:
109,192,114308,1,0,0:0:0:0:
402,192,114355,1,0,0:0:0:0:
329,192,114402,1,0,0:0:0:0:
256,192,114449,1,0,0:0:0:0:
36,192,114496,1,0,0:0:0:0:
109,192,114542,1,0,0:0:0:0:
182,192,114589,1,0,0:0:0:0:
256,192,114636,1,0,0:0:0:0:
475,192,114683,1,0,0:0:0:0:
329,192,114683,1,0,0:0:0:0:
36,192,114683,1,0,0:0:0:0:
402,192,114683,1,0,0:0:0:0:
109,192,114746,1,0,0:0:0:0:
182,192,114808,1,0,0:0:0:0:
256,192,114871,1,0,0:0:0:0:
329,192,114933,1,0,0:0:0:0:
402,192,114996,1,0,0:0:0:0:
475,192,115058,1,0,0:0:0:0:
109,192,115121,1,0,0:0:0:0:
182,192,115183,1,0,0:0:0:0:
256,192,115246,1,0,0:0:0:0:
329,192,115308,1,0,0:0:0:0:
402,192,115371,1,0,0:0:0:0:
36,192,115433,1,0,0:0:0:0:
109,192,115496,1,0,0:0:0:0:
182,192,115558,1,0,0:0:0:0:
402,192,115621,1,0,0:0:0:0:
475,192,115621,1,0,0:0:0:0:
256,192,115621,1,0,0:0:0:0:
329,192,115621,1,0,0:0:0:0:
36,192,115808,1,0,0:0:0:0:
182,192,115808,1,0,0:0:0:0:
256,192,115808,1,0,0:0:0:0:
109,192,115808,1,0,0:0:0:0:
329,192,115996,1,0,0:0:0:0:
475,192,115996,1,0,0:0:0:0:
182,192,116019,1,0,0:0:0:0:
36,192,116042,1,0,0:0:0:0:
109,192,116183,1,0,0:0:0:0:
402,192,116183,1,0,0:0:0:0:
475,192,116183,1,0,0:0:0:0:
36,192,116183,1,0,0:0:0:0:
329,192,116246,1,0,0:0:0:0:
256,192,116308,1,0,0:0:0:0:
182,192,116371,1,0,0:0:0:0:
109,192,116433,1,0,0:0:0:0:
36,192,116496,1,0,0:0:0:0:
256,192,116558,1,0,0:0:0:0:
475,192,116621,1,0,0:0:0:0:
402,192,116683,1,0,0:0:0:0:
329,192,116746,1,0,0:0:0:0:
256,192,116808,1,0,0:0:0:0:
182,192,116871,1,0,0:0:0:0:
109,192,116933,1,0,0:0:0:0:
36,192,116933,1,0,0:0:0:0:
475,192,116933,1,0,0:0:0:0:
329,192,117027,1,0,0:0:0:0:
256,192,117121,1,0,0:0:0:0:
36,192,117121,1,0,0:0:0:0:
475,192,117121,1,0,0:0:0:0:
182,192,117121,1,0,0:0:0:0:
402,192,117214,1,0,0:0:0:0:
256,192,117308,1,0,0:0:0:0:
182,192,117308,1,0,0:0:0:0:
329,192,117308,1,0,0:0:0:0:
109,192,117402,1,0,0:0:0:0:
402,192,117496,1,0,0:0:0:0:
475,192,117496,1,0,0:0:0:0:
36,192,117496,1,0,0:0:0:0:
256,192,117496,1,0,0:0:0:0:
182,192,117589,1,0,0:0:0:0:
329,192,117683,1,0,0:0:0:0:
109,192,117683,1,0,0:0:0:0:
36,192,117683,1,0,0:0:0:0:
402,192,117777,1,0,0:0:0:0:
256,192,117777,1,0,0:0:0:0:
182,192,117871,1,0,0:0:0:0:
329,192,117871,1,0,0:0:0:0:
36,192,117871,1,0,0:0:0:0:
475,192,117871,1,0,0:0:0:0:
109,192,117871,1,0,0:0:0:0:
256,192,118058,1,0,0:0:0:0:
109,192,118246,1,0,0:0:0:0:
329,192,118246,1,0,0:0:0:0:
36,192,118246,1,0,0:0:0:0:
475,192,118246,1,0,0:0:0:0:
182,192,118246,1,0,0:0:0:0:
256,192,118433,1,0,0:0:0:0:
182,192,118621,1,0,0:0:0:0:
402,192,118621,1,0,0:0:0:0:
475,192,118621,1,0,0:0:0:0:
36,192,118621,1,0,0:0:0:0:
329,192,118621,1,0,0:0:0:0:
109,192,118808,1,0,0:0:0:0:
402,192,118902,1,0,0:0:0:0:
36,192,118902,1,0,0:0:0:0:
475,192,118902,1,0,0:0:0:0:
329,192,118902,1,0,0:0:0:0:
182,192,118996,1,0,0:0:0:0:
256,192,118996,1,0,0:0:0:0:
402,192,119183,1,0,0:0:0:0:
36,192,119183,1,0,0:0:0:0:
475,192,119183,1,0,0:0:0:0:
329,192,119183,1,0,0:0:0:0:
182,192,119371,1,0,0:0:0:0:
256,192,119394,1,0,0:0:0:0:
329,192,119417,1,0,0:0:0:0:
36,192,119558,1,0,0:0:0:0:
109,192,119558,1,0,0:0:0:0:
402,192,119558,1,0,0:0:0:0:
475,192,119558,1,0,0:0:0:0:
256,192,119746,1,0,0:0:0:0:
475,192,119746,1,0,0:0:0:0:
402,192,119746,1,0,0:0:0:0:
36,192,119746,1,0,0:0:0:0:
109,192,119746,1,0,0:0:0:0:
182,192,119933,1,0,0:0:0:0:
256,192,120121,1,0,0:0:0:0:
182,192,120121,1,0,0:0:0:0:
109,192,120121,1,0,0:0:0:0:
402,192,120121,1,0,0:0:0:0:
329,192,120121,1,0,0:0:0:0:
475,192,120308,1,0,0:0:0:0:
182,192,120402,1,0,0:0:0:0:
256,192,120402,1,0,0:0:0:0:
109,192,120402,1,0,0:0:0:0:
36,192,120402,1,0,0:0:0:0:
402,192,120496,1,0,0:0:0:0:
329,192,120496,1,0,0:0:0:0:
475,192,120683,1,0,0:0:0:0:
182,192,120683,1,0,0:0:0:0:
256,192,120683,1,0,0:0:0:0:
109,192,120777,1,0,0:0:0:0:
402,192,120777,1,0,0:0:0:0:
182,192,120871,1,0,0:0:0:0:
256,192,120871,1,0,0:0:0:0:
36,192,120871,1,0,0:0:0:0:
475,192,120871,1,0,0:0:0:0:
329,192,120871,1,0,0:0:0:0:
402,192,121058,1,0,0:0:0:0:
475,192,121246,1,0,0:0:0:0:
182,192,121246,1,0,0:0:0:0:
256,192,121246,1,0,0:0:0:0:
36,192,121246,1,0,0:0:0:0:
329,192,121246,1,0,0:0:0:0:
109,192,121433,1,0,0:0:0:0:
182,192,121621,1,0,0:0:0:0:
256,192,121621,1,0,0:0:0:0:
475,192,121621,1,0,0:0:0:0:
36,192,121621,1,0,0:0:0:0:
402,192,121621,1,0,0:0:0:0:
109,192,121808,1,0,0:0:0:0:
256,192,121902,1,0,0:0:0:0:
36,192,121902,1,0,0:0:0:0:
475,192,121902,1,0,0:0:0:0:
402,192,121902,1,0,0:0:0:0:
182,192,121996,1,0,0:0:0:0:
329,192,121996,1,0,0:0:0:0:
402,192,122183,1,0,0:0:0:0:
36,192,122183,1,0,0:0:0:0:
256,192,122183,1,0,0:0:0:0:
475,192,122183,1,0,0:0:0:0:
475,192,122371,1,0,0:0:0:0:
329,192,122371,1,0,0:0:0:0:
36,192,122371,1,0,0:0:0:0:
256,192,122371,1,0,0:0:0:0:
182,192,122371,1,0,0:0:0:0:
36,192,122746,1,0,0:0:0:0:
109,192,122839,1,0,0:0:0:0:
182,192,122933,1,0,0:0:0:0:
329,192,123027,1,0,0:0:0:0:
36,192,123121,1,0,0:0:0:0:
109,192,123214,1,0,0:0:0:0:
256,192,123308,1,0,0:0:0:0:
402,192,123402,1,0,0:0:0:0:
36,192,123496,1,0,0:0:0:0:
182,192,123589,1,0,0:0:0:0:
329,192,123683,1,0,0:0:0:0:
475,192,123777,1,0,0:0:0:0:
109,192,123871,1,0,0:0:0:0:
256,192,123964,1,0,0:0:0:0:
402,192,124058,1,0,0:0:0:0:
475,192,124152,1,0,0:0:0:0:
182,192,124246,1,0,0:0:0:0:
329,192,124339,1,0,0:0:0:0:
402,192,124433,1,0,0:0:0:0:
475,192,124527,1,0,0:0:0:0:
256,192,124621,1,0,0:0:0:0:
182,192,124808,1,0,0:0:0:0:
329,192,124808,1,0,0:0:0:0:
36,192,124996,1,0,0:0:0:0:
109,192,125019,1,0,0:0:0:0:
182,192,125042,1,0,0:0:0:0:
256,192,125066,1,0,0:0:0:0:
475,192,125183,1,0,0:0:0:0:
402,192,125206,1,0,0:0:0:0:
329,192,125230,1,0,0:0:0:0:
256,192,125253,1,0,0:0:0:0:
475,192,125371,1,0,0:0:0:0:
36,192,125371,1,0,0:0:0:0:
109,192,125371,1,0,0:0:0:0:
182,192,125371,1,0,0:0:0:0:
402,192,125371,1,0,0:0:0:0:
256,192,125464,1,0,0:0:0:0:
329,192,125558,1,0,0:0:0:0:
109,192,125558,1,0,0:0:0:0:
182,192,125652,1,0,0:0:0:0:
475,192,125746,1,0,0:0:0:0:
329,192,125746,1,0,0:0:0:0:
36,192,125746,1,0,0:0:0:0:
402,192,125746,1,0,0:0:0:0:
256,192,125839,1,0,0:0:0:0:
109,192,125933,1,0,0:0:0:0:
182,192,125933,1,0,0:0:0:0:
329,192,126027,1,0,0:0:0:0:
475,192,126121,1,0,0:0:0:0:
36,192,126121,1,0,0:0:0:0:
182,192,126121,1,0,0:0:0:0:
256,192,126121,1,0,0:0:0:0:
402,192,126214,1,0,0:0:0:0:
109,192,126308,1,0,0:0:0:0:
329,192,126308,1,0,0:0:0:0:
475,192,126402,1,0,0:0:0:0:
402,192,126402,1,0,0:0:0:0:
182,192,126402,1,0,0:0:0:0:
109,192,126496,1,0,0:0:0:0:
36,192,126496,1,0,0:0:0:0:
256,192,126496,1,0,0:0:0:0:
329,192,126589,1,0,0:0:0:0:
402,192,126683,1,0,0:0:0:0:
475,192,126683,1,0,0:0:0:0:
36,192,126683,1,0,0:0:0:0:
182,192,126683,1,0,0:0:0:0:
329,192,126777,1,0,0:0:0:0:
109,192,126777,1,0,0:0:0:0:
256,192,126871,1,0,0:0:0:0:
36,192,126871,1,0,0:0:0:0:
475,192,126871,1,0,0:0:0:0:
402,192,126964,1,0,0:0:0:0:
256,192,127058,1,0,0:0:0:0:
182,192,127058,1,0,0:0:0:0:
329,192,127058,1,0,0:0:0:0:
109,192,127058,1,0,0:0:0:0:
402,192,127152,1,0,0:0:0:0:
256,192,127246,1,0,0:0:0:0:
36,192,127246,1,0,0:0:0:0:
475,192,127246,1,0,0:0:0:0:
329,192,127246,1,0,0:0:0:0:
182,192,127339,1,0,0:0:0:0:
402,192,127433,1,0,0:0:0:0:
109,192,127433,1,0,0:0:0:0:
329,192,127527,1,0,0:0:0:0:
109,192,127621,1,0,0:0:0:0:
475,192,127621,1,0,0:0:0:0:
36,192,127621,1,0,0:0:0:0:
256,192,127621,1,0,0:0:0:0:
182,192,127714,1,0,0:0:0:0:
329,192,127808,1,0,0:0:0:0:
475,192,127902,1,0,0:0:0:0:
402,192,127902,1,0,0:0:0:0:
256,192,127902,1,0,0:0:0:0:
182,192,127996,1,0,0:0:0:0:
36,192,127996,1,0,0:0:0:0:
329,192,127996,1,0,0:0:0:0:
109,192,128089,1,0,0:0:0:0:
402,192,128089,1,0,0:0:0:0:
256,192,128183,1,0,0:0:0:0:
475,192,128183,1,0,0:0:0:0:
182,192,128183,1,0,0:0:0:0:
109,192,128277,1,0,0:0:0:0:
329,192,128277,1,0,0:0:0:0:
36,192,128371,1,0,0:0:0:0:
475,192,128371,1,0,0:0:0:0:
256,192,128371,1,0,0:0:0:0:
182,192,128371,1,0,0:0:0:0:
402,192,128371,1,0,0:0:0:0:
329,192,128464,1,0,0:0:0:0:
109,192,128558,1,0,0:0:0:0:
256,192,128558,1,0,0:0:0:0:
402,192,128652,1,0,0:0:0:0:
36,192,128746,1,0,0:0:0:0:
475,192,128746,1,0,0:0:0:0:
329,192,128746,1,0,0:0:0:0:
109,192,128746,1,0,0:0:0:0:
182,192,128839,1,0,0:0:0:0:
256,192,128933,1,0,0:0:0:0:
402,192,128933,1,0,0:0:0:0:
475,192,129027,1,0,0:0:0:0:
36,192,129121,1,0,0:0:0:0:
109,192,129121,1,0,0:0:0:0:
329,192,129121,1,0,0:0:0:0:
256,192,129121,1,0,0:0:0:0:
182,192,129214,1,0,0:0:0:0:
475,192,129308,1,0,0:0:0:0:
329,192,129308,1,0,0:0:0:0:
402,192,129402,1,0,0:0:0:0:
36,192,129402,1,0,0:0:0:0:
109,192,129402,1,0,0:0:0:0:
329,192,129496,1,0,0:0:0:0:
256,192,129496,1,0,0:0:0:0:
182,192,129496,1,0,0:0:0:0:
402,192,129589,1,0,0:0:0:0:
475,192,129683,1,0,0:0:0:0:
256,192,129683,1,0,0:0:0:0:
36,192,129683,1,0,0:0:0:0:
182,192,129683,1,0,0:0:0:0:
329,192,129777,1,0,0:0:0:0:
109,192,129777,1,0,0:0:0:0:
402,192,129871,1,0,0:0:0:0:
475,192,129871,1,0,0:0:0:0:
182,192,129871,1,0,0:0:0:0:
109,192,129964,1,0,0:0:0:0:
475,192,130058,1,0,0:0:0:0:
36,192,130058,1,0,0:0:0:0:
329,192,130058,1,0,0:0:0:0:
256,192,130058,1,0,0:0:0:0:
182,192,130152,1,0,0:0:0:0:
475,192,130246,1,0,0:0:0:0:
109,192,130246,1,0,0:0:0:0:
329,192,130246,1,0,0:0:0:0:
36,192,130246,1,0,0:0:0:0:
256,192,130339,1,0,0:0:0:0:
402,192,130433,1,0,0:0:0:0:
109,192,130433,1,0,0:0:0:0:
182,192,130527,1,0,0:0:0:0:
256,192,130621,1,0,0:0:0:0:
475,192,130621,1,0,0:0:0:0:
36,192,130621,1,0,0:0:0:0:
402,192,130621,1,0,0:0:0:0:
182,192,130714,1,0,0:0:0:0:
109,192,130808,1,0,0:0:0:0:
329,192,130808,1,0,0:0:0:0:
36,192,130902,1,0,0:0:0:0:
475,192,130902,1,0,0:0:0:0:
256,192,130902,1,0,0:0:0:0:
182,192,130996,1,0,0:0:0:0:
402,192,130996,1,0,0:0:0:0:
329,192,130996,1,0,0:0:0:0:
109,192,131089,1,0,0:0:0:0:
256,192,131089,1,0,0:0:0:0:
329,192,131183,1,0,0:0:0:0:
36,192,131183,1,0,0:0:0:0:
182,192,131183,1,0,0:0:0:0:
402,192,131277,1,0,0:0:0:0:
256,192,131277,1,0,0:0:0:0:
475,192,131371,1,0,0:0:0:0:
182,192,131371,1,0,0:0:0:0:
329,192,131371,1,0,0:0:0:0:
109,192,131371,1,0,0:0:0:0:
36,192,131371,1,0,0:0:0:0:
402,192,131464,1,0,0:0:0:0:
329,192,131558,1,0,0:0:0:0:
256,192,131558,1,0,0:0:0:0:
109,192,131558,1,0,0:0:0:0:
182,192,131558,1,0,0:0:0:0:
36,192,131652,1,0,0:0:0:0:
402,192,131746,1,0,0:0:0:0:
475,192,131746,1,0,0:0:0:0:
256,192,131746,1,0,0:0:0:0:
182,192,131746,1,0,0:0:0:0:
109,192,131839,1,0,0:0:0:0:
402,192,131933,1,0,0:0:0:0:
182,192,131933,1,0,0:0:0:0:
36,192,131933,1,0,0:0:0:0:
329,192,131933,1,0,0:0:0:0:
256,192,132027,1,0,0:0:0:0:
475,192,132121,1,0,0:0:0:0:
402,192,132121,1,0,0:0:0:0:
109,192,132121,1,0,0:0:0:0:
36,192,132121,1,0,0:0:0:0:
329,192,132214,1,0,0:0:0:0:
402,192,132308,1,0,0:0:0:0:
36,192,132308,1,0,0:0:0:0:
256,192,132308,1,0,0:0:0:0:
182,192,132308,1,0,0:0:0:0:
475,192,132402,1,0,0:0:0:0:
109,192,132496,1,0,0:0:0:0:
182,192,132496,1,0,0:0:0:0:
256,192,132496,1,0,0:0:0:0:
329,192,132496,1,0,0:0:0:0:
402,192,132589,1,0,0:0:0:0:
36,192,132683,1,0,0:0:0:0:
256,192,132683,1,0,0:0:0:0:
475,192,132683,1,0,0:0:0:0:
109,192,132683,1,0,0:0:0:0:
402,192,132777,1,0,0:0:0:0:
182,192,132777,1,0,0:0:0:0:
109,192,132871,1,0,0:0:0:0:
329,192,132871,1,0,0:0:0:0:
256,192,132871,1,0,0:0:0:0:
36,192,132871,1,0,0:0:0:0:
475,192,132964,1,0,0:0:0:0:
109,192,133058,1,0,0:0:0:0:
182,192,133058,1,0,0:0:0:0:
402,192,133058,1,0,0:0:0:0:
329,192,133058,1,0,0:0:0:0:
36,192,133152,1,0,0:0:0:0:
402,192,133246,1,0,0:0:0:0:
182,192,133246,1,0,0:0:0:0:
256,192,133246,1,0,0:0:0:0:
475,192,133246,1,0,0:0:0:0:
109,192,133339,1,0,0:0:0:0:
256,192,133433,1,0,0:0:0:0:
329,192,133433,1,0,0:0:0:0:
475,192,133433,1,0,0:0:0:0:
36,192,133433,1,0,0:0:0:0:
182,192,133527,1,0,0:0:0:0:
109,192,133621,1,0,0:0:0:0:
36,192,133621,1,0,0:0:0:0:
329,192,133621,1,0,0:0:0:0:
402,192,133621,1,0,0:0:0:0:
475,192,133714,1,0,0:0:0:0:
36,192,133808,1,0,0:0:0:0:
329,192,133808,1,0,0:0:0:0:
182,192,133808,1,0,0:0:0:0:
256,192,133808,1,0,0:0:0:0:
402,192,133902,1,0,0:0:0:0:
475,192,133996,1,0,0:0:0:0:
36,192,133996,1,0,0:0:0:0:
182,192,133996,1,0,0:0:0:0:
109,192,133996,1,0,0:0:0:0:
329,192,134089,1,0,0:0:0:0:
402,192,134183,1,0,0:0:0:0:
256,192,134183,1,0,0:0:0:0:
109,192,134183,1,0,0:0:0:0:
182,192,134277,1,0,0:0:0:0:
329,192,134277,1,0,0:0:0:0:
475,192,134371,1,0,0:0:0:0:
36,192,134371,1,0,0:0:0:0:
256,192,134371,1,0,0:0:0:0:
402,192,134464,1,0,0:0:0:0:
182,192,134464,1,0,0:0:0:0:
109,192,134558,1,0,0:0:0:0:
36,192,134558,1,0,0:0:0:0:
329,192,134558,1,0,0:0:0:0:
402,192,134652,1,0,0:0:0:0:
256,192,134652,1,0,0:0:0:0:
182,192,134746,1,0,0:0:0:0:
475,192,134746,1,0,0:0:0:0:
329,192,134746,1,0,0:0:0:0:
109,192,134839,1,0,0:0:0:0:
256,192,134839,1,0,0:0:0:0:
36,192,134933,1,0,0:0:0:0:
329,192,134933,1,0,0:0:0:0:
182,192,134933,1,0,0:0:0:0:
402,192,135027,1,0,0:0:0:0:
256,192,135027,1,0,0:0:0:0:
475,192,135121,1,0,0:0:0:0:
182,192,135121,1,0,0:0:0:0:
329,192,135121,1,0,0:0:0:0:
109,192,135214,1,0,0:0:0:0:
36,192,135214,1,0,0:0:0:0:
256,192,135308,1,0,0:0:0:0:
475,192,135308,1,0,0:0:0:0:
402,192,135355,1,0,0:0:0:0:
182,192,135402,1,0,0:0:0:0:
329,192,135402,1,0,0:0:0:0:
109,192,135449,1,0,0:0:0:0:
475,192,135496,1,0,0:0:0:0:
256,192,135496,1,0,0:0:0:0:
36,192,135496,1,0,0:0:0:0:
329,192,135589,1,0,0:0:0:0:
182,192,135589,1,0,0:0:0:0:
256,192,135683,1,0,0:0:0:0:
36,192,135683,1,0,0:0:0:0:
109,192,135730,1,0,0:0:0:0:
329,192,135777,1,0,0:0:0:0:
182,192,135777,1,0,0:0:0:0:
402,192,135824,1,0,0:0:0:0:
475,192,135871,1,0,0:0:0:0:
256,192,135871,1,0,0:0:0:0:
36,192,135871,1,0,0:0:0:0:
109,192,135871,1,0,0:0:0:0:
329,192,136058,1,0,0:0:0:0:
182,192,136058,1,0,0:0:0:0:
256,192,136246,1,0,0:0:0:0:
109,192,136246,1,0,0:0:0:0:
475,192,136339,1,0,0:0:0:0:
329,192,136339,1,0,0:0:0:0:
182,192,136433,1,0,0:0:0:0:
36,192,136433,1,0,0:0:0:0:
402,192,136527,1,0,0:0:0:0:
256,192,136527,1,0,0:0:0:0:
109,192,136621,1,0,0:0:0:0:
475,192,136621,1,0,0:0:0:0:
329,192,136714,1,0,0:0:0:0:
182,192,136714,1,0,0:0:0:0:
256,192,136808,1,0,0:0:0:0:
36,192,136808,1,0,0:0:0:0:
475,192,136808,1,0,0:0:0:0:
109,192,136996,1,0,0:0:0:0:
475,192,136996,1,0,0:0:0:0:
402,192,136996,1,0,0:0:0:0:
36,192,136996,1,0,0:0:0:0:
109,192,137371,1,0,0:0:0:0:
402,192,137371,1,0,0:0:0:0:
36,192,137371,1,0,0:0:0:0:
475,192,137371,1,0,0:0:0:0:
329,192,137371,1,0,0:0:0:0:
182,192,137371,1,0,0:0:0:0:
256,192,137558,1,0,0:0:0:0:
475,192,137746,1,0,0:0:0:0:
36,192,137746,1,0,0:0:0:0:
402,192,137933,1,0,0:0:0:0:
109,192,137933,1,0,0:0:0:0:
256,192,138121,1,0,0:0:0:0:
256,192,138308,1,0,0:0:0:0:
475,192,138496,1,0,0:0:0:0:
36,192,138496,1,0,0:0:0:0:
402,192,138683,1,0,0:0:0:0:
109,192,138683,1,0,0:0:0:0:
256,192,138871,1,0,0:0:0:0:
256,192,139058,1,0,0:0:0:0:
475,192,139246,1,0,0:0:0:0:
36,192,139246,1,0,0:0:0:0:
402,192,139433,1,0,0:0:0:0:
109,192,139433,1,0,0:0:0:0:
256,192,139621,1,0,0:0:0:0:
329,192,139808,1,0,0:0:0:0:
182,192,139808,1,0,0:0:0:0:
402,192,139996,1,0,0:0:0:0:
109,192,139996,1,0,0:0:0:0:
329,192,140183,1,0,0:0:0:0:
182,192,140183,1,0,0:0:0:0:
256,192,140371,1,0,0:0:0:0:
256,192,140558,1,0,0:0:0:0:
36,192,140746,1,0,0:0:0:0:
475,192,140746,1,0,0:0:0:0:
402,192,140933,1,0,0:0:0:0:
109,192,140933,1,0,0:0:0:0:
256,192,141121,1,0,0:0:0:0:
256,192,141308,1,0,0:0:0:0:
475,192,141496,1,0,0:0:0:0:
36,192,141496,1,0,0:0:0:0:
402,192,141683,1,0,0:0:0:0:
109,192,141683,1,0,0:0:0:0:
256,192,141871,1,0,0:0:0:0:
256,192,142058,1,0,0:0:0:0:
475,192,142246,1,0,0:0:0:0:
36,192,142246,1,0,0:0:0:0:
402,192,142433,1,0,0:0:0:0:
109,192,142433,1,0,0:0:0:0:
256,192,142621,1,0,0:0:0:0:
329,192,142808,1,0,0:0:0:0:
182,192,142808,1,0,0:0:0:0:
402,192,142996,1,0,0:0:0:0:
109,192,142996,1,0,0:0:0:0:
329,192,143183,1,0,0:0:0:0:
182,192,143183,1,0,0:0:0:0:
36,192,143183,1,0,0:0:0:0:
475,192,143183,1,0,0:0:0:0:
109,192,143183,1,0,0:0:0:0:
402,192,143183,1,0,0:0:0:0:
