osu file format v14

[General]
AudioFilename: audio.mp3
AudioLeadIn: 0
PreviewTime: 102514
Countdown: 0
SampleSet: Soft
StackLeniency: 0.7
Mode: 0
LetterboxInBreaks: 0
WidescreenStoryboard: 1

[Editor]
DistanceSpacing: 1
BeatDivisor: 4
GridSize: 4
TimelineZoom: 1

[Metadata]
Title:breathe
TitleUnicode:breathe
Artist:qfeileadh
ArtistUnicode:qfeileadh
Creator:ktgster
Version:Normal
Source:Lanota
Tags:Be-Music Source Script BMS THE OF FIGHTERS EXTREME VIOLENCE 2019 BOFXV19 Team Narratives まにゅ Maniyu のあ Noa Maeus Noxy Games Flyhigh Works Apple Google Nintendo Incorporated Company Limited Inc. Co. Ltd. iOS Android Switch NS narrative Progressive Math Pop Rock Video Game Videogame Japanese Instrumental novelty
BeatmapID:2545091
BeatmapSetID:1181778

[Difficulty]
HPDrainRate:3
CircleSize:3
OverallDifficulty:4
ApproachRate:5
SliderMultiplier:1.1
SliderTickRate:1

[Events]
//Background and Video events
0,0,"_title.png",0,0
//Break Periods
2,23191,24172
//Storyboard Layer 0 (Background)
//Storyboard Layer 1 (Fail)
//Storyboard Layer 2 (Pass)
//Storyboard Layer 3 (Foreground)
//Storyboard Layer 4 (Overlay)
//Storyboard Sound Samples

[TimingPoints]
1087,476.190476190476,3,2,1,60,1,0
2277,476.190476190476,3,2,1,60,1,0
4896,476.190476190476,4,2,1,60,1,0
6563,476.190476190476,3,2,1,60,1,0
7753,476.190476190476,3,2,1,60,1,0
10372,476.190476190476,4,2,1,60,1,0
12039,476.190476190476,3,2,1,60,1,0
13229,476.190476190476,3,2,1,60,1,0
15848,476.190476190476,4,2,1,60,1,0
17515,476.190476190476,3,2,1,60,1,0
18706,476.190476190476,3,2,1,60,1,0
21325,476.190476190476,4,2,1,60,1,0
22991,476.190476190476,5,2,1,60,1,0
25372,476.190476190476,6,2,1,60,1,0
28229,476.190476190476,5,2,1,60,1,0
30610,476.190476190476,6,2,1,60,1,0
33467,476.190476190476,5,2,1,60,1,0
35848,476.190476190476,6,2,1,60,1,0
38706,476.190476190476,5,2,1,60,1,0
41086,476.190476190476,6,2,1,60,1,0
43944,476.190476190476,7,2,1,60,1,0
47278,476.190476190476,6,2,1,60,1,0
50134,476.190476190476,7,2,1,60,1,0
53467,476.190476190476,6,2,1,60,1,0
56325,476.190476190476,7,2,1,60,1,0
59658,476.190476190476,4,2,1,60,1,0
61563,476.190476190476,6,2,1,60,1,0
68229,476.190476190476,6,2,1,60,1,0
71086,476.190476190476,5,2,1,60,1,0
73467,476.190476190476,6,2,1,60,1,0
76325,476.190476190476,7,2,1,60,1,0
79658,476.190476190476,4,2,1,60,1,0
81563,476.190476190476,6,2,1,60,1,0
87277,476.190476190476,5,2,1,60,1,0
89658,476.190476190476,6,2,1,60,1,0
92515,476.190476190476,7,2,1,60,1,0
95848,476.190476190476,4,2,1,60,1,0
97753,476.190476190476,6,2,1,60,1,0
103467,476.190476190476,3,2,1,60,1,0
104658,476.190476190476,3,2,1,60,1,0
107277,476.190476190476,4,2,1,60,1,0
108944,476.190476190476,3,2,1,60,1,0
110134,476.190476190476,3,2,1,60,1,0
112753,476.190476190476,4,2,1,60,1,0
114420,476.190476190476,3,2,1,60,1,0
115610,476.190476190476,3,2,1,60,1,0
118229,476.190476190476,4,2,1,60,1,0
119896,476.190476190476,3,2,1,60,1,0
121086,476.190476190476,3,2,1,60,1,0
123706,476.190476190476,4,2,1,60,1,0
125372,476.190476190476,3,2,1,60,1,0
126801,476.190476190476,7,2,1,60,1,0
129658,-98.0392156862745,7,2,1,60,0,0
129856,476.190476190476,7,2,1,60,1,0
130124,476.190476190476,6,2,1,60,1,0
135481,-100,6,2,1,5,0,0

[Colours]
Combo1 : 255,125,255
Combo2 : 166,166,0
Combo3 : 0,217,108

[HitObjects]
40,269,1087,6,0,P|81:318|139:318,1,110,4|2,0:2|0:2,0:0:0:0:
231,301,2039,1,2,0:2:0:0:
284,287,2277,2,0,P|336:297|367:340,1,110,10|2,0:2|0:2,0:0:0:0:
469,297,3229,1,10,0:2:0:0:
450,188,3706,5,8,0:2:0:0:
347,227,4182,2,0,L|336:286,2,55,2|2|2,0:2|0:2|0:2,0:0:0:0:
352,172,4896,2,0,P|320:128|268:118,1,110,8|2,0:2|0:2,0:0:0:0:
158,124,5848,2,0,P|105:113|74:87,2,82.5,10|4|4,0:2|0:2|0:1,0:0:0:0:
433,83,7753,6,0,P|456:132|452:186,1,110,10|2,0:2|0:2,0:0:0:0:
408,287,8706,1,10,0:2:0:0:
324,358,9182,2,0,P|273:362|210:328,1,110,10|2,0:2|0:2,0:0:0:0:
185,295,9896,1,8,0:2:0:0:
262,217,10372,2,0,B|290:211|290:211|309:220|309:220|346:214,2,82.5,4|4|4,0:1|0:0|3:1,0:0:0:0:
223,178,11324,1,0,0:0:0:0:
261,139,11563,1,8,3:2:0:0:
183,61,12039,6,0,B|156:67|156:67|137:58|137:58|100:64,2,82.5,4|10|8,0:1|3:2|0:2,0:0:0:0:
222,100,12991,1,2,3:2:0:0:
261,139,13229,2,0,P|297:129|336:89,2,82.5,8|10|10,0:2|3:2|0:2,0:0:0:0:
152,154,14420,1,2,3:2:0:0:
98,143,14658,6,0,B|71:137|71:137|52:146|52:146|15:140,2,82.5,0|2|8,0:2|3:2|0:2,0:0:0:0:
116,196,15610,1,8,0:2:0:0:
201,265,16086,1,0,3:2:0:0:
309,247,16563,1,0,3:2:0:0:
322,193,16801,2,0,L|333:134,2,55,8|8|8,2:2|0:2|2:2,0:0:0:0:
362,231,17515,6,0,B|389:225|389:225|408:234|408:234|445:228,2,82.5,4|2|8,0:1|3:2|0:2,0:0:0:0:
309,247,18467,2,0,L|298:306,1,55,2|8,3:2|0:2,0:0:0:0:
191,324,19182,2,0,L|202:265,2,55,0|8|0,0:2|0:2|3:2,0:0:0:0:
142,350,19896,1,2,3:2:0:0:
88,362,20134,6,0,P|44:329|56:264,1,110,4|0,3:2|3:2,0:0:0:0:
69,228,20848,2,0,P|77:195|74:168,2,55,0|0|4,3:2|3:2|0:2,0:0:0:0:
182,275,22991,5,4,0:1:0:0:
152,96,25372,6,0,B|111:88|111:88|91:68|91:68|42:59,2,110,4|0|0,0:1|0:2|3:2,0:0:0:0:
239,163,26801,2,0,L|298:174,2,55,2|10|2,0:2|0:2|0:2,0:0:0:0:
184,172,27515,1,8,0:2:0:0:
141,206,27753,1,0,3:2:0:0:
82,299,28229,6,0,B|55:293|55:293|36:302|36:302|-1:296,2,82.5,8|0|8,0:2|3:2|0:2,0:0:0:0:
120,337,29182,1,0,3:2:0:0:
197,259,29658,2,0,L|208:200,2,55,2|8|2,0:2|0:2|3:2,0:0:0:0:
229,303,30372,1,8,0:2:0:0:
274,333,30610,6,0,P|316:345|468:277,1,220,4|0,0:2|0:2,0:0:0:0:
491,161,32039,1,2,0:2:0:0:
480,106,32277,2,0,L|469:47,2,55,2|6|10,0:2|0:2|0:2,0:0:0:0:
438,144,32991,1,2,3:2:0:0:
375,234,33467,6,0,B|383:275|383:275|403:295|403:295|412:344,2,110,4|0|8,0:1|3:2|0:2,0:0:0:0:
297,156,34896,1,0,0:2:0:0:
219,233,35372,1,0,3:2:0:0:
141,155,35848,6,0,B|133:114|133:114|113:94|113:94|104:45,2,110,4|0|0,0:2|0:2|3:2,0:0:0:0:
63,232,37277,2,0,L|74:291,1,55,2|10,0:2|0:2,0:0:0:0:
176,322,37991,1,8,0:2:0:0:
186,267,38229,2,0,P|215:245|250:243,1,55,0|8,3:2|0:2,0:0:0:0:
287,247,38706,6,0,P|383:209|346:121,1,220,4|0,0:1|0:2,0:0:0:0:
249,70,40134,1,2,0:0:0:0:
132,186,40848,5,8,0:2:0:0:
89,220,41086,2,0,B|62:226|62:226|43:217|43:217|6:223,2,82.5,4|0|8,0:1|3:2|0:2,0:0:0:0:
128,259,42039,1,0,3:2:0:0:
205,336,42515,1,0,3:2:0:0:
314,349,42991,1,4,3:2:0:0:
412,300,43467,2,0,P|421:267|418:226,1,55,6|0,0:2|3:2,0:0:0:0:
418,191,43944,5,2,1:2:0:0:
362,95,44420,1,2,1:2:0:0:
260,53,44896,1,2,1:2:0:0:
161,102,45372,2,0,L|172:161,1,55,2|2,1:2|1:2,0:0:0:0:
133,195,45848,2,0,L|144:254,1,55,2|2,1:2|1:2,0:0:0:0:
105,288,46325,1,6,1:2:0:0:
199,344,46801,2,0,P|251:348|305:397,1,110,2|4,3:2|3:1,0:0:0:0:
373,303,48706,6,0,B|414:311|414:311|434:331|434:331|483:340,2,110,0|0|0,0:2|0:2|0:2,0:0:0:0:
296,380,50134,2,0,P|265:317|297:225,1,165,4|0,0:2|3:2,0:0:0:0:
325,186,51086,1,0,3:2:0:0:
430,151,51563,5,4,0:2:0:0:
348,77,52039,1,2,0:2:0:0:
244,111,52515,2,0,P|196:132|122:108,1,110,0|0,3:2|3:2,0:0:0:0:
92,97,53229,1,0,3:2:0:0:
49,63,53467,5,6,0:2:0:0:
14,167,53944,2,0,L|25:226,1,55,2|2,3:2|0:2,0:0:0:0:
36,275,54420,1,2,0:2:0:0:
137,316,54896,2,0,L|148:257,1,55,4|0,0:1|3:2,0:0:0:0:
159,207,55372,1,2,3:2:0:0:
256,154,55848,1,10,0:2:0:0:
353,207,56325,6,0,B|361:248|361:248|381:268|381:268|390:317,1,110,4|0,0:1|0:2,0:0:0:0:
303,375,57277,1,4,3:2:0:0:
253,353,57515,1,8,0:2:0:0:
227,304,57753,1,8,0:2:0:0:
190,200,58229,2,0,P|160:155|91:122,2,110,2|0|2,3:2|3:2|3:2,0:0:0:0:
118,284,59658,5,4,0:2:0:0:
80,322,59896,2,0,L|91:381,2,55,2|0|0,0:2|3:2|3:2,0:0:0:0:
35,291,60610,2,0,P|22:242|34:179,1,110,2|2,3:2|3:2,0:0:0:0:
114,110,61563,1,12,0:2:0:0:
221,136,62039,1,8,0:2:0:0:
268,235,62515,2,0,P|278:266|297:292,1,55,10|0,0:2|3:2,0:0:0:0:
337,312,62991,6,0,B|364:306|364:306|383:315|383:315|420:309,2,82.5,8|10|10,1:2|1:2|1:2,0:0:0:0:
299,350,63944,1,4,0:2:0:0:
193,322,64420,1,4,0:1:0:0:
92,363,64896,5,8,3:2:0:0:
44,264,65372,1,8,3:2:0:0:
94,165,65848,2,0,L|153:154,1,55,4|8,3:1|3:2,0:0:0:0:
187,116,66325,2,0,L|246:105,1,55,8|8,3:2|3:2,0:0:0:0:
281,66,66801,2,0,P|300:101|299:156,1,82.5,8|0,3:2|3:2,0:0:0:0:
262,312,68229,6,0,P|355:359|471:313,1,220,4|8,0:1|0:2,0:0:0:0:
510,226,69658,1,2,3:2:0:0:
475,121,70134,1,8,0:2:0:0:
376,73,70610,1,2,3:2:0:0:
326,97,70848,1,2,3:2:0:0:
301,146,71086,6,0,L|290:205,1,55,4|2,0:0|0:2,0:0:0:0:
252,238,71563,2,0,P|306:228|377:246,2,110,10|10|2,0:2|0:2|3:2,0:0:0:0:
160,298,72991,1,10,0:2:0:0:
91,211,73467,5,4,0:1:0:0:
53,173,73706,2,0,L|-6:184,2,55,4|4|0,0:2|0:2|3:2,0:0:0:0:
84,128,74420,2,0,P|133:115|193:129,1,110,8|14,0:2|0:2,0:0:0:0:
288,177,75372,1,0,3:2:0:0:
339,196,75610,1,0,3:2:0:0:
391,179,75848,1,6,3:2:0:0:
463,96,76325,6,0,L|474:37,2,55,12|2|8,0:2|0:2|0:2,0:0:0:0:
498,199,77277,1,4,3:2:0:0:
391,179,77753,1,8,0:2:0:0:
291,225,78229,2,0,P|259:240|168:234,1,110,12|0,0:2|3:2,0:0:0:0:
135,216,78944,2,0,P|138:270|119:321,1,110,10|2,0:2|3:2,0:0:0:0:
79,359,79658,1,4,0:2:0:0:
40,142,80610,6,0,L|29:83,2,55,2|8|10,3:2|0:2|0:2,0:0:0:0:
126,208,81563,2,0,P|178:223|231:211,1,110,12|8,0:2|0:2,0:0:0:0:
277,183,82277,1,0,3:2:0:0:
323,155,82515,2,0,P|376:143|432:161,1,110,10|12,0:2|0:2,0:0:0:0:
492,247,83467,1,12,0:2:0:0:
455,350,83944,1,12,0:2:0:0:
345,354,84420,6,0,P|327:302|341:250,1,110,4|4,0:1|0:2,0:0:0:0:
390,151,85372,1,8,0:2:0:0:
492,111,85848,1,6,3:2:0:0:
406,42,86325,1,8,0:2:0:0:
304,82,86801,1,2,3:2:0:0:
265,120,87039,1,2,3:2:0:0:
210,123,87277,6,0,L|151:112,1,55,4|2,0:0|0:2,0:0:0:0:
117,151,87753,2,0,P|127:97|109:26,2,110,10|10|2,0:2|0:2|3:2,0:0:0:0:
71,251,89182,1,10,0:2:0:0:
164,308,89658,5,4,0:1:0:0:
202,270,89896,2,0,L|191:211,2,55,4|4|0,0:2|0:2|3:2,0:0:0:0:
247,300,90610,2,0,P|296:313|356:299,1,110,8|14,0:2|0:2,0:0:0:0:
449,247,91563,1,0,3:2:0:0:
468,196,91801,1,0,3:2:0:0:
451,144,92039,1,6,3:2:0:0:
368,71,92515,6,0,L|309:60,2,55,12|2|8,0:2|0:2|0:2,0:0:0:0:
471,36,93467,1,4,3:2:0:0:
451,143,93944,1,8,0:2:0:0:
360,205,94420,2,0,P|345:237|351:328,1,110,12|0,0:2|3:2,0:0:0:0:
379,352,95134,1,8,0:2:0:0:
433,359,95372,2,0,L|492:348,2,55,2|2|4,3:2|3:2|0:2,0:0:0:0:
213,338,96801,6,0,L|154:349,2,55,6|8|10,3:2|0:2|0:2,0:0:0:0:
319,314,97753,2,0,P|334:262|323:209,1,110,12|8,0:2|0:2,0:0:0:0:
295,163,98467,1,0,3:2:0:0:
267,117,98706,2,0,P|255:64|273:8,1,110,10|12,0:2|0:2,0:0:0:0:
364,69,99658,1,12,0:2:0:0:
378,178,100134,1,12,0:2:0:0:
352,226,100372,1,0,3:2:0:0:
303,252,100610,1,12,0:2:0:0:
225,174,101086,5,8,0:2:0:0:
197,280,101563,1,8,0:2:0:0:
274,358,102039,1,12,0:2:0:0:
380,330,102515,2,0,L|391:271,1,55,12|8,0:2|0:2,0:0:0:0:
440,252,102991,2,0,L|451:193,1,55,12|8,0:2|0:2,0:0:0:0:
432,145,103467,6,0,B|459:139|459:139|478:148|478:148|515:142,2,82.5,4|2|8,0:1|3:2|0:2,0:0:0:0:
393,106,104420,1,0,3:2:0:0:
372,54,104658,2,0,P|331:23|272:31,1,110,8|0,0:2|3:2,0:0:0:0:
217,123,105610,2,0,L|206:182,1,55,0|0,3:2|3:2,0:0:0:0:
168,215,106086,6,0,B|162:242|162:242|171:261|171:261|165:298,2,82.5,0|2|8,0:2|3:2|0:2,0:0:0:0:
129,176,107039,1,8,0:2:0:0:
75,190,107277,1,8,0:2:0:0:
168,53,107991,1,8,2:2:0:0:
245,130,108467,2,0,L|256:189,1,55,8|8,0:2|0:2,0:0:0:0:
216,223,108944,6,0,B|189:229|189:229|170:220|170:220|133:226,2,82.5,4|2|8,0:1|3:2|0:2,0:0:0:0:
255,262,109896,1,0,3:2:0:0:
276,314,110134,2,0,P|317:345|376:337,1,110,8|0,0:2|0:2,0:0:0:0:
450,261,111086,2,0,L|439:202,1,55,0|0,3:2|3:2,0:0:0:0:
401,169,111563,6,0,B|395:142|395:142|404:123|404:123|398:86,2,82.5,0|2|8,0:2|3:2|0:2,0:0:0:0:
362,208,112515,1,8,0:2:0:0:
308,194,112753,1,12,0:2:0:0:
204,65,113467,1,0,3:2:0:0:
126,142,113944,2,0,L|137:201,1,55,8|8,3:2|3:2,0:0:0:0:
183,223,114420,6,0,B|189:250|189:250|180:269|180:269|186:306,2,82.5,4|2|8,0:1|3:2|0:2,0:0:0:0:
222,184,115372,1,0,3:2:0:0:
276,175,115610,2,0,P|314:217|326:275,1,110,8|0,0:2|3:2,0:0:0:0:
340,376,116563,2,0,L|399:365,1,55,0|0,3:2|3:2,0:0:0:0:
432,327,117039,6,0,B|459:321|459:321|478:330|478:330|515:324,2,82.5,0|2|8,0:2|3:2|0:2,0:0:0:0:
402,280,117991,1,8,0:2:0:0:
351,258,118229,1,8,0:2:0:0:
234,374,118944,1,8,2:2:0:0:
156,296,119420,2,0,L|145:237,1,55,8|8,0:2|0:2,0:0:0:0:
184,203,119896,6,0,B|190:176|190:176|181:157|181:157|187:120,2,82.5,4|2|8,0:1|3:2|0:2,0:0:0:0:
223,242,120848,1,0,3:2:0:0:
277,251,121086,2,0,P|315:209|327:151,1,110,8|0,0:2|0:2,0:0:0:0:
337,48,122039,2,0,L|396:59,1,55,0|0,3:2|3:2,0:0:0:0:
445,68,122515,6,0,P|483:110|495:168,1,110,4|0,0:1|3:2,0:0:0:0:
489,215,123229,2,0,L|478:274,2,55,0|0|4,3:2|3:2|0:1,0:0:0:0:
372,98,124420,6,0,L|361:39,2,55,2|2|2,0:2|0:2|0:2,0:0:0:0:
340,143,125134,1,2,2:2:0:0:
287,160,125372,1,4,1:2:0:0:
209,82,125848,1,0,1:2:0:0:
131,159,126325,1,0,1:2:0:0:
53,81,126801,5,2,1:2:0:0:
25,188,127277,1,2,1:2:0:0:
74,286,127753,1,2,1:2:0:0:
169,340,128229,2,0,L|228:351,1,55,2|2,1:2|1:2,0:0:0:0:
262,312,128706,2,0,L|321:323,1,55,2|2,1:2|1:2,0:0:0:0:
355,284,129182,1,6,1:2:0:0:
344,174,129658,2,0,P|399:184|448:228,1,110,2|4,3:2|0:1,0:0:0:0:
256,192,130362,12,0,135481,0:2:0:0:
