osu file format v14

[General]
AudioFilename: audio.mp3
AudioLeadIn: 0
PreviewTime: 102514
Countdown: 0
SampleSet: Soft
StackLeniency: 0.2
Mode: 0
LetterboxInBreaks: 0
WidescreenStoryboard: 1

[Editor]
DistanceSpacing: 0.5
BeatDivisor: 4
GridSize: 4
TimelineZoom: 1

[Metadata]
Title:breathe
TitleUnicode:breathe
Artist:qfeileadh
ArtistUnicode:qfeileadh
Creator:ktgster
Version:Extreme
Source:Lanota
Tags:Be-Music Source Script BMS THE OF FIGHTERS EXTREME VIOLENCE 2019 BOFXV19 Team Narratives まにゅ Maniyu のあ Noa Maeus Noxy Games Flyhigh Works Apple Google Nintendo Incorporated Company Limited Inc. Co. Ltd. iOS Android Switch NS narrative Progressive Math Pop Rock Video Game Videogame Japanese Instrumental novelty
BeatmapID:2463985
BeatmapSetID:1181778

[Difficulty]
HPDrainRate:5
CircleSize:5
OverallDifficulty:9
ApproachRate:9.2
SliderMultiplier:1.6
SliderTickRate:1

[Events]
//Background and Video events
0,0,"_title.png",0,0
//Break Periods
2,23191,24287
//Storyboard Layer 0 (Background)
//Storyboard Layer 1 (Fail)
//Storyboard Layer 2 (Pass)
//Storyboard Layer 3 (Foreground)
//Storyboard Layer 4 (Overlay)
//Storyboard Sound Samples

[TimingPoints]
1087,476.190476190476,3,2,1,60,1,0
2277,476.190476190476,3,2,1,60,1,0
4896,476.190476190476,4,2,1,60,1,0
6563,476.190476190476,3,2,1,60,1,0
7753,476.190476190476,3,2,1,60,1,0
10372,476.190476190476,4,2,1,60,1,0
12039,476.190476190476,3,2,1,60,1,0
13229,476.190476190476,3,2,1,60,1,0
15848,476.190476190476,4,2,1,60,1,0
17515,476.190476190476,3,2,1,60,1,0
18706,476.190476190476,3,2,1,60,1,0
21325,476.190476190476,4,2,1,60,1,0
22991,476.190476190476,5,2,1,60,1,0
25372,476.190476190476,6,2,1,60,1,0
28229,476.190476190476,5,2,1,60,1,0
30610,476.190476190476,6,2,1,60,1,0
33467,476.190476190476,5,2,1,60,1,0
35848,476.190476190476,6,2,1,60,1,0
38706,476.190476190476,5,2,1,60,1,0
38706,-200,5,2,1,60,0,0
39658,-100,5,2,1,60,0,0
41086,476.190476190476,6,2,1,60,1,0
43944,476.190476190476,7,2,1,60,1,0
46801,-50,7,2,1,60,0,0
47278,476.190476190476,6,2,1,60,1,0
50134,476.190476190476,7,2,1,60,1,0
50134,-133.333333333333,7,2,1,60,0,0
50610,-100,7,2,1,60,0,0
53467,476.190476190476,6,2,1,60,1,0
56325,476.190476190476,7,2,1,60,1,0
59658,476.190476190476,4,2,1,60,1,0
61563,476.190476190476,6,2,1,60,1,0
63944,-500,6,2,1,60,0,0
64182,-100,6,2,1,60,0,0
68229,476.190476190476,6,2,1,60,1,0
71086,476.190476190476,5,2,1,60,1,0
73467,476.190476190476,6,2,1,60,1,0
76325,476.190476190476,7,2,1,60,1,0
79658,476.190476190476,4,2,1,60,1,0
81563,476.190476190476,6,2,1,60,1,0
84420,-133.333333333333,6,2,1,60,0,0
84896,-100,6,2,1,60,0,0
87277,476.190476190476,5,2,1,60,1,0
89658,476.190476190476,6,2,1,60,1,0
92515,476.190476190476,7,2,1,60,1,0
95848,476.190476190476,4,2,1,60,1,0
97753,476.190476190476,6,2,1,60,1,0
103467,476.190476190476,3,2,1,60,1,0
104658,476.190476190476,3,2,1,60,1,0
107277,476.190476190476,4,2,1,60,1,0
108944,476.190476190476,3,2,1,60,1,0
110134,476.190476190476,3,2,1,60,1,0
112753,476.190476190476,4,2,1,60,1,0
114420,476.190476190476,3,2,1,60,1,0
115610,476.190476190476,3,2,1,60,1,0
118229,476.190476190476,4,2,1,60,1,0
119896,476.190476190476,3,2,1,60,1,0
121086,476.190476190476,3,2,1,60,1,0
123706,476.190476190476,4,2,1,60,1,0
125372,476.190476190476,3,2,1,60,1,0
126801,476.190476190476,7,2,1,60,1,0
129856,476.190476190476,7,2,1,60,1,0
130124,476.190476190476,6,2,1,60,1,0

[Colours]
Combo1 : 255,125,255
Combo2 : 166,166,0
Combo3 : 0,217,108

[HitObjects]
429,344,848,5,2,0:2:0:0:
429,344,908,2,0,L|452:348,2,20,0|0|0,0:2|0:2|0:2,0:2:0:0:
399,280,1087,6,0,L|385:358,1,80,4|0,0:2|0:2,0:2:0:0:
303,304,1444,5,2,0:2:0:0:
322,308,1563,1,2,0:2:0:0:
307,279,1682,1,0,0:2:0:0:
275,276,1801,1,2,0:2:0:0:
248,293,1920,1,0,0:2:0:0:
248,369,2039,5,2,0:2:0:0:
267,365,2158,1,0,0:2:0:0:
180,330,2277,5,10,0:2:0:0:
176,349,2396,1,0,0:2:0:0:
150,367,2515,1,0,0:2:0:0:
143,335,2634,1,2,0:2:0:0:
160,259,2753,5,2,0:2:0:0:
128,266,2872,1,0,0:2:0:0:
96,263,2991,1,2,0:2:0:0:
68,247,3110,1,0,0:2:0:0:
134,232,3229,5,10,0:2:0:0:
166,239,3348,1,0,0:2:0:0:
198,236,3467,1,0,0:2:0:0:
226,220,3586,1,2,0:2:0:0:
172,161,3706,5,8,0:2:0:0:
11,130,4063,5,2,0:2:0:0:
30,126,4182,2,0,L|38:76,1,40,2|0,0:2|0:2,0:2:0:0:
49,122,4420,2,0,L|57:72,1,40,2|0,0:2|0:2,0:2:0:0:
68,118,4658,2,0,L|76:68,1,40,2|0,0:2|0:2,0:2:0:0:
151,25,4896,5,8,0:2:0:0:
163,40,5015,1,0,0:2:0:0:
174,69,5134,1,0,0:2:0:0:
177,100,5253,1,2,0:2:0:0:
149,162,5372,5,2,0:2:0:0:
141,180,5491,1,0,0:2:0:0:
140,211,5610,1,2,0:2:0:0:
150,241,5729,1,0,0:2:0:0:
200,290,5848,5,10,0:2:0:0:
219,294,5967,1,0,0:2:0:0:
237,320,6086,1,0,0:2:0:0:
297,370,6206,5,4,0:2:0:0:
304,338,6325,1,0,0:2:0:0:
311,306,6444,1,0,0:2:0:0:
364,377,6563,5,4,0:1:0:0:
470,196,6920,5,2,0:2:0:0:
474,215,7039,2,0,L|424:207,1,40,2|0,0:2|0:2,0:2:0:0:
459,317,7277,5,2,0:2:0:0:
455,298,7396,1,0,0:2:0:0:
429,280,7515,1,2,0:2:0:0:
422,312,7634,1,0,0:2:0:0:
362,233,7753,5,10,0:2:0:0:
358,252,7872,1,0,0:2:0:0:
294,289,7991,5,0,0:2:0:0:
287,257,8110,1,2,0:2:0:0:
271,318,8229,1,2,0:2:0:0:
264,286,8348,1,0,0:2:0:0:
216,196,8467,5,2,0:2:0:0:
200,257,8586,1,0,0:2:0:0:
193,225,8706,1,10,0:2:0:0:
177,286,8825,1,0,0:2:0:0:
173,305,8944,1,0,0:2:0:0:
169,324,9063,1,2,0:2:0:0:
235,375,9182,5,10,0:2:0:0:
254,371,9301,1,0,0:2:0:0:
272,345,9420,1,0,0:2:0:0:
249,340,9539,1,2,0:2:0:0:
229,314,9658,1,2,0:2:0:0:
304,277,9777,5,0,3:2:0:0:
304,277,9836,1,0,3:2:0:0:
304,277,9896,1,8,0:2:0:0:
232,239,10015,5,0,3:2:0:0:
264,216,10134,1,8,0:2:0:0:
276,177,10253,1,0,0:2:0:0:
196,167,10372,5,4,0:1:0:0:
154,223,10491,1,0,3:2:0:0:
150,242,10610,1,0,3:2:0:0:
80,216,10729,5,4,0:0:0:0:
38,160,10848,1,0,3:2:0:0:
34,141,10967,1,0,3:2:0:0:
73,75,11086,5,4,3:1:0:0:
84,68,11166,1,0,3:2:0:0:
96,65,11245,1,0,3:2:0:0:
120,75,11325,5,2,3:2:0:0:
131,82,11404,1,0,3:2:0:0:
143,85,11483,1,0,3:2:0:0:
168,76,11563,5,8,3:2:0:0:
225,39,11682,1,0,3:2:0:0:
292,36,11801,1,10,3:2:0:0:
354,63,11920,1,0,3:2:0:0:
397,115,12039,5,4,0:1:0:0:
404,154,12158,1,0,3:2:0:0:
435,129,12277,1,0,0:2:0:0:
319,150,12396,5,10,3:2:0:0:
482,244,12634,5,8,0:2:0:0:
478,224,12753,1,8,0:2:0:0:
320,284,12991,6,0,P|343:291|358:306,1,40,2|0,3:2|0:2,0:2:0:0:
233,369,13229,5,8,0:2:0:0:
240,330,13348,1,0,3:2:0:0:
271,355,13467,1,0,0:2:0:0:
155,334,13586,5,10,3:2:0:0:
155,334,13825,1,8,0:2:0:0:
207,237,13944,5,10,0:2:0:0:
278,224,14063,1,0,3:2:0:0:
191,184,14182,5,2,3:2:0:0:
262,197,14301,1,8,0:2:0:0:
225,143,14420,5,2,3:2:0:0:
244,147,14539,1,0,3:2:0:0:
348,98,14658,5,0,0:2:0:0:
309,105,14777,1,8,0:2:0:0:
334,136,14896,1,0,0:2:0:0:
313,20,15015,5,2,3:2:0:0:
427,151,15253,5,8,0:2:0:0:
431,171,15372,1,8,0:2:0:0:
366,344,15610,5,8,0:2:0:0:
353,273,15729,1,0,3:2:0:0:
349,293,15848,1,8,0:2:0:0:
292,379,15967,5,0,3:2:0:0:
363,366,16086,1,0,3:2:0:0:
317,312,16206,1,8,0:2:0:0:
321,332,16325,1,0,3:2:0:0:
266,282,16444,5,8,2:2:0:0:
267,291,16503,1,8,2:2:0:0:
269,300,16563,1,0,3:2:0:0:
256,372,16682,1,8,0:2:0:0:
241,269,16801,5,8,2:2:0:0:
242,278,16860,1,8,2:2:0:0:
244,287,16920,1,8,2:2:0:0:
231,359,17039,1,8,0:2:0:0:
216,256,17158,5,8,2:2:0:0:
217,265,17217,1,8,2:2:0:0:
219,274,17277,1,8,2:2:0:0:
206,346,17396,1,0,3:2:0:0:
148,282,17515,5,4,0:1:0:0:
141,321,17634,1,0,3:2:0:0:
110,296,17753,1,0,0:2:0:0:
226,317,17872,5,2,3:2:0:0:
50,350,18110,5,8,0:2:0:0:
46,370,18229,1,8,0:2:0:0:
158,190,18467,5,2,3:2:0:0:
226,317,18706,5,8,0:2:0:0:
233,356,18825,1,0,3:2:0:0:
264,331,18944,1,0,0:2:0:0:
148,352,19063,5,2,3:2:0:0:
152,372,19182,1,0,0:2:0:0:
105,291,19301,5,8,0:2:0:0:
112,252,19420,1,8,0:2:0:0:
143,277,19539,1,0,3:2:0:0:
81,325,19658,5,0,3:2:0:0:
88,286,19777,1,8,0:2:0:0:
119,311,19896,1,2,3:2:0:0:
112,350,20015,1,0,3:2:0:0:
12,303,20134,5,4,3:2:0:0:
247,229,20372,5,0,3:2:0:0:
176,216,20491,1,0,3:2:0:0:
263,176,20610,5,0,3:2:0:0:
192,189,20729,1,0,3:2:0:0:
229,135,20848,5,0,3:2:0:0:
210,139,20967,5,8,0:2:0:0:
209,148,21027,1,0,3:2:0:0:
207,158,21086,1,0,3:2:0:0:
64,38,21325,5,4,0:2:0:0:
40,70,21444,1,0,0:2:0:0:
37,109,21563,1,0,0:2:0:0:
61,140,21682,1,0,0:2:0:0:
98,153,21801,1,0,0:2:0:0:
136,141,21920,1,0,0:2:0:0:
194,92,22039,5,2,0:2:0:0:
196,104,22118,1,2,0:2:0:0:
198,117,22198,1,2,0:2:0:0:
200,130,22277,1,2,0:2:0:0:
253,183,22396,5,0,0:2:0:0:
291,171,22515,1,0,0:2:0:0:
328,184,22634,1,0,0:2:0:0:
384,234,22753,5,2,0:2:0:0:
383,243,22813,1,2,0:2:0:0:
381,253,22872,1,2,0:2:0:0:
380,262,22932,1,2,0:2:0:0:
378,272,22991,1,4,0:1:0:0:
320,357,24896,5,0,3:2:0:0:
313,318,25015,1,0,0:2:0:0:
274,325,25134,1,8,0:2:0:0:
281,364,25253,1,0,3:2:0:0:
343,246,25372,5,4,0:1:0:0:
304,239,25491,1,0,3:2:0:0:
268,254,25610,1,0,0:2:0:0:
230,248,25729,1,0,3:2:0:0:
258,174,25848,5,0,0:2:0:0:
265,135,25967,1,0,3:2:0:0:
296,160,26086,1,8,0:2:0:0:
200,338,26325,5,0,3:2:0:0:
169,197,26563,5,10,3:2:0:0:
149,201,26682,1,0,0:2:0:0:
130,131,26801,5,2,0:2:0:0:
110,127,26920,1,0,3:2:0:0:
76,201,27039,5,10,0:2:0:0:
40,96,27158,1,0,3:2:0:0:
36,116,27277,1,2,0:2:0:0:
33,136,27396,1,0,3:2:0:0:
10,234,27515,5,8,0:2:0:0:
10,234,27753,1,0,3:2:0:0:
98,347,27991,5,8,0:2:0:0:
105,308,28110,1,0,3:2:0:0:
171,345,28229,5,8,0:2:0:0:
178,384,28348,1,0,3:2:0:0:
217,377,28467,1,0,0:2:0:0:
210,338,28586,1,0,3:2:0:0:
99,222,28825,5,0,3:2:0:0:
119,226,28944,1,8,0:2:0:0:
258,174,29182,1,0,3:2:0:0:
258,174,29420,1,8,0:2:0:0:
188,320,29658,5,2,0:2:0:0:
200,318,29737,1,0,0:2:0:0:
213,316,29817,1,0,0:2:0:0:
226,314,29896,1,8,0:2:0:0:
380,362,30134,5,2,3:2:0:0:
380,362,30372,1,8,0:2:0:0:
280,255,30610,5,4,0:2:0:0:
486,177,30848,5,0,0:2:0:0:
410,150,31007,1,2,0:2:0:0:
410,69,31166,1,2,0:2:0:0:
486,96,31325,1,2,0:2:0:0:
421,241,31563,5,0,0:2:0:0:
401,245,31682,1,0,0:2:0:0:
348,278,31801,5,0,0:2:0:0:
368,282,31920,1,0,0:2:0:0:
347,210,32039,5,2,0:2:0:0:
349,198,32118,1,0,0:2:0:0:
351,185,32198,1,0,0:2:0:0:
377,167,32277,5,2,0:2:0:0:
345,172,32356,1,2,0:2:0:0:
313,164,32436,1,2,0:2:0:0:
288,143,32515,1,6,0:2:0:0:
234,28,32753,5,10,0:2:0:0:
234,28,32813,1,0,0:2:0:0:
211,181,32991,5,2,3:2:0:0:
204,142,33110,1,8,0:2:0:0:
165,149,33229,1,0,3:2:0:0:
172,188,33348,1,0,3:2:0:0:
248,251,33467,5,4,0:1:0:0:
172,276,33626,1,0,3:2:0:0:
97,246,33785,1,0,0:2:0:0:
76,168,33944,5,0,3:2:0:0:
135,221,34102,1,0,0:2:0:0:
147,301,34261,1,0,3:2:0:0:
91,359,34420,5,8,0:2:0:0:
107,280,34579,1,0,3:2:0:0:
170,230,34737,1,8,0:2:0:0:
97,246,34896,5,0,0:2:0:0:
172,276,35055,1,0,0:2:0:0:
248,251,35213,1,8,0:2:0:0:
147,301,35372,5,0,3:2:0:0:
222,271,35531,1,8,0:2:0:0:
298,296,35690,1,0,0:2:0:0:
217,341,35848,5,4,0:2:0:0:
237,345,35967,1,0,3:2:0:0:
378,375,36206,1,0,3:2:0:0:
301,329,36325,5,0,0:2:0:0:
321,333,36444,1,0,3:2:0:0:
341,337,36563,1,8,0:2:0:0:
488,311,36801,1,0,3:2:0:0:
312,188,37039,5,8,0:2:0:0:
277,267,37158,1,0,3:2:0:0:
273,247,37277,1,2,0:2:0:0:
233,207,37396,5,0,3:2:0:0:
229,227,37515,1,10,0:2:0:0:
194,148,37634,1,0,3:2:0:0:
237,322,37872,5,0,3:2:0:0:
217,318,37991,1,8,0:2:0:0:
140,227,38229,1,0,3:2:0:0:
101,380,38467,5,8,0:2:0:0:
140,373,38586,1,0,3:2:0:0:
6,325,38706,6,0,B|38:341|66:313|66:305|90:281|126:305,1,120,4|0,0:1|0:2,0:2:0:0:
115,299,39658,1,0,0:2:0:0:
78,134,39896,5,0,0:2:0:0:
76,146,39975,1,0,0:2:0:0:
74,159,40055,1,0,0:2:0:0:
92,177,40134,5,2,0:2:0:0:
205,63,40372,1,6,0:2:0:0:
50,23,40610,1,2,0:2:0:0:
168,153,40848,5,8,0:2:0:0:
172,173,40967,1,0,3:2:0:0:
280,124,41086,5,4,0:1:0:0:
241,131,41206,1,0,3:2:0:0:
248,170,41325,1,0,0:2:0:0:
287,163,41444,1,0,3:2:0:0:
200,281,41682,5,0,3:2:0:0:
204,261,41801,1,8,0:2:0:0:
271,362,42039,1,0,3:2:0:0:
348,216,42277,5,8,0:2:0:0:
373,304,42396,5,0,3:2:0:0:
374,295,42456,1,0,3:2:0:0:
376,286,42515,1,0,3:2:0:0:
500,353,42674,5,8,0:2:0:0:
502,365,42753,1,8,0:2:0:0:
453,271,42912,5,8,0:2:0:0:
451,283,42991,1,4,3:2:0:0:
363,381,43229,5,8,0:2:0:0:
363,381,43289,1,0,0:2:0:0:
369,176,43467,5,6,0:2:0:0:
376,215,43586,1,8,0:2:0:0:
418,118,43706,5,0,3:2:0:0:
340,104,43825,1,0,3:2:0:0:
392,44,43944,5,2,1:2:0:0:
392,44,44420,1,2,1:2:0:0:
392,44,44896,1,2,1:2:0:0:
392,44,45372,1,2,1:2:0:0:
392,44,45610,1,2,1:2:0:0:
392,44,45848,1,2,1:2:0:0:
392,44,46086,1,2,1:2:0:0:
392,44,46325,1,6,1:2:0:0:
392,44,46503,1,6,1:2:0:0:
392,44,46682,1,6,1:2:0:0:
496,141,46801,5,2,3:2:0:0:
469,135,46880,1,0,3:2:0:0:
442,141,46960,1,0,3:2:0:0:
420,157,47039,1,0,3:2:0:0:
393,163,47118,1,0,3:2:0:0:
366,157,47188,2,0,L|362:136,3,20,2|2|2|4,3:2|3:2|3:2|3:1,3:2:0:0:
494,312,48706,5,0,0:2:0:0:
419,284,49182,1,0,0:2:0:0:
346,306,49420,5,0,0:2:0:0:
344,318,49499,1,0,0:2:0:0:
342,331,49579,1,0,0:2:0:0:
340,344,49658,1,0,0:2:0:0:
480,233,49896,5,8,0:2:0:0:
263,384,50134,6,0,B|231:400|203:372|203:364|179:340|143:364,1,120,4|0,0:2|0:2,0:2:0:0:
153,358,50848,1,0,3:2:0:0:
253,300,51086,5,0,3:2:0:0:
175,279,51325,1,0,0:2:0:0:
35,339,51563,5,4,0:2:0:0:
93,284,51721,1,2,0:2:0:0:
78,205,51880,1,2,0:2:0:0:
9,343,52039,5,2,0:2:0:0:
64,285,52198,1,0,0:2:0:0:
143,300,52356,1,2,0:2:0:0:
222,384,52515,5,0,3:2:0:0:
302,243,52753,5,0,3:2:0:0:
309,204,52872,1,8,0:2:0:0:
363,295,52991,5,0,3:2:0:0:
445,219,53110,5,0,3:2:0:0:
406,226,53229,1,0,3:2:0:0:
431,257,53348,1,0,3:2:0:0:
410,141,53467,5,6,0:2:0:0:
410,141,53785,1,0,3:2:0:0:
488,97,53944,5,2,3:2:0:0:
461,66,54063,1,2,0:2:0:0:
423,52,54182,1,2,0:2:0:0:
390,59,54261,1,2,3:2:0:0:
318,100,54420,5,2,0:2:0:0:
239,115,54579,1,0,3:2:0:0:
168,77,54737,1,0,3:2:0:0:
258,27,54896,5,4,0:1:0:0:
213,195,55134,5,0,3:2:0:0:
215,207,55213,1,0,3:2:0:0:
217,220,55293,1,0,3:2:0:0:
219,233,55372,1,2,3:2:0:0:
186,297,55491,1,0,0:2:0:0:
291,277,55610,5,2,0:2:0:0:
298,238,55729,1,0,3:2:0:0:
257,346,55848,5,10,0:2:0:0:
296,353,55967,1,0,3:2:0:0:
271,384,56086,1,2,3:2:0:0:
375,278,56325,5,4,0:1:0:0:
422,378,56563,5,0,0:2:0:0:
426,358,56682,1,8,0:2:0:0:
502,333,56801,5,0,0:2:0:0:
444,275,56920,5,0,3:2:0:0:
481,261,57039,1,0,0:2:0:0:
507,230,57158,1,8,0:2:0:0:
424,187,57277,5,4,3:2:0:0:
424,187,57515,1,8,0:2:0:0:
340,279,57753,5,8,0:2:0:0:
330,296,57872,1,0,0:2:0:0:
327,315,57991,1,0,0:2:0:0:
330,334,58110,1,8,0:2:0:0:
264,376,58229,5,2,3:2:0:0:
228,307,58348,5,0,3:2:0:0:
267,300,58467,1,0,3:2:0:0:
242,269,58586,1,8,0:2:0:0:
156,297,58706,5,0,3:2:0:0:
131,266,58825,1,0,3:2:0:0:
170,259,58944,1,8,0:2:0:0:
145,228,59063,1,0,0:2:0:0:
228,160,59182,5,2,3:2:0:0:
221,199,59301,1,8,0:2:0:0:
258,278,59420,5,0,3:2:0:0:
219,285,59539,1,0,3:2:0:0:
131,245,59658,5,4,0:2:0:0:
354,193,59896,5,2,0:2:0:0:
354,193,59975,1,0,3:2:0:0:
345,269,60134,5,0,3:2:0:0:
383,257,60253,1,8,0:2:0:0:
422,264,60372,1,0,3:2:0:0:
452,289,60491,1,0,3:2:0:0:
505,190,60610,5,2,3:2:0:0:
479,196,60690,1,0,3:2:0:0:
452,194,60769,1,8,0:2:0:0:
427,183,60848,1,8,0:2:0:0:
410,162,60928,1,8,0:2:0:0:
352,66,61086,5,2,3:2:0:0:
335,45,61166,1,0,3:2:0:0:
310,34,61245,1,0,0:2:0:0:
283,32,61325,1,0,0:2:0:0:
257,38,61404,1,8,0:2:0:0:
235,54,61483,1,8,0:2:0:0:
219,75,61563,5,12,0:2:0:0:
275,131,61682,1,0,0:2:0:0:
239,149,61801,1,0,3:2:0:0:
219,184,61920,1,0,3:2:0:0:
163,137,62039,5,8,0:2:0:0:
150,216,62158,5,0,3:2:0:0:
141,215,62217,1,0,3:2:0:0:
132,213,62277,1,0,3:2:0:0:
75,156,62396,1,0,0:2:0:0:
31,272,62515,5,10,0:2:0:0:
102,275,62634,1,0,3:2:0:0:
167,307,62753,1,0,3:2:0:0:
203,370,62872,1,0,3:2:0:0:
230,242,62991,5,8,1:2:0:0:
230,242,63348,1,10,1:2:0:0:
230,242,63706,1,10,1:2:0:0:
289,340,63944,6,0,L|285:359,1,16,4|2,0:2|0:2,0:2:0:0:
344,269,64301,5,0,2:2:0:0:
345,278,64360,1,0,2:2:0:0:
347,287,64420,1,4,0:1:0:0:
347,287,64896,5,8,3:2:0:0:
351,307,65015,1,0,0:2:0:0:
427,316,65134,5,0,3:2:0:0:
423,336,65253,1,0,0:2:0:0:
359,270,65372,5,8,3:2:0:0:
363,290,65491,1,0,0:2:0:0:
446,303,65610,5,0,3:2:0:0:
442,323,65729,1,0,0:2:0:0:
375,247,65848,5,4,3:1:0:0:
412,261,65967,1,0,3:2:0:0:
451,260,66086,1,8,3:2:0:0:
485,240,66206,1,0,3:2:0:0:
509,163,66325,5,8,3:2:0:0:
459,179,66444,1,0,3:2:0:0:
409,163,66563,1,8,3:2:0:0:
382,118,66682,1,0,3:2:0:0:
403,40,66801,5,8,3:2:0:0:
361,94,66920,1,0,3:2:0:0:
294,106,67039,1,8,3:2:0:0:
234,73,67158,1,0,3:2:0:0:
179,142,67277,5,8,0:2:0:0:
138,15,67436,5,2,0:2:0:0:
98,95,67594,1,2,0:2:0:0:
11,122,67753,1,2,0:2:0:0:
9,314,68229,6,0,P|86:307|142:380,1,160,4|0,0:1|0:2,0:2:0:0:
117,188,68944,5,0,3:2:0:0:
110,227,69063,1,0,3:2:0:0:
189,146,69182,5,8,0:2:0:0:
213,222,69340,1,2,0:2:0:0:
168,288,69499,1,2,0:2:0:0:
292,197,69658,5,2,3:2:0:0:
280,263,69777,1,8,0:2:0:0:
280,263,70015,1,0,3:2:0:0:
369,242,70134,5,8,0:2:0:0:
330,322,70253,1,0,3:2:0:0:
377,313,70372,1,0,3:2:0:0:
420,333,70491,1,0,3:2:0:0:
503,298,70610,5,2,3:2:0:0:
507,278,70729,1,8,0:2:0:0:
466,197,70848,5,2,3:2:0:0:
505,190,70967,1,0,3:2:0:0:
439,262,71086,5,4,0:0:0:0:
391,164,71206,5,2,0:2:0:0:
382,210,71325,1,2,0:2:0:0:
455,120,71444,5,8,0:2:0:0:
345,94,71563,5,10,0:2:0:0:
391,85,71682,1,0,3:2:0:0:
361,48,71801,1,0,3:2:0:0:
272,130,71920,5,8,0:2:0:0:
296,8,72039,5,10,0:2:0:0:
250,17,72158,1,0,3:2:0:0:
280,54,72277,1,0,3:2:0:0:
195,85,72396,5,8,0:2:0:0:
200,165,72515,5,2,3:2:0:0:
154,156,72634,1,8,0:2:0:0:
68,26,72872,5,0,3:2:0:0:
22,35,72991,1,10,0:2:0:0:
38,233,73229,5,0,3:2:0:0:
47,187,73348,1,0,3:2:0:0:
84,217,73467,1,4,0:1:0:0:
55,352,73706,5,4,0:2:0:0:
55,352,73944,1,4,0:2:0:0:
55,352,74182,1,0,3:2:0:0:
213,264,74420,5,8,0:2:0:0:
135,278,74579,1,2,0:2:0:0:
185,340,74737,1,2,0:2:0:0:
163,202,74896,5,14,0:2:0:0:
272,306,75134,5,0,3:2:0:0:
263,352,75253,1,0,3:2:0:0:
357,273,75372,5,0,3:2:0:0:
321,289,75491,1,0,3:2:0:0:
282,282,75610,1,0,3:2:0:0:
256,252,75729,1,0,3:2:0:0:
379,346,75848,5,6,3:2:0:0:
436,290,76007,1,2,0:2:0:0:
512,313,76166,1,2,0:2:0:0:
396,203,76325,5,12,0:2:0:0:
396,203,76563,1,2,0:2:0:0:
479,89,76801,5,8,0:2:0:0:
488,135,76920,1,0,3:2:0:0:
346,271,77158,5,8,0:2:0:0:
415,284,77277,1,4,3:2:0:0:
415,284,77515,1,8,0:2:0:0:
374,131,77753,1,8,0:2:0:0:
374,131,78110,5,8,0:2:0:0:
334,240,78229,5,12,0:2:0:0:
325,194,78348,1,0,3:2:0:0:
288,224,78467,1,0,3:2:0:0:
403,204,78586,5,8,0:2:0:0:
378,305,78706,5,0,3:2:0:0:
332,314,78825,1,0,3:2:0:0:
362,351,78944,1,10,0:2:0:0:
217,191,79182,5,0,3:2:0:0:
208,237,79301,1,8,0:2:0:0:
129,298,79420,5,2,3:2:0:0:
138,297,79479,1,0,3:2:0:0:
147,295,79539,1,0,3:2:0:0:
223,320,79658,1,4,0:2:0:0:
223,320,80015,5,0,3:2:0:0:
177,214,80134,1,0,0:2:0:0:
168,260,80253,1,0,3:2:0:0:
122,154,80372,1,0,3:2:0:0:
288,262,80610,5,2,3:2:0:0:
288,262,80848,1,8,0:2:0:0:
288,262,81086,1,10,0:2:0:0:
328,382,81325,5,0,3:2:0:0:
282,373,81444,1,0,3:2:0:0:
388,327,81563,1,12,0:2:0:0:
388,327,81801,5,0,3:2:0:0:
345,349,81920,1,0,3:2:0:0:
296,349,82039,1,8,0:2:0:0:
257,320,82158,1,0,3:2:0:0:
240,275,82277,1,0,3:2:0:0:
256,229,82396,1,0,3:2:0:0:
400,278,82515,5,10,0:2:0:0:
355,296,82634,1,0,3:2:0:0:
309,279,82753,1,0,3:2:0:0:
294,233,82872,1,0,3:2:0:0:
413,369,82991,5,12,0:2:0:0:
419,164,83229,5,0,3:2:0:0:
465,173,83348,1,0,3:2:0:0:
359,219,83467,1,12,0:2:0:0:
289,54,83706,5,0,3:2:0:0:
243,63,83825,1,0,3:2:0:0:
349,109,83944,1,12,0:2:0:0:
445,13,84182,5,0,3:2:0:0:
454,14,84241,1,0,3:2:0:0:
463,16,84301,1,0,3:2:0:0:
387,100,84420,6,0,B|419:84|447:112|447:120|471:144|507:120,1,120,4|4,0:1|0:2,0:2:0:0:
414,260,85134,5,0,3:2:0:0:
423,214,85253,1,0,3:2:0:0:
470,335,85372,5,8,0:2:0:0:
399,296,85531,1,2,0:2:0:0:
322,318,85690,1,2,0:2:0:0:
340,229,85848,5,6,3:2:0:0:
352,163,85967,1,8,0:2:0:0:
352,163,86206,1,0,3:2:0:0:
255,198,86325,5,8,0:2:0:0:
294,118,86444,1,0,3:2:0:0:
247,127,86563,1,0,3:2:0:0:
204,107,86682,1,0,3:2:0:0:
337,51,86801,5,2,3:2:0:0:
357,55,86920,1,8,0:2:0:0:
263,14,87039,5,2,3:2:0:0:
256,53,87158,1,0,3:2:0:0:
179,19,87277,5,4,0:0:0:0:
129,131,87396,5,2,0:2:0:0:
120,85,87515,1,2,0:2:0:0:
45,133,87634,5,8,0:2:0:0:
90,202,87753,5,10,0:2:0:0:
81,248,87872,1,0,3:2:0:0:
44,218,87991,1,0,3:2:0:0:
163,240,88110,5,8,0:2:0:0:
91,348,88229,5,10,0:2:0:0:
121,311,88348,1,0,3:2:0:0:
137,357,88467,1,0,3:2:0:0:
208,308,88586,5,8,0:2:0:0:
280,352,88706,5,2,3:2:0:0:
289,306,88825,1,8,0:2:0:0:
238,173,89063,5,0,3:2:0:0:
247,127,89182,1,10,0:2:0:0:
411,215,89420,5,0,3:2:0:0:
402,261,89539,1,0,3:2:0:0:
365,231,89658,1,4,0:1:0:0:
494,70,89896,5,4,0:2:0:0:
494,70,90134,1,4,0:2:0:0:
494,70,90372,1,0,3:2:0:0:
365,231,90610,5,8,0:2:0:0:
443,217,90769,1,2,0:2:0:0:
393,155,90928,1,2,0:2:0:0:
415,293,91086,5,14,0:2:0:0:
303,119,91325,5,0,3:2:0:0:
312,165,91444,1,0,3:2:0:0:
232,208,91563,5,0,3:2:0:0:
268,192,91682,1,0,3:2:0:0:
307,199,91801,1,0,3:2:0:0:
333,229,91920,1,0,3:2:0:0:
198,293,92039,5,6,3:2:0:0:
274,270,92198,1,6,3:2:0:0:
331,326,92356,1,6,3:2:0:0:
168,365,92515,5,12,0:2:0:0:
168,365,92753,1,2,0:2:0:0:
9,287,92991,5,8,0:2:0:0:
0,333,93110,1,0,3:2:0:0:
110,168,93348,5,8,0:2:0:0:
97,99,93467,1,4,3:2:0:0:
97,99,93706,1,8,0:2:0:0:
238,159,93944,1,8,0:2:0:0:
238,159,94301,5,8,0:2:0:0:
347,203,94420,5,12,0:2:0:0:
301,212,94539,1,0,3:2:0:0:
331,249,94658,1,0,3:2:0:0:
311,134,94777,5,8,0:2:0:0:
412,159,94896,5,0,3:2:0:0:
421,205,95015,1,0,3:2:0:0:
458,175,95134,1,8,0:2:0:0:
405,343,95372,5,2,3:2:0:0:
396,297,95491,1,8,0:2:0:0:
339,362,95610,5,2,3:2:0:0:
338,371,95670,1,0,3:2:0:0:
336,380,95729,1,0,3:2:0:0:
310,290,95848,1,4,0:2:0:0:
476,189,96206,5,0,3:2:0:0:
370,235,96325,1,0,0:2:0:0:
416,244,96444,1,0,3:2:0:0:
310,290,96563,1,0,3:2:0:0:
418,124,96801,5,6,3:2:0:0:
418,124,97039,1,8,0:2:0:0:
418,124,97277,1,10,0:2:0:0:
401,317,97515,5,0,3:2:0:0:
410,363,97634,1,0,3:2:0:0:
456,257,97753,1,12,0:2:0:0:
456,257,97991,5,0,3:2:0:0:
412,277,98110,1,0,3:2:0:0:
364,273,98229,1,8,0:2:0:0:
322,249,98348,1,0,3:2:0:0:
274,245,98467,1,0,3:2:0:0:
230,265,98586,1,0,3:2:0:0:
296,328,98706,5,10,0:2:0:0:
320,264,98825,1,0,3:2:0:0:
320,196,98944,1,0,3:2:0:0:
291,134,99063,1,0,3:2:0:0:
226,194,99182,5,12,0:2:0:0:
200,330,99420,5,0,3:2:0:0:
191,376,99539,1,0,3:2:0:0:
145,270,99658,1,12,0:2:0:0:
105,106,99896,5,0,3:2:0:0:
96,60,100015,1,0,3:2:0:0:
50,166,100134,1,12,0:2:0:0:
205,37,100372,5,0,3:2:0:0:
206,28,100432,1,0,3:2:0:0:
208,19,100491,1,0,3:2:0:0:
256,121,100610,5,12,0:2:0:0:
256,121,101086,1,8,0:2:0:0:
256,121,101325,1,0,3:2:0:0:
256,121,101563,1,8,0:2:0:0:
256,121,101801,1,0,3:2:0:0:
256,121,102039,5,12,0:2:0:0:
293,150,102158,1,0,3:2:0:0:
340,151,102277,1,8,0:2:0:0:
384,133,102396,1,0,3:2:0:0:
435,71,102515,5,12,0:2:0:0:
375,74,102634,1,0,3:2:0:0:
324,107,102753,1,8,0:2:0:0:
300,162,102872,1,0,3:2:0:0:
356,218,102991,5,12,0:2:0:0:
279,194,103110,1,0,3:2:0:0:
199,200,103229,1,8,0:2:0:0:
138,252,103348,1,0,3:2:0:0:
249,314,103467,5,4,0:1:0:0:
240,268,103586,1,0,3:2:0:0:
205,299,103706,1,0,0:2:0:0:
330,278,103825,5,2,3:2:0:0:
165,368,104063,5,8,0:2:0:0:
145,372,104182,1,8,0:2:0:0:
279,194,104420,5,0,3:2:0:0:
84,312,104658,5,8,0:2:0:0:
93,266,104777,1,0,3:2:0:0:
128,297,104896,1,0,0:2:0:0:
26,231,105015,5,2,3:2:0:0:
57,196,105134,1,0,3:2:0:0:
11,187,105253,1,8,0:2:0:0:
137,194,105372,5,8,0:2:0:0:
172,163,105491,1,0,3:2:0:0:
181,209,105610,1,0,3:2:0:0:
108,115,105729,5,8,0:2:0:0:
225,77,105848,5,0,3:2:0:0:
179,68,105967,1,0,3:2:0:0:
250,155,106086,5,0,0:2:0:0:
296,164,106206,1,8,0:2:0:0:
265,199,106325,1,0,0:2:0:0:
309,61,106444,5,2,3:2:0:0:
313,81,106563,1,0,0:2:0:0:
398,77,106682,5,8,0:2:0:0:
389,31,106801,1,8,0:2:0:0:
389,31,107039,5,8,0:2:0:0:
435,137,107158,1,0,3:2:0:0:
444,91,107277,1,8,0:2:0:0:
490,197,107396,5,0,3:2:0:0:
444,206,107515,1,0,3:2:0:0:
475,241,107634,1,8,0:2:0:0:
403,273,107753,5,0,3:2:0:0:
370,199,107872,5,0,3:2:0:0:
371,190,107932,1,0,3:2:0:0:
373,181,107991,1,8,2:2:0:0:
360,109,108110,1,0,3:2:0:0:
345,212,108229,5,8,2:2:0:0:
346,203,108289,1,8,2:2:0:0:
348,194,108348,1,8,2:2:0:0:
335,122,108467,5,8,0:2:0:0:
299,154,108586,1,0,3:2:0:0:
251,157,108706,1,8,0:2:0:0:
272,80,108825,5,0,3:2:0:0:
188,48,108944,5,4,0:1:0:0:
144,63,109063,1,0,3:2:0:0:
179,94,109182,1,0,0:2:0:0:
254,2,109301,5,2,3:2:0:0:
69,162,109539,5,8,0:2:0:0:
89,158,109658,1,8,0:2:0:0:
277,228,109896,5,0,3:2:0:0:
208,363,110134,5,8,0:2:0:0:
199,317,110253,1,0,3:2:0:0:
164,348,110372,1,0,0:2:0:0:
90,265,110491,5,2,3:2:0:0:
125,234,110610,1,0,0:2:0:0:
134,280,110729,1,8,0:2:0:0:
246,220,110848,5,8,0:2:0:0:
211,189,110967,1,0,3:2:0:0:
202,235,111086,1,0,3:2:0:0:
276,288,111206,5,8,0:2:0:0:
319,177,111325,5,0,3:2:0:0:
328,223,111444,1,0,3:2:0:0:
399,296,111563,5,0,0:2:0:0:
353,305,111682,1,8,0:2:0:0:
384,340,111801,1,0,0:2:0:0:
490,345,111920,5,2,3:2:0:0:
490,345,112158,5,8,0:2:0:0:
444,239,112277,1,8,0:2:0:0:
435,285,112396,1,0,0:2:0:0:
407,168,112515,5,8,0:2:0:0:
453,159,112634,1,0,3:2:0:0:
381,93,112753,5,12,0:2:0:0:
275,139,112872,1,0,3:2:0:0:
321,148,112991,1,0,3:2:0:0:
304,60,113110,5,12,0:2:0:0:
198,14,113229,1,0,3:2:0:0:
244,5,113348,1,0,3:2:0:0:
198,102,113467,5,0,3:2:0:0:
172,93,113547,1,8,0:2:0:0:
145,94,113626,1,8,0:2:0:0:
116,122,113706,5,8,0:2:0:0:
89,123,113785,1,8,0:2:0:0:
63,114,113864,1,8,0:2:0:0:
44,78,113944,5,8,3:2:0:0:
25,155,114063,1,0,3:2:0:0:
66,220,114182,1,8,3:2:0:0:
47,297,114301,1,0,3:2:0:0:
156,208,114420,5,4,0:1:0:0:
187,243,114539,1,0,3:2:0:0:
141,252,114658,1,0,0:2:0:0:
258,179,114777,5,2,3:2:0:0:
257,363,115015,5,8,0:2:0:0:
237,367,115134,1,8,0:2:0:0:
50,218,115372,5,0,3:2:0:0:
215,265,115610,5,8,0:2:0:0:
206,219,115729,1,0,3:2:0:0:
171,250,115848,1,0,0:2:0:0:
284,235,115967,5,2,3:2:0:0:
315,270,116086,1,0,3:2:0:0:
330,226,116206,1,8,0:2:0:0:
288,132,116325,5,8,0:2:0:0:
253,101,116444,1,0,3:2:0:0:
244,147,116563,1,0,3:2:0:0:
377,164,116682,5,8,0:2:0:0:
412,279,116801,5,0,3:2:0:0:
421,233,116920,1,0,3:2:0:0:
512,148,117039,5,0,0:2:0:0:
466,157,117158,1,8,0:2:0:0:
497,192,117277,1,0,0:2:0:0:
510,276,117396,5,2,3:2:0:0:
490,280,117515,1,0,0:2:0:0:
376,349,117634,5,8,0:2:0:0:
422,358,117753,1,8,0:2:0:0:
422,358,117991,5,8,0:2:0:0:
316,312,118110,1,0,3:2:0:0:
362,303,118229,1,8,0:2:0:0:
256,257,118348,5,0,3:2:0:0:
247,303,118467,1,0,3:2:0:0:
212,272,118586,1,8,0:2:0:0:
172,368,118706,5,0,3:2:0:0:
139,294,118825,5,0,3:2:0:0:
140,285,118884,1,0,3:2:0:0:
142,276,118944,1,8,2:2:0:0:
129,204,119063,1,0,3:2:0:0:
114,307,119182,5,8,2:2:0:0:
115,298,119241,1,8,2:2:0:0:
117,289,119301,1,8,2:2:0:0:
104,217,119420,5,8,0:2:0:0:
148,234,119539,1,0,3:2:0:0:
195,227,119658,1,8,0:2:0:0:
154,150,119777,5,0,3:2:0:0:
257,113,119896,5,4,0:1:0:0:
288,148,120015,1,0,3:2:0:0:
242,157,120134,1,0,0:2:0:0:
191,64,120253,5,2,3:2:0:0:
279,241,120491,5,8,0:2:0:0:
275,261,120610,1,8,0:2:0:0:
381,66,120848,5,0,3:2:0:0:
359,286,121086,5,8,0:2:0:0:
368,240,121206,1,0,3:2:0:0:
403,271,121325,1,0,0:2:0:0:
477,188,121444,5,2,3:2:0:0:
442,157,121563,1,0,0:2:0:0:
433,203,121682,1,8,0:2:0:0:
321,143,121801,5,8,0:2:0:0:
356,112,121920,1,0,3:2:0:0:
365,158,122039,1,0,3:2:0:0:
294,223,122158,5,8,0:2:0:0:
204,174,122277,5,0,3:2:0:0:
213,173,122336,1,0,3:2:0:0:
222,171,122396,1,0,3:2:0:0:
210,271,122515,5,4,0:1:0:0:
210,271,122753,1,0,3:2:0:0:
166,249,122872,1,0,3:2:0:0:
118,253,122991,1,0,3:2:0:0:
86,289,123110,1,0,3:2:0:0:
152,323,123229,5,0,3:2:0:0:
275,302,123348,5,8,2:2:0:0:
276,293,123408,1,8,2:2:0:0:
278,284,123467,1,0,3:2:0:0:
325,362,123586,5,0,0:2:0:0:
246,377,123706,1,4,0:1:0:0:
246,377,123944,5,0,0:2:0:0:
279,343,124063,1,2,0:2:0:0:
326,333,124182,1,2,0:2:0:0:
372,344,124301,1,2,0:2:0:0:
445,320,124420,5,2,0:2:0:0:
449,340,124539,1,0,0:2:0:0:
510,280,124658,5,2,0:2:0:0:
388,226,124777,5,0,0:2:0:0:
379,272,124896,1,2,0:2:0:0:
468,212,125015,5,2,0:2:0:0:
412,132,125134,5,2,2:2:0:0:
413,141,125194,1,0,2:2:0:0:
415,150,125253,1,0,2:2:0:0:
511,103,125372,5,4,1:2:0:0:
407,42,125531,1,2,1:2:0:0:
299,94,125690,1,2,1:2:0:0:
376,112,125848,5,0,1:2:0:0:
272,173,126007,1,2,1:2:0:0:
164,121,126166,1,0,1:2:0:0:
241,103,126325,5,0,1:2:0:0:
137,42,126483,1,2,1:2:0:0:
29,94,126642,1,2,1:2:0:0:
140,193,126801,5,2,1:2:0:0:
140,193,127277,1,2,1:2:0:0:
140,193,127753,1,2,1:2:0:0:
140,193,128229,1,2,1:2:0:0:
140,193,128467,1,2,1:2:0:0:
140,193,128706,1,2,1:2:0:0:
140,193,128944,1,2,1:2:0:0:
140,193,129182,1,6,1:2:0:0:
140,193,129360,1,6,1:2:0:0:
140,193,129539,1,6,3:2:0:0:
20,314,129658,5,2,3:2:0:0:
47,320,129717,1,2,3:2:0:0:
74,314,129777,1,2,3:2:0:0:
92,295,129856,5,2,3:2:0:0:
119,289,129916,1,2,3:2:0:0:
146,295,129975,1,2,3:2:0:0:
166,310,130034,1,2,3:2:0:0:
179,333,130124,5,4,0:1:0:0:
456,353,130362,5,0,0:2:0:0:
433,321,130481,1,0,0:2:0:0:
396,307,130600,1,0,0:2:0:0:
358,316,130719,1,0,0:2:0:0:
453,299,130838,5,0,0:2:0:0:
423,274,130957,1,0,0:2:0:0:
384,270,131076,1,0,0:2:0:0:
349,288,131196,1,0,0:2:0:0:
437,247,131314,5,0,0:2:0:0:
401,231,131434,1,0,0:2:0:0:
362,237,131553,1,0,0:2:0:0:
333,263,131672,1,0,0:2:0:0:
406,200,131791,5,0,0:2:0:0:
368,194,131910,1,0,0:2:0:0:
332,210,132029,1,0,0:2:0:0:
311,243,132148,1,0,0:2:0:0:
366,163,132267,5,0,0:2:0:0:
327,167,132386,1,0,0:2:0:0:
296,192,132505,1,0,0:2:0:0:
284,229,132624,1,0,0:2:0:0:
316,138,132743,5,0,0:2:0:0:
280,151,132862,1,0,0:2:0:0:
257,183,132981,1,0,0:2:0:0:
255,222,133100,1,0,0:2:0:0:
263,125,133219,5,0,0:2:0:0:
231,148,133338,1,0,0:2:0:0:
216,186,133457,1,0,0:2:0:0:
224,224,133576,1,0,0:2:0:0:
206,129,133696,5,0,0:2:0:0:
181,158,133815,1,0,0:2:0:0:
177,197,133934,1,0,0:2:0:0:
195,232,134053,1,0,0:2:0:0:
153,144,134172,5,0,0:2:0:0:
137,180,134291,1,0,0:2:0:0:
143,220,134410,1,0,0:2:0:0:
169,249,134529,1,0,0:2:0:0:
105,174,134648,5,0,0:2:0:0:
99,213,134767,1,0,0:2:0:0:
115,250,134886,1,0,0:2:0:0:
148,272,135005,1,0,0:2:0:0:
207,280,135124,1,2,0:2:0:0:
275,238,135243,1,2,0:2:0:0:
254,370,135481,5,0,0:2:0:0:
256,358,135541,1,0,0:2:0:0:
326,324,135660,1,0,0:2:0:0:
