osu file format v14

[General]
AudioFilename: audio.mp3
AudioLeadIn: 0
PreviewTime: 102514
Countdown: 0
SampleSet: Soft
StackLeniency: 0.3
Mode: 0
LetterboxInBreaks: 0
WidescreenStoryboard: 1

[Editor]
DistanceSpacing: 2
BeatDivisor: 4
GridSize: 4
TimelineZoom: 1

[Metadata]
Title:breathe
TitleUnicode:breathe
Artist:qfeileadh
ArtistUnicode:qfeileadh
Creator:ktgster
Version:Expert
Source:Lanota
Tags:Be-Music Source Script BMS THE OF FIGHTERS EXTREME VIOLENCE 2019 BOFXV19 Team Narratives まにゅ Maniyu のあ Noa Maeus Noxy Games Flyhigh Works Apple Google Nintendo Incorporated Company Limited Inc. Co. Ltd. iOS Android Switch NS narrative Progressive Math Pop Rock Video Game Videogame Japanese Instrumental novelty
BeatmapID:2484271
BeatmapSetID:1181778

[Difficulty]
HPDrainRate:5
CircleSize:5
OverallDifficulty:8.5
ApproachRate:9
SliderMultiplier:1.6
SliderTickRate:1

[Events]
//Background and Video events
0,0,"_title.png",0,0
//Break Periods
2,23191,24296
//Storyboard Layer 0 (Background)
//Storyboard Layer 1 (Fail)
//Storyboard Layer 2 (Pass)
//Storyboard Layer 3 (Foreground)
//Storyboard Layer 4 (Overlay)
//Storyboard Sound Samples

[TimingPoints]
1087,476.190476190476,3,2,1,60,1,0
2277,476.190476190476,3,2,1,60,1,0
4896,476.190476190476,4,2,1,60,1,0
6563,476.190476190476,3,2,1,60,1,0
7753,476.190476190476,3,2,1,60,1,0
10372,476.190476190476,4,2,1,60,1,0
12039,476.190476190476,3,2,1,60,1,0
13229,476.190476190476,3,2,1,60,1,0
15848,476.190476190476,4,2,1,60,1,0
17515,476.190476190476,3,2,1,60,1,0
18706,476.190476190476,3,2,1,60,1,0
21325,476.190476190476,4,2,1,60,1,0
22991,476.190476190476,5,2,1,60,1,0
25372,476.190476190476,6,2,1,60,1,0
28229,476.190476190476,5,2,1,60,1,0
30610,476.190476190476,6,2,1,60,1,0
33467,476.190476190476,5,2,1,60,1,0
35848,476.190476190476,6,2,1,60,1,0
38706,476.190476190476,5,2,1,60,1,0
38706,-200,5,2,1,60,0,0
39658,-100,5,2,1,60,0,0
41086,476.190476190476,6,2,1,60,1,0
43944,476.190476190476,7,2,1,60,1,0
46801,-50,7,2,1,60,0,0
47278,476.190476190476,6,2,1,60,1,0
50134,476.190476190476,7,2,1,60,1,0
50134,-133.333333333333,7,2,1,60,0,0
50610,-100,7,2,1,60,0,0
53467,476.190476190476,6,2,1,60,1,0
56325,476.190476190476,7,2,1,60,1,0
59658,476.190476190476,4,2,1,60,1,0
61563,476.190476190476,6,2,1,60,1,0
63944,-500,6,2,1,60,0,0
64182,-100,6,2,1,60,0,0
68229,476.190476190476,6,2,1,60,1,0
71086,476.190476190476,5,2,1,60,1,0
73467,476.190476190476,6,2,1,60,1,0
76325,476.190476190476,7,2,1,60,1,0
79658,476.190476190476,4,2,1,60,1,0
81563,476.190476190476,6,2,1,60,1,0
84420,-133.333333333333,6,2,1,60,0,0
84896,-100,6,2,1,60,0,0
87277,476.190476190476,5,2,1,60,1,0
89658,476.190476190476,6,2,1,60,1,0
92515,476.190476190476,7,2,1,60,1,0
95848,476.190476190476,4,2,1,60,1,0
97753,476.190476190476,6,2,1,60,1,0
103467,476.190476190476,3,2,1,60,1,0
104658,476.190476190476,3,2,1,60,1,0
107277,476.190476190476,4,2,1,60,1,0
108944,476.190476190476,3,2,1,60,1,0
110134,476.190476190476,3,2,1,60,1,0
112753,476.190476190476,4,2,1,60,1,0
114420,476.190476190476,3,2,1,60,1,0
115610,476.190476190476,3,2,1,60,1,0
118229,476.190476190476,4,2,1,60,1,0
119896,476.190476190476,3,2,1,60,1,0
121086,476.190476190476,3,2,1,60,1,0
123706,476.190476190476,4,2,1,60,1,0
125372,476.190476190476,3,2,1,60,1,0
126801,476.190476190476,7,2,1,60,1,0
129856,476.190476190476,7,2,1,60,1,0
130124,476.190476190476,6,2,1,60,1,0

[Colours]
Combo1 : 255,125,255
Combo2 : 166,166,0
Combo3 : 0,217,108

[HitObjects]
410,77,848,6,0,L|406:54,3,20,2|0|0|0,0:2|0:2|0:2|0:2,0:2:0:0:
474,107,1087,6,0,L|396:121,1,80,4|0,0:2|0:2,0:2:0:0:
335,95,1444,5,2,0:2:0:0:
331,113,1563,1,2,0:2:0:0:
300,105,1682,1,0,0:2:0:0:
281,78,1801,1,2,0:2:0:0:
279,46,1920,1,0,0:2:0:0:
299,21,2039,2,0,L|342:28,1,40,2|0,0:2|0:2,0:0:0:0:
201,20,2277,5,10,0:2:0:0:
206,50,2396,2,0,L|162:57,1,40,0|0,0:2|0:2,0:0:0:0:
231,145,2634,5,2,0:2:0:0:
227,127,2753,1,2,0:2:0:0:
195,135,2872,1,0,0:2:0:0:
176,162,2991,1,2,0:2:0:0:
174,194,3110,1,0,0:2:0:0:
194,219,3229,2,0,L|237:211,2,40,10|0|0,0:2|0:2|0:2,0:0:0:0:
227,284,3586,5,2,0:2:0:0:
223,302,3706,1,8,0:2:0:0:
11,254,4063,5,2,0:2:0:0:
30,258,4182,2,0,L|38:308,1,40,2|0,0:2|0:2,0:2:0:0:
49,262,4420,2,0,L|57:312,1,40,2|0,0:2|0:2,0:2:0:0:
68,266,4658,2,0,L|76:316,1,40,2|0,0:2|0:2,0:2:0:0:
137,219,4896,5,8,0:2:0:0:
152,207,5015,1,0,0:2:0:0:
181,196,5134,1,0,0:2:0:0:
212,193,5253,1,2,0:2:0:0:
196,230,5372,5,2,0:2:0:0:
214,238,5491,1,0,0:2:0:0:
245,239,5610,1,2,0:2:0:0:
275,229,5729,1,0,0:2:0:0:
303,258,5848,6,0,L|295:301,2,40,10|0|0,0:2|0:2|0:2,0:0:0:0:
362,199,6206,5,4,0:2:0:0:
369,231,6325,1,0,0:2:0:0:
376,263,6444,1,0,0:2:0:0:
447,306,6563,5,4,0:1:0:0:
499,113,6920,5,2,0:2:0:0:
503,94,7039,2,0,L|453:102,1,40,2|0,0:2|0:2,0:2:0:0:
483,209,7277,5,2,0:2:0:0:
479,190,7396,1,0,0:2:0:0:
453,172,7515,1,2,0:2:0:0:
446,204,7634,1,0,0:2:0:0:
393,247,7753,5,10,0:2:0:0:
389,265,7872,1,0,0:2:0:0:
358,257,7991,1,0,0:2:0:0:
339,230,8110,1,2,0:2:0:0:
337,198,8229,1,2,0:2:0:0:
357,173,8348,1,0,0:2:0:0:
413,128,8467,5,2,0:2:0:0:
433,103,8586,1,0,0:2:0:0:
431,71,8706,1,10,0:2:0:0:
412,44,8825,1,0,0:2:0:0:
381,36,8944,1,0,0:2:0:0:
377,54,9063,1,2,0:2:0:0:
351,122,9182,5,10,0:2:0:0:
347,141,9301,1,0,0:2:0:0:
321,159,9420,1,0,0:2:0:0:
316,136,9539,1,2,0:2:0:0:
290,116,9658,1,2,0:2:0:0:
239,64,9777,6,0,L|243:39,2,20,0|0|8,3:2|3:2|0:2,0:2:0:0:
212,131,10015,1,0,3:2:0:0:
187,151,10134,1,8,0:2:0:0:
155,149,10253,1,0,0:2:0:0:
96,107,10372,5,4,0:1:0:0:
77,103,10491,2,0,L|85:153,1,40,0|0,3:2|3:2,0:2:0:0:
76,214,10729,5,4,0:0:0:0:
57,210,10848,2,0,L|65:260,1,40,0|0,3:2|3:2,0:2:0:0:
116,305,11086,5,4,3:1:0:0:
127,312,11166,1,0,3:2:0:0:
139,315,11245,1,0,3:2:0:0:
163,305,11325,5,2,3:2:0:0:
174,298,11404,1,0,3:2:0:0:
186,295,11483,1,0,3:2:0:0:
211,304,11563,6,0,L|219:354,1,40,8|0,3:2|3:2,0:2:0:0:
243,190,11801,2,0,L|251:240,1,40,10|0,3:2|3:2,0:2:0:0:
344,313,12039,5,4,0:1:0:0:
305,319,12158,2,0,L|313:269,1,40,0|0,3:2|0:2,0:2:0:0:
333,382,12396,1,10,3:2:0:0:
363,217,12634,5,8,0:2:0:0:
363,217,12753,1,8,0:2:0:0:
485,288,12991,6,0,P|465:296|435:296,1,40,2|0,3:2|0:2,0:2:0:0:
468,133,13229,5,8,0:2:0:0:
462,172,13348,2,0,L|512:164,1,40,0|0,3:2|0:2,0:2:0:0:
399,144,13586,1,10,3:2:0:0:
399,144,13825,1,8,0:2:0:0:
338,196,13944,5,10,0:2:0:0:
325,125,14063,1,0,3:2:0:0:
285,212,14182,5,2,3:2:0:0:
298,141,14301,1,8,0:2:0:0:
244,178,14420,5,2,3:2:0:0:
248,159,14539,1,0,3:2:0:0:
187,113,14658,5,0,0:2:0:0:
148,119,14777,2,0,L|156:69,1,40,8|0,0:2|0:2,0:2:0:0:
176,182,15015,1,2,3:2:0:0:
229,272,15253,5,8,0:2:0:0:
229,272,15372,1,8,0:2:0:0:
17,188,15610,5,8,0:2:0:0:
30,117,15729,2,0,L|38:167,1,40,0|8,3:2|0:2,0:2:0:0:
82,256,15967,5,0,3:2:0:0:
95,185,16086,1,0,3:2:0:0:
99,204,16206,1,8,0:2:0:0:
155,261,16325,5,0,3:2:0:0:
168,190,16444,2,0,L|173:226,2,20,8|8|0,2:2|2:2|3:2,0:2:0:0:
228,266,16682,5,8,0:2:0:0:
241,195,16801,2,0,L|246:231,2,20,8|8|8,2:2|2:2|2:2,0:2:0:0:
299,271,17039,5,8,0:2:0:0:
312,200,17158,2,0,L|317:236,2,20,8|8|8,2:2|2:2|2:2,0:2:0:0:
371,276,17396,1,0,3:2:0:0:
400,208,17515,5,4,0:1:0:0:
439,202,17634,2,0,L|431:252,1,40,0|0,3:2|0:2,0:2:0:0:
411,139,17872,1,2,3:2:0:0:
475,319,18110,5,8,0:2:0:0:
475,319,18229,1,8,0:2:0:0:
512,91,18467,1,2,3:2:0:0:
345,172,18706,5,8,0:2:0:0:
351,211,18825,2,0,L|301:203,1,40,0|0,3:2|0:2,0:2:0:0:
414,183,19063,2,0,L|422:233,1,40,2|0,3:2|0:2,0:2:0:0:
340,322,19301,5,8,0:2:0:0:
347,283,19420,1,8,0:2:0:0:
378,308,19539,1,0,3:2:0:0:
316,356,19658,5,0,3:2:0:0:
323,317,19777,1,8,0:2:0:0:
354,342,19896,2,0,L|362:392,1,40,2|0,3:2|3:2,0:2:0:0:
247,334,20134,5,4,3:2:0:0:
137,176,20372,5,0,3:2:0:0:
150,247,20491,1,0,3:2:0:0:
190,160,20610,5,0,3:2:0:0:
177,231,20729,1,0,3:2:0:0:
231,194,20848,5,0,3:2:0:0:
227,213,20967,2,0,L|222:238,2,20,8|0|0,0:2|3:2|3:2,0:2:0:0:
64,346,21325,5,4,0:2:0:0:
40,314,21444,1,0,0:2:0:0:
37,275,21563,1,0,0:2:0:0:
61,244,21682,1,0,0:2:0:0:
98,231,21801,1,0,0:2:0:0:
136,243,21920,1,0,0:2:0:0:
164,271,22039,5,2,0:2:0:0:
166,259,22118,1,2,0:2:0:0:
168,246,22198,1,2,0:2:0:0:
170,233,22277,1,2,0:2:0:0:
198,204,22396,5,0,0:2:0:0:
236,216,22515,1,0,0:2:0:0:
273,203,22634,1,0,0:2:0:0:
299,172,22753,2,0,L|304:147,4,20,2|2|2|2|4,0:2|0:2|0:2|0:2|0:1,0:2:0:0:
334,250,24896,6,0,L|326:300,1,40,0|0,3:2|0:2,0:2:0:0:
297,356,25134,1,8,0:2:0:0:
336,363,25253,1,0,3:2:0:0:
407,345,25372,5,4,0:1:0:0:
414,384,25491,1,0,3:2:0:0:
507,271,25729,1,0,3:2:0:0:
443,239,25848,5,0,0:2:0:0:
436,278,25967,1,0,3:2:0:0:
405,253,26086,1,8,0:2:0:0:
220,363,26325,5,0,3:2:0:0:
309,267,26563,5,10,3:2:0:0:
289,271,26682,1,0,0:2:0:0:
270,201,26801,5,2,0:2:0:0:
250,197,26920,1,0,3:2:0:0:
216,271,27039,5,10,0:2:0:0:
180,166,27158,2,0,L|172:216,1,40,0|2,3:2|0:2,0:2:0:0:
150,304,27396,1,0,3:2:0:0:
150,304,27515,5,8,0:2:0:0:
99,157,27753,1,0,3:2:0:0:
72,344,27991,1,8,0:2:0:0:
65,383,28110,1,0,3:2:0:0:
36,279,28229,5,8,0:2:0:0:
75,272,28348,2,0,L|83:222,1,40,0|0,3:2|0:2,0:2:0:0:
0,352,28586,1,0,3:2:0:0:
157,215,28825,5,0,3:2:0:0:
153,235,28944,1,8,0:2:0:0:
203,364,29182,5,0,3:2:0:0:
203,364,29420,1,8,0:2:0:0:
282,252,29658,5,2,0:2:0:0:
270,250,29737,1,0,0:2:0:0:
257,248,29817,1,0,0:2:0:0:
244,246,29896,1,8,0:2:0:0:
320,340,30134,1,2,3:2:0:0:
320,340,30372,1,8,0:2:0:0:
380,176,30610,5,4,0:2:0:0:
460,371,30848,5,0,0:2:0:0:
433,295,31007,1,2,0:2:0:0:
493,241,31166,1,2,0:2:0:0:
466,165,31325,1,2,0:2:0:0:
323,298,31563,6,0,L|317:338,1,40,0|0,0:2|0:2,0:2:0:0:
288,188,31801,2,0,L|281:227,1,40,0|0,0:2|0:2,0:2:0:0:
234,323,32039,5,2,0:2:0:0:
222,325,32118,1,0,0:2:0:0:
209,327,32198,1,0,0:2:0:0:
191,353,32277,5,2,0:2:0:0:
196,321,32356,1,2,0:2:0:0:
188,289,32436,1,2,0:2:0:0:
167,264,32515,1,6,0:2:0:0:
8,154,32753,5,10,0:2:0:0:
187,50,32991,5,2,3:2:0:0:
180,11,33110,1,8,0:2:0:0:
141,18,33229,1,0,3:2:0:0:
148,57,33348,1,0,3:2:0:0:
224,120,33467,5,4,0:1:0:0:
148,145,33626,1,0,3:2:0:0:
73,115,33785,1,0,0:2:0:0:
48,38,33944,6,0,P|70:50|86:71,1,53.3333333333333,0|0,3:2|0:2,0:2:0:0:
118,146,34261,1,0,3:2:0:0:
79,216,34420,5,8,0:2:0:0:
94,138,34579,1,0,3:2:0:0:
157,88,34737,1,8,0:2:0:0:
126,161,34896,6,0,P|119:186|122:212,1,53.3333333333333,0|0,0:2|0:2,0:2:0:0:
143,290,35213,1,8,0:2:0:0:
78,337,35372,5,0,3:2:0:0:
154,312,35531,1,8,0:2:0:0:
229,342,35690,1,0,0:2:0:0:
299,305,35848,5,4,0:2:0:0:
319,309,35967,1,0,3:2:0:0:
446,293,36206,6,0,L|486:299,1,40,0|0,3:2|0:2,0:2:0:0:
389,251,36444,1,0,3:2:0:0:
408,254,36563,1,8,0:2:0:0:
511,146,36801,1,0,3:2:0:0:
310,197,37039,5,8,0:2:0:0:
297,268,37158,2,0,L|290:221,1,40,0|2,3:2|0:2,0:2:0:0:
232,156,37396,5,0,3:2:0:0:
228,176,37515,1,10,0:2:0:0:
215,105,37634,1,0,3:2:0:0:
199,256,37872,5,0,3:2:0:0:
219,260,37991,1,8,0:2:0:0:
132,157,38229,1,0,3:2:0:0:
122,327,38467,5,8,0:2:0:0:
129,366,38586,1,0,3:2:0:0:
203,335,38706,6,0,B|235:319|263:347|263:355|287:379|323:355,1,120,4|0,0:1|0:2,0:2:0:0:
312,360,39658,1,0,0:2:0:0:
357,234,39896,5,0,0:2:0:0:
345,232,39975,1,0,0:2:0:0:
332,230,40055,1,0,0:2:0:0:
319,228,40134,5,2,0:2:0:0:
433,341,40372,1,6,0:2:0:0:
473,186,40610,1,2,0:2:0:0:
358,58,40848,5,8,0:2:0:0:
362,78,40967,1,0,3:2:0:0:
322,158,41086,5,4,0:1:0:0:
328,197,41206,2,0,L|278:189,1,40,0|0,3:2|0:2,0:2:0:0:
391,169,41444,1,0,3:2:0:0:
300,270,41682,5,0,3:2:0:0:
304,290,41801,1,8,0:2:0:0:
201,363,42039,1,0,3:2:0:0:
238,208,42277,5,8,0:2:0:0:
309,195,42396,2,0,L|273:190,2,20,0|0|0,3:2|3:2|3:2,0:2:0:0:
196,124,42674,5,8,0:2:0:0:
198,136,42753,1,8,0:2:0:0:
356,94,42912,5,8,0:2:0:0:
354,106,42991,1,4,3:2:0:0:
256,21,43229,5,8,0:2:0:0:
297,186,43467,5,6,0:2:0:0:
336,193,43586,1,8,0:2:0:0:
387,250,43706,5,0,3:2:0:0:
426,243,43825,1,0,3:2:0:0:
474,164,43944,5,2,1:2:0:0:
474,164,44420,1,2,1:2:0:0:
474,164,44896,1,2,1:2:0:0:
474,164,45372,1,2,1:2:0:0:
474,164,45610,1,2,1:2:0:0:
474,164,45848,1,2,1:2:0:0:
474,164,46086,1,2,1:2:0:0:
413,59,46325,5,6,1:2:0:0:
413,59,46503,1,6,1:2:0:0:
413,59,46682,1,6,1:2:0:0:
358,141,46801,5,2,3:2:0:0:
344,144,46880,1,0,3:2:0:0:
330,142,46960,1,0,3:2:0:0:
317,136,47039,1,0,3:2:0:0:
305,128,47118,1,0,3:2:0:0:
299,117,47188,2,0,L|295:96,3,20,2|2|2|4,3:2|3:2|3:2|3:1,3:2:0:0:
18,312,48706,5,0,0:2:0:0:
93,284,49182,1,0,0:2:0:0:
166,306,49420,5,0,0:2:0:0:
168,318,49499,1,0,0:2:0:0:
170,331,49579,1,0,0:2:0:0:
172,344,49658,1,0,0:2:0:0:
32,233,49896,5,8,0:2:0:0:
249,384,50134,6,0,B|281:400|309:372|309:364|333:340|369:364,1,120.000004577637,4|0,0:2|0:2,0:2:0:0:
359,358,50848,1,0,3:3:0:0:
253,300,51086,5,0,3:2:0:0:
253,300,51325,1,0,0:2:0:0:
419,200,51563,5,4,0:2:0:0:
364,142,51721,1,2,0:2:0:0:
285,157,51880,1,2,0:2:0:0:
291,236,52039,5,2,0:2:0:0:
306,157,52198,1,0,0:2:0:0:
248,102,52356,1,2,0:2:0:0:
218,176,52515,5,0,3:2:0:0:
151,20,52753,5,0,3:2:0:0:
144,59,52872,1,8,0:2:0:0:
110,129,52991,5,0,3:2:0:0:
149,136,53110,1,0,3:2:0:0:
142,175,53229,1,0,3:2:0:0:
103,168,53348,1,0,3:2:0:0:
28,133,53467,5,6,0:2:0:0:
28,133,53785,1,0,3:2:0:0:
0,211,53944,5,2,3:2:0:0:
31,238,54063,1,2,0:2:0:0:
45,276,54182,1,2,0:2:0:0:
38,309,54261,1,2,3:2:0:0:
105,356,54420,5,2,0:2:0:0:
124,278,54579,1,0,3:2:0:0:
189,229,54737,1,0,3:2:0:0:
267,244,54896,5,4,0:1:0:0:
130,139,55134,5,0,3:2:0:0:
128,151,55213,1,0,3:2:0:0:
126,164,55293,1,0,3:2:0:0:
124,177,55372,1,2,3:2:0:0:
151,43,55610,5,2,0:2:0:0:
112,36,55729,1,0,3:2:0:0:
220,77,55848,5,10,0:2:0:0:
227,38,55967,1,0,3:2:0:0:
258,63,56086,1,2,3:2:0:0:
189,229,56325,5,4,0:1:0:0:
318,130,56563,2,0,L|311:177,1,40,0|8,0:2|0:2,0:2:0:0:
368,226,56801,1,0,0:2:0:0:
293,269,56920,5,0,3:2:0:0:
330,283,57039,1,0,0:2:0:0:
356,314,57158,1,8,0:2:0:0:
286,352,57277,5,4,3:2:0:0:
249,196,57515,1,8,0:2:0:0:
185,301,57753,2,0,L|178:348,3,40,8|0|0|8,0:2|0:2|0:2|0:2,0:2:0:0:
106,374,58229,5,2,3:2:0:0:
57,310,58348,5,0,3:2:0:0:
94,296,58467,1,0,3:2:0:0:
120,265,58586,1,8,0:2:0:0:
142,188,58706,5,0,3:2:0:0:
168,219,58825,1,0,3:2:0:0:
205,233,58944,1,8,0:2:0:0:
370,315,59182,5,2,3:2:0:0:
331,322,59301,1,8,0:2:0:0:
256,351,59420,2,0,L|249:304,1,40,0|0,3:2|3:2,0:2:0:0:
334,240,59658,5,4,0:2:0:0:
218,146,59896,5,2,0:2:0:0:
218,146,59975,1,0,3:2:0:0:
300,105,60134,6,0,L|305:144,1,40,0|8,3:2|0:2,0:2:0:0:
266,35,60372,1,0,3:2:0:0:
305,28,60491,1,0,3:2:0:0:
381,122,60610,5,2,3:2:0:0:
383,135,60690,1,0,3:2:0:0:
385,148,60769,1,8,0:2:0:0:
387,161,60848,1,8,0:2:0:0:
389,174,60928,1,8,0:2:0:0:
449,309,61086,5,2,3:2:0:0:
451,296,61166,1,0,3:2:0:0:
453,283,61245,1,0,0:2:0:0:
455,270,61325,1,0,0:2:0:0:
457,258,61404,1,8,0:2:0:0:
459,245,61483,1,8,0:2:0:0:
461,232,61563,1,12,0:2:0:0:
323,290,61801,5,0,3:2:0:0:
362,283,61920,1,0,3:2:0:0:
268,342,62039,5,8,0:2:0:0:
255,271,62158,2,0,L|250:307,2,20,0|0|0,3:2|3:2|3:2,0:2:0:0:
199,357,62396,1,0,0:2:0:0:
205,215,62515,5,10,0:2:0:0:
173,251,62634,1,0,3:2:0:0:
127,265,62753,1,0,3:2:0:0:
80,254,62872,1,0,3:2:0:0:
0,187,62991,5,8,1:2:0:0:
0,187,63348,1,10,1:2:0:0:
0,187,63706,1,10,1:2:0:0:
54,332,63944,6,0,L|50:351,1,16,4|2,0:2|0:2,0:2:0:0:
132,179,64301,6,0,L|127:143,2,20,0|0|4,2:2|2:2|0:1,0:2:0:0:
132,179,64896,6,0,L|139:226,1,40,8|0,3:2|0:2,0:2:0:0:
235,231,65134,2,0,L|228:278,1,40,0|0,3:2|0:2,0:2:0:0:
145,194,65372,6,0,L|152:241,1,40,8|0,3:2|0:2,0:2:0:0:
248,246,65610,2,0,L|241:293,1,40,0|0,3:2|0:2,0:2:0:0:
122,322,65848,5,4,3:1:0:0:
156,302,65967,1,0,3:2:0:0:
195,300,66086,1,8,3:2:0:0:
229,319,66206,1,0,3:2:0:0:
299,362,66325,5,8,3:2:0:0:
339,384,66444,1,0,3:2:0:0:
386,382,66563,1,8,3:2:0:0:
427,358,66682,1,0,3:2:0:0:
453,275,66801,5,8,3:2:0:0:
421,228,66920,1,0,3:2:0:0:
367,212,67039,1,8,3:2:0:0:
312,226,67158,1,0,3:2:0:0:
249,314,67277,5,8,0:2:0:0:
206,180,67436,5,2,0:2:0:0:
166,260,67594,1,2,0:2:0:0:
79,287,67753,1,2,0:2:0:0:
9,70,68229,6,0,P|86:77|142:4,1,160,4|0,0:1|0:2,0:2:0:0:
108,197,68944,5,0,3:2:0:0:
101,158,69063,1,0,3:2:0:0:
162,106,69182,5,8,0:2:0:0:
204,174,69340,1,2,0:2:0:0:
169,246,69499,1,2,0:2:0:0:
226,303,69658,5,2,3:2:0:0:
265,296,69777,1,8,0:2:0:0:
394,165,70015,5,0,3:2:0:0:
355,172,70134,1,8,0:2:0:0:
352,247,70253,5,0,3:2:0:0:
313,235,70372,1,0,3:2:0:0:
287,204,70491,1,0,3:2:0:0:
289,111,70610,6,0,L|336:104,1,40,2|8,3:2|0:2,0:2:0:0:
210,107,70848,5,2,3:2:0:0:
217,146,70967,1,0,3:2:0:0:
158,200,71086,5,4,0:0:0:0:
236,245,71206,2,0,L|196:239,1,40,2|2,0:2|0:2,0:2:0:0:
129,283,71444,1,8,0:2:0:0:
201,351,71563,5,10,0:2:0:0:
208,312,71682,1,0,3:2:0:0:
247,319,71801,1,0,3:2:0:0:
240,358,71920,1,8,0:2:0:0:
321,333,72039,5,10,0:2:0:0:
328,294,72158,1,0,3:2:0:0:
367,301,72277,1,0,3:2:0:0:
360,340,72396,1,8,0:2:0:0:
445,301,72515,5,2,3:2:0:0:
438,262,72634,1,8,0:2:0:0:
333,156,72872,5,0,3:2:0:0:
326,195,72991,1,10,0:2:0:0:
208,312,73229,5,0,3:2:0:0:
214,272,73348,1,0,3:2:0:0:
244,297,73467,1,4,0:1:0:0:
91,380,73706,5,4,0:2:0:0:
91,380,73944,1,4,0:2:0:0:
91,380,74182,1,0,3:2:0:0:
6,223,74420,5,8,0:2:0:0:
74,265,74579,1,2,0:2:0:0:
146,230,74737,1,2,0:2:0:0:
214,272,74896,5,14,0:2:0:0:
100,343,75134,1,0,3:2:0:0:
137,328,75253,1,0,3:2:0:0:
176,335,75372,1,0,3:2:0:0:
208,357,75491,1,0,3:2:0:0:
247,363,75610,1,0,3:2:0:0:
284,349,75729,1,0,3:2:0:0:
284,269,75848,5,6,3:2:0:0:
361,246,76007,1,2,0:2:0:0:
422,298,76166,1,2,0:2:0:0:
499,275,76325,5,12,0:2:0:0:
499,275,76563,1,2,0:2:0:0:
446,147,76801,5,8,0:2:0:0:
439,186,76920,1,0,3:2:0:0:
458,62,77158,5,8,0:2:0:0:
419,69,77277,1,4,3:2:0:0:
356,198,77515,1,8,0:2:0:0:
512,202,77753,1,8,0:2:0:0:
512,202,78110,1,8,0:2:0:0:
440,263,78229,5,12,0:2:0:0:
479,270,78348,1,0,3:2:0:0:
472,309,78467,1,0,3:2:0:0:
433,302,78586,1,8,0:2:0:0:
319,311,78706,5,0,3:2:0:0:
326,272,78825,1,0,3:2:0:0:
365,279,78944,1,10,0:2:0:0:
358,318,79063,1,0,3:2:0:0:
253,275,79182,5,0,3:2:0:0:
246,236,79301,1,8,0:2:0:0:
191,333,79420,6,0,L|186:369,2,20,2|0|0,3:2|3:2|3:2,0:2:0:0:
177,255,79658,1,4,0:2:0:0:
0,352,80015,5,0,3:2:0:0:
39,345,80134,1,0,0:2:0:0:
75,360,80253,1,0,3:2:0:0:
113,354,80372,1,0,3:2:0:0:
54,224,80610,5,2,3:2:0:0:
54,224,80848,1,8,0:2:0:0:
54,224,81086,1,10,0:2:0:0:
183,295,81325,5,0,3:2:0:0:
177,255,81444,1,0,3:2:0:0:
147,280,81563,1,12,0:2:0:0:
86,111,81801,5,0,3:2:0:0:
103,146,81920,1,0,3:2:0:0:
136,168,82039,1,8,0:2:0:0:
175,173,82158,1,0,3:2:0:0:
214,164,82277,1,0,3:2:0:0:
243,136,82396,1,0,3:2:0:0:
287,69,82515,5,10,0:2:0:0:
316,41,82634,1,0,3:2:0:0:
355,32,82753,1,0,3:2:0:0:
394,37,82872,1,0,3:2:0:0:
464,73,82991,5,12,0:2:0:0:
353,154,83229,5,0,3:2:0:0:
359,114,83348,1,0,3:2:0:0:
389,139,83467,1,12,0:2:0:0:
493,249,83706,5,0,3:2:0:0:
487,209,83825,1,0,3:2:0:0:
457,234,83944,1,12,0:2:0:0:
334,349,84182,6,0,L|329:385,2,20,0|0|0,3:2|3:2|3:2,0:2:0:0:
371,250,84420,6,0,B|339:234|311:262|311:270|287:294|251:270,1,120,4|4,0:1|0:2,0:2:0:0:
252,101,85134,5,0,3:2:0:0:
291,94,85253,1,0,3:2:0:0:
343,155,85372,5,8,0:2:0:0:
275,197,85531,1,2,0:2:0:0:
203,162,85690,1,2,0:2:0:0:
146,219,85848,5,6,3:2:0:0:
153,258,85967,1,8,0:2:0:0:
22,76,86206,5,0,3:2:0:0:
29,115,86325,1,8,0:2:0:0:
104,118,86444,5,0,3:2:0:0:
92,157,86563,1,0,3:2:0:0:
61,183,86682,1,0,3:2:0:0:
0,237,86801,6,0,L|7:284,1,40,2|8,3:2|0:2,0:2:0:0:
43,346,87039,5,2,3:2:0:0:
4,353,87158,1,0,3:2:0:0:
80,270,87277,5,4,0:0:0:0:
125,348,87396,2,0,L|119:308,1,40,2|2,0:2|0:2,0:2:0:0:
163,241,87634,1,8,0:2:0:0:
200,343,87753,5,10,0:2:0:0:
207,304,87872,1,0,3:2:0:0:
246,311,87991,1,0,3:2:0:0:
239,350,88110,1,8,0:2:0:0:
323,291,88229,5,10,0:2:0:0:
316,330,88348,1,0,3:2:0:0:
355,337,88467,1,0,3:2:0:0:
362,298,88586,1,8,0:2:0:0:
433,251,88706,5,2,3:2:0:0:
440,290,88825,1,8,0:2:0:0:
497,163,89063,5,0,3:2:0:0:
504,124,89182,1,10,0:2:0:0:
383,165,89420,5,0,3:2:0:0:
343,171,89539,1,0,3:2:0:0:
368,201,89658,1,4,0:1:0:0:
426,45,89896,5,4,0:2:0:0:
426,45,90134,1,4,0:2:0:0:
426,45,90372,1,0,3:2:0:0:
508,208,90610,5,8,0:2:0:0:
440,166,90769,1,2,0:2:0:0:
368,201,90928,1,2,0:2:0:0:
300,159,91086,5,14,0:2:0:0:
478,281,91325,1,0,3:2:0:0:
441,266,91444,1,0,3:2:0:0:
402,273,91563,1,0,3:2:0:0:
373,300,91682,1,0,3:2:0:0:
366,339,91801,1,0,3:2:0:0:
386,373,91920,1,0,3:2:0:0:
300,374,92039,5,6,3:2:0:0:
277,297,92198,1,6,3:2:0:0:
329,236,92356,1,6,3:2:0:0:
306,159,92515,5,12,0:2:0:0:
306,159,92753,1,2,0:2:0:0:
205,270,92991,5,8,0:2:0:0:
198,309,93110,1,0,3:2:0:0:
176,132,93348,5,8,0:2:0:0:
169,171,93467,1,4,3:2:0:0:
59,271,93706,1,8,0:2:0:0:
27,126,93944,1,8,0:2:0:0:
27,126,94301,1,8,0:2:0:0:
91,209,94420,5,12,0:2:0:0:
98,170,94539,1,0,3:2:0:0:
137,177,94658,1,0,3:2:0:0:
130,216,94777,1,8,0:2:0:0:
242,165,94896,5,0,3:2:0:0:
235,126,95015,1,0,3:2:0:0:
196,133,95134,1,8,0:2:0:0:
203,172,95253,1,0,3:2:0:0:
312,214,95372,5,2,3:2:0:0:
319,175,95491,1,8,0:2:0:0:
365,277,95610,6,0,L|401:282,2,20,2|0|0,3:2|3:2|3:2,0:2:0:0:
287,291,95848,1,4,0:2:0:0:
512,207,96206,5,0,3:2:0:0:
473,214,96325,1,0,0:2:0:0:
437,199,96444,1,0,3:2:0:0:
399,205,96563,1,0,3:2:0:0:
450,343,96801,5,6,3:2:0:0:
450,343,97039,1,8,0:2:0:0:
450,343,97277,1,10,0:2:0:0:
339,381,97515,5,0,3:2:0:0:
333,341,97634,1,0,3:2:0:0:
303,366,97753,1,12,0:2:0:0:
433,272,97991,5,0,3:2:0:0:
416,237,98110,1,0,3:2:0:0:
383,215,98229,1,8,0:2:0:0:
344,210,98348,1,0,3:2:0:0:
305,219,98467,1,0,3:2:0:0:
276,247,98586,1,0,3:2:0:0:
223,332,98706,5,10,0:2:0:0:
194,360,98825,1,0,3:2:0:0:
155,369,98944,1,0,3:2:0:0:
116,364,99063,1,0,3:2:0:0:
26,319,99182,5,12,0:2:0:0:
153,215,99420,5,0,3:2:0:0:
147,255,99539,1,0,3:2:0:0:
117,230,99658,1,12,0:2:0:0:
12,120,99896,5,0,3:2:0:0:
18,160,100015,1,0,3:2:0:0:
48,135,100134,1,12,0:2:0:0:
178,35,100372,6,0,L|183:-1,2,20,0|0|0,3:2|3:2|3:2,0:2:0:0:
161,140,100610,1,12,0:2:0:0:
161,140,101086,5,8,0:2:0:0:
161,140,101325,1,0,3:2:0:0:
161,140,101563,1,8,0:2:0:0:
161,140,101801,1,0,3:2:0:0:
261,40,102039,5,12,0:2:0:0:
281,74,102158,1,0,3:2:0:0:
283,113,102277,1,8,0:2:0:0:
264,147,102396,1,0,3:2:0:0:
202,222,102515,5,12,0:2:0:0:
180,262,102634,1,0,3:2:0:0:
182,309,102753,1,8,0:2:0:0:
206,350,102872,1,0,3:2:0:0:
286,288,102991,5,12,0:2:0:0:
318,241,103110,1,0,3:2:0:0:
372,225,103229,1,8,0:2:0:0:
427,239,103348,1,0,3:2:0:0:
492,313,103467,5,4,0:1:0:0:
452,319,103586,2,0,L|460:269,1,40,0|0,3:2|0:2,0:2:0:0:
481,382,103825,1,2,3:2:0:0:
368,205,104063,5,8,0:2:0:0:
372,225,104182,1,8,0:2:0:0:
322,362,104420,1,0,3:2:0:0:
234,215,104658,5,8,0:2:0:0:
195,208,104777,1,0,3:2:0:0:
220,177,104896,1,0,0:2:0:0:
290,254,105015,6,0,L|298:304,1,40,2|0,3:2|3:2,0:2:0:0:
335,186,105253,5,8,0:2:0:0:
296,179,105372,1,8,0:2:0:0:
321,148,105491,1,0,3:2:0:0:
398,258,105610,5,0,3:2:0:0:
359,265,105729,1,8,0:2:0:0:
410,347,105848,6,0,L|460:355,1,40,0|0,3:2|3:2,0:2:0:0:
512,235,106086,5,0,0:2:0:0:
472,229,106206,2,0,L|480:279,1,40,8|0,0:2|0:2,0:2:0:0:
501,166,106444,1,2,3:2:0:0:
416,101,106563,5,0,0:2:0:0:
455,108,106682,1,8,0:2:0:0:
430,139,106801,1,8,0:2:0:0:
322,11,107039,5,8,0:2:0:0:
329,50,107158,1,0,3:2:0:0:
267,99,107277,5,8,0:2:0:0:
254,28,107396,1,0,3:2:0:0:
250,47,107515,1,0,3:2:0:0:
194,104,107634,1,8,0:2:0:0:
167,22,107753,5,0,3:2:0:0:
154,93,107872,2,0,L|149:57,2,20,0|0|8,3:2|3:2|2:2,0:2:0:0:
94,17,108110,5,0,3:2:0:0:
81,88,108229,2,0,L|76:52,2,20,8|8|8,2:2|2:2|2:2,0:2:0:0:
125,160,108467,5,8,0:2:0:0:
77,157,108586,1,0,3:2:0:0:
33,177,108706,1,8,0:2:0:0:
11,220,108825,1,0,3:2:0:0:
84,303,108944,5,4,0:1:0:0:
124,297,109063,2,0,L|116:347,1,40,0|0,3:2|0:2,0:2:0:0:
95,234,109301,1,2,3:2:0:0:
222,370,109539,5,8,0:2:0:0:
218,350,109658,1,8,0:2:0:0:
253,212,109896,1,0,3:2:0:0:
116,101,110134,5,8,0:2:0:0:
123,62,110253,1,0,3:2:0:0:
154,87,110372,1,0,0:2:0:0:
77,157,110491,6,0,L|27:165,1,40,2|0,3:2|0:2,0:2:0:0:
176,170,110729,5,8,0:2:0:0:
183,209,110848,1,8,0:2:0:0:
214,184,110967,1,0,3:2:0:0:
269,98,111086,5,0,3:2:0:0:
230,105,111206,1,8,0:2:0:0:
350,102,111325,6,0,L|342:52,1,40,0|0,3:2|3:2,0:2:0:0:
314,187,111563,5,0,0:2:0:0:
320,227,111682,2,0,L|270:219,1,40,8|0,0:2|0:2,0:2:0:0:
383,198,111920,1,2,3:2:0:0:
419,263,112039,5,0,3:2:0:0:
380,270,112158,1,8,0:2:0:0:
405,301,112277,1,8,0:2:0:0:
210,370,112515,5,8,0:2:0:0:
217,331,112634,1,0,3:2:0:0:
276,268,112753,5,12,0:2:0:0:
205,255,112872,1,0,3:2:0:0:
224,251,112991,1,0,3:2:0:0:
281,195,113110,5,12,0:2:0:0:
210,182,113229,1,0,3:2:0:0:
229,178,113348,1,0,3:2:0:0:
286,122,113467,5,0,3:2:0:0:
297,115,113547,1,8,0:2:0:0:
309,112,113626,1,8,0:2:0:0:
333,122,113706,5,8,0:2:0:0:
344,129,113785,1,8,0:2:0:0:
356,132,113864,1,8,0:2:0:0:
381,123,113944,6,0,L|389:73,1,40,8|0,3:2|3:2,0:2:0:0:
413,237,114182,2,0,L|421:187,1,40,8|0,3:2|3:2,0:2:0:0:
512,104,114420,5,4,0:1:0:0:
472,98,114539,2,0,L|480:148,1,40,0|0,3:2|0:2,0:2:0:0:
501,35,114777,1,2,3:2:0:0:
351,170,115015,5,8,0:2:0:0:
355,150,115134,1,8,0:2:0:0:
305,2,115372,1,0,3:2:0:0:
238,167,115610,5,8,0:2:0:0:
245,128,115729,1,0,3:2:0:0:
276,153,115848,1,0,0:2:0:0:
199,223,115967,6,0,L|149:231,1,40,2|0,3:2|3:2,0:2:0:0:
305,254,116206,5,8,0:2:0:0:
274,229,116325,1,8,0:2:0:0:
267,268,116444,1,0,3:2:0:0:
379,284,116563,5,0,3:2:0:0:
386,245,116682,1,8,0:2:0:0:
314,332,116801,6,0,L|322:382,1,40,0|0,3:2|3:2,0:2:0:0:
197,318,117039,5,0,0:2:0:0:
191,358,117158,2,0,L|241:350,1,40,8|0,0:2|0:2,0:2:0:0:
128,329,117396,1,2,3:2:0:0:
243,257,117515,5,0,0:2:0:0:
236,218,117634,1,8,0:2:0:0:
205,243,117753,1,8,0:2:0:0:
349,336,117991,5,8,0:2:0:0:
388,343,118110,1,0,3:2:0:0:
437,281,118229,5,8,0:2:0:0:
366,268,118348,1,0,3:2:0:0:
385,264,118467,1,0,3:2:0:0:
442,208,118586,1,8,0:2:0:0:
381,155,118706,5,0,3:2:0:0:
452,142,118825,2,0,L|416:137,2,20,0|0|8,3:2|3:2|2:2,0:2:0:0:
376,82,119063,5,0,3:2:0:0:
447,69,119182,2,0,L|411:64,2,20,8|8|8,2:2|2:2|2:2,0:2:0:0:
283,32,119420,5,8,0:2:0:0:
307,72,119539,1,0,3:2:0:0:
309,120,119658,1,8,0:2:0:0:
286,162,119777,1,0,3:2:0:0:
183,91,119896,5,4,0:1:0:0:
223,97,120015,2,0,L|215:47,1,40,0|0,3:2|0:2,0:2:0:0:
194,160,120253,1,2,3:2:0:0:
116,24,120491,5,8,0:2:0:0:
136,20,120610,1,8,0:2:0:0:
9,115,120848,1,0,3:2:0:0:
118,210,121086,5,8,0:2:0:0:
111,171,121206,1,0,3:2:0:0:
80,196,121325,1,0,0:2:0:0:
193,182,121444,6,0,L|201:232,1,40,2|0,3:2|0:2,0:2:0:0:
66,313,121682,5,8,0:2:0:0:
73,274,121801,1,8,0:2:0:0:
104,299,121920,1,0,3:2:0:0:
149,378,122039,5,0,3:2:0:0:
110,371,122158,1,8,0:2:0:0:
199,308,122277,6,0,L|235:303,2,20,0|0|0,3:2|3:2|3:2,0:2:0:0:
256,384,122515,5,4,0:1:0:0:
256,384,122753,1,0,3:2:0:0:
282,343,122872,1,0,3:2:0:0:
326,324,122991,1,0,3:2:0:0:
373,324,123110,1,0,3:2:0:0:
445,357,123229,5,0,3:2:0:0:
463,279,123348,6,0,L|468:243,2,20,8|8|0,2:2|2:2|3:2,0:2:0:0:
382,228,123586,5,0,0:2:0:0:
386,248,123706,1,4,0:1:0:0:
189,349,123944,5,0,0:2:0:0:
209,353,124063,1,2,0:2:0:0:
269,298,124182,5,2,0:2:0:0:
249,302,124301,1,2,0:2:0:0:
173,277,124420,5,2,0:2:0:0:
218,199,124539,2,0,L|212:239,1,40,0|2,0:2|0:2,0:2:0:0:
333,220,124777,5,0,0:2:0:0:
288,142,124896,2,0,L|294:182,1,40,2|2,0:2|0:2,0:2:0:0:
217,80,125134,6,0,L|212:116,2,20,2|0|0,2:2|2:2|2:2,0:2:0:0:
122,145,125372,5,4,1:2:0:0:
44,131,125531,1,2,1:2:0:0:
94,69,125690,1,2,1:2:0:0:
136,183,125848,5,0,1:2:0:0:
58,169,126007,1,2,1:2:0:0:
108,107,126166,1,0,1:2:0:0:
150,221,126325,5,0,1:2:0:0:
72,207,126483,1,2,1:2:0:0:
122,145,126642,1,2,1:2:0:0:
164,259,126801,5,2,1:2:0:0:
164,259,127277,1,2,1:2:0:0:
164,259,127753,1,2,1:2:0:0:
164,259,128229,1,2,1:2:0:0:
164,259,128467,1,2,1:2:0:0:
164,259,128706,1,2,1:2:0:0:
164,259,128944,1,2,1:2:0:0:
56,313,129182,5,6,1:2:0:0:
56,313,129360,1,6,1:2:0:0:
56,313,129539,1,6,3:2:0:0:
225,343,129658,5,2,3:2:0:0:
234,341,129717,1,2,3:2:0:0:
244,340,129777,1,2,3:2:0:0:
254,338,129856,2,0,L|290:333,2,20,2|2|2,3:2|3:2|3:2,0:2:0:0:
145,361,130094,1,4,0:1:0:0:
10,262,130362,5,0,0:2:0:0:
14,242,130481,1,0,0:2:0:0:
18,222,130600,1,0,0:2:0:0:
22,202,130720,1,0,0:2:0:0:
84,253,130839,5,0,0:2:0:0:
88,233,130958,1,0,0:2:0:0:
92,213,131077,1,0,0:2:0:0:
96,193,131196,1,0,0:2:0:0:
158,244,131315,5,0,0:2:0:0:
162,224,131434,1,0,0:2:0:0:
166,204,131553,1,0,0:2:0:0:
170,184,131672,1,0,0:2:0:0:
232,235,131791,5,0,0:2:0:0:
236,215,131910,1,0,0:2:0:0:
240,195,132029,1,0,0:2:0:0:
244,175,132148,1,0,0:2:0:0:
306,226,132267,5,0,0:2:0:0:
310,206,132386,1,0,0:2:0:0:
314,186,132505,1,0,0:2:0:0:
318,166,132624,1,0,0:2:0:0:
375,108,132743,5,0,0:2:0:0:
371,88,132862,1,0,0:2:0:0:
367,68,132981,1,0,0:2:0:0:
363,48,133100,1,0,0:2:0:0:
301,99,133220,5,0,0:2:0:0:
297,79,133339,1,0,0:2:0:0:
293,59,133458,1,0,0:2:0:0:
289,39,133577,1,0,0:2:0:0:
227,90,133696,5,0,0:2:0:0:
223,70,133815,1,0,0:2:0:0:
219,50,133934,1,0,0:2:0:0:
215,30,134053,1,0,0:2:0:0:
153,81,134172,5,0,0:2:0:0:
149,61,134291,1,0,0:2:0:0:
145,41,134410,1,0,0:2:0:0:
141,21,134529,1,0,0:2:0:0:
79,72,134648,5,0,0:2:0:0:
75,52,134767,1,0,0:2:0:0:
71,32,134886,1,0,0:2:0:0:
67,12,135005,1,0,0:2:0:0:
5,63,135124,5,2,0:2:0:0:
1,43,135243,1,2,0:2:0:0:
109,150,135481,5,0,0:2:0:0:
109,150,135541,2,0,L|101:200,1,40,0|0,0:2|0:2,0:2:0:0:
