osu file format v14

[General]
AudioFilename: audio.mp3
AudioLeadIn: 0
PreviewTime: 102514
Countdown: 0
SampleSet: Soft
StackLeniency: 0.7
Mode: 0
LetterboxInBreaks: 0
WidescreenStoryboard: 1

[Editor]
Bookmarks: 126315
DistanceSpacing: 1.2
BeatDivisor: 4
GridSize: 4
TimelineZoom: 1

[Metadata]
Title:breathe
TitleUnicode:breathe
Artist:qfeileadh
ArtistUnicode:qfeileadh
Creator:ktgster
Version:Advanced
Source:Lanota
Tags:Be-Music Source Script BMS THE OF FIGHTERS EXTREME VIOLENCE 2019 BOFXV19 Team Narratives まにゅ Maniyu のあ Noa Maeus Noxy Games Flyhigh Works Apple Google Nintendo Incorporated Company Limited Inc. Co. Ltd. iOS Android Switch NS narrative Progressive Math Pop Rock Video Game Videogame Japanese Instrumental novelty
BeatmapID:2543827
BeatmapSetID:1181778

[Difficulty]
HPDrainRate:4
CircleSize:4
OverallDifficulty:6
ApproachRate:6.5
SliderMultiplier:1.3
SliderTickRate:1

[Events]
//Background and Video events
0,0,"_title.png",0,0
//Break Periods
2,23191,24397
//Storyboard Layer 0 (Background)
//Storyboard Layer 1 (Fail)
//Storyboard Layer 2 (Pass)
//Storyboard Layer 3 (Foreground)
//Storyboard Layer 4 (Overlay)
//Storyboard Sound Samples

[TimingPoints]
1087,476.190476190476,3,2,1,60,1,0
2277,476.190476190476,3,2,1,60,1,0
4896,476.190476190476,4,2,1,60,1,0
6563,476.190476190476,3,2,1,60,1,0
7753,476.190476190476,3,2,1,60,1,0
10372,476.190476190476,4,2,1,60,1,0
12039,476.190476190476,3,2,1,60,1,0
13229,476.190476190476,3,2,1,60,1,0
15848,476.190476190476,4,2,1,60,1,0
17515,476.190476190476,3,2,1,60,1,0
18706,476.190476190476,3,2,1,60,1,0
21325,476.190476190476,4,2,1,60,1,0
22991,476.190476190476,5,2,1,60,1,0
25372,476.190476190476,6,2,1,60,1,0
28229,476.190476190476,5,2,1,60,1,0
30610,476.190476190476,6,2,1,60,1,0
33467,476.190476190476,5,2,1,60,1,0
35848,476.190476190476,6,2,1,60,1,0
38706,476.190476190476,5,2,1,60,1,0
41086,476.190476190476,6,2,1,60,1,0
43944,476.190476190476,7,2,1,60,1,0
47278,476.190476190476,6,2,1,60,1,0
50134,476.190476190476,7,2,1,60,1,0
53467,476.190476190476,6,2,1,60,1,0
56325,476.190476190476,7,2,1,60,1,0
59658,476.190476190476,4,2,1,60,1,0
61563,476.190476190476,6,2,1,60,1,0
68229,476.190476190476,6,2,1,60,1,0
71086,476.190476190476,5,2,1,60,1,0
73467,476.190476190476,6,2,1,60,1,0
76325,476.190476190476,7,2,1,60,1,0
79658,476.190476190476,4,2,1,60,1,0
81563,476.190476190476,6,2,1,60,1,0
87277,476.190476190476,5,2,1,60,1,0
89658,476.190476190476,6,2,1,60,1,0
92515,476.190476190476,7,2,1,60,1,0
95848,476.190476190476,4,2,1,60,1,0
97753,476.190476190476,6,2,1,60,1,0
103467,476.190476190476,3,2,1,60,1,0
104658,476.190476190476,3,2,1,60,1,0
107277,476.190476190476,4,2,1,60,1,0
108944,476.190476190476,3,2,1,60,1,0
110134,476.190476190476,3,2,1,60,1,0
112753,476.190476190476,4,2,1,60,1,0
114420,476.190476190476,3,2,1,60,1,0
115610,476.190476190476,3,2,1,60,1,0
118229,476.190476190476,4,2,1,60,1,0
119896,476.190476190476,3,2,1,60,1,0
121086,476.190476190476,3,2,1,60,1,0
123706,476.190476190476,4,2,1,60,1,0
125372,476.190476190476,3,2,1,60,1,0
126801,476.190476190476,7,2,1,60,1,0
129658,-98.0392156862745,7,2,1,60,0,0
129856,476.190476190476,7,2,1,60,1,0
130124,476.190476190476,6,2,1,60,1,0
135481,-100,6,2,1,5,0,0

[Colours]
Combo1 : 255,125,255
Combo2 : 166,166,0
Combo3 : 0,217,108

[HitObjects]
36,80,1087,6,0,P|85:118|147:104,1,130,4|2,0:2|0:2,0:0:0:0:
207,54,1801,1,2,0:2:0:0:
284,44,2039,1,2,0:2:0:0:
352,82,2277,1,10,0:2:0:0:
241,192,2753,5,2,0:2:0:0:
309,230,2991,1,2,0:2:0:0:
386,220,3229,2,0,P|447:205|497:243,1,130,10|8,0:2|0:2,0:0:0:0:
402,367,4182,6,0,L|327:380,2,65,2|2|2,0:2|0:2|0:2,0:0:0:0:
379,292,4896,2,0,P|434:295|467:324,2,97.5,8|2|2,0:2|0:2|0:2,0:0:0:0:
303,311,5848,1,10,0:2:0:0:
203,371,6206,1,4,0:2:0:0:
89,339,6563,1,4,0:1:0:0:
108,184,7039,6,0,L|121:109,2,65,2|2|2,0:2|0:2|0:2,0:0:0:0:
163,239,7753,2,0,P|199:260|281:212,1,130,10|2,0:2|0:2,0:0:0:0:
317,162,8467,1,2,0:2:0:0:
393,178,8706,2,0,P|393:146|381:117,1,65,10|0,0:2|0:2,0:0:0:0:
310,85,9182,1,10,0:2:0:0:
154,73,9658,6,0,L|79:86,2,65,2|8|8,0:2|0:2|0:2,0:0:0:0:
209,128,10372,1,4,0:1:0:0:
142,224,10729,1,4,0:0:0:0:
208,320,11086,2,0,P|234:341|278:353,1,65,4|2,3:1|3:2,0:0:0:0:
341,348,11563,1,8,3:2:0:0:
408,309,11801,1,10,3:2:0:0:
426,232,12039,6,0,B|419:196|419:196|431:170|431:170|423:122,2,97.5,4|10|8,0:1|3:2|0:2,0:0:0:0:
408,309,12991,1,2,3:2:0:0:
335,279,13229,1,8,0:2:0:0:
252,361,13586,2,0,P|205:382|136:367,1,97.5,10|10,3:2|0:2,0:0:0:0:
86,351,14182,1,2,3:2:0:0:
56,279,14420,1,2,3:2:0:0:
98,213,14658,6,0,B|134:220|134:220|160:208|160:208|208:216,2,97.5,0|2|8,0:2|3:2|0:2,0:0:0:0:
42,157,15610,2,0,L|-16:167,2,32.5,8|0|8,0:2|3:2|0:2,0:0:0:0:
97,101,16086,2,0,L|155:111,2,32.5,0|8|0,3:2|0:2|3:2,0:0:0:0:
41,45,16563,1,0,3:2:0:0:
106,3,16801,1,8,2:2:0:0:
187,5,17039,1,8,0:2:0:0:
242,59,17277,1,8,2:2:0:0:
254,135,17515,6,0,B|247:171|247:171|259:197|259:197|251:245,2,97.5,4|2|8,0:1|3:2|0:2,0:0:0:0:
315,86,18467,1,2,3:2:0:0:
392,74,18706,2,0,P|461:100|485:175,1,130,8|0,0:2|0:2,0:0:0:0:
494,224,19420,1,8,0:2:0:0:
466,297,19658,1,0,3:2:0:0:
395,330,19896,1,2,3:2:0:0:
317,321,20134,5,4,3:2:0:0:
261,265,20372,2,0,L|251:207,2,32.5,0|0|0,3:2|3:2|3:2,0:0:0:0:
205,320,20848,2,0,L|195:378,2,32.5,0|8|0,3:2|0:2|3:2,0:0:0:0:
149,264,21325,5,4,0:2:0:0:
149,264,22753,2,0,L|143:235,4,16.25,2|2|2|2|4,0:2|0:2|0:2|0:2|0:1,0:0:0:0:
491,137,25372,6,0,B|482:89|482:89|458:65|458:65|447:6,2,130,4|0|0,0:1|0:2|3:2,0:0:0:0:
454,205,26563,1,10,3:2:0:0:
382,237,26801,1,2,0:2:0:0:
308,210,27039,2,0,L|298:152,2,32.5,10|0|2,0:2|3:2|0:2,0:0:0:0:
272,279,27515,1,8,0:2:0:0:
201,312,27753,1,0,3:2:0:0:
127,284,27991,5,8,0:2:0:0:
124,268,28110,1,0,3:2:0:0:
121,252,28229,2,0,B|85:245|85:245|59:257|59:257|11:249,2,97.5,8|0|8,0:2|3:2|0:2,0:0:0:0:
192,221,29182,1,0,3:2:0:0:
247,165,29420,1,8,0:2:0:0:
191,109,29658,2,0,P|171:80|168:46,2,65,2|8|2,0:2|0:2|3:2,0:0:0:0:
247,165,30372,1,8,0:2:0:0:
322,185,30610,6,0,P|363:189|492:110,1,195,4|2,0:2|0:2,0:0:0:0:
456,184,31563,1,0,0:2:0:0:
448,261,31801,1,0,0:2:0:0:
476,333,32039,1,2,0:2:0:0:
398,320,32277,6,0,L|369:326,3,21.6666666666667,2|2|2|6,0:2|0:2|0:2|0:2,0:0:0:0:
300,313,32753,1,10,0:2:0:0:
349,252,32991,1,2,3:2:0:0:
346,236,33110,1,8,0:2:0:0:
343,220,33229,1,0,3:2:0:0:
392,159,33467,6,0,P|417:149|451:157,2,43.3333333333333,4|0|0,0:1|3:2|0:2,0:0:0:0:
357,120,33944,2,0,P|375:100|409:93,2,43.3333333333333,0|0|0,3:2|0:2|3:2,0:0:0:0:
308,99,34420,2,0,P|316:73|344:52,2,43.3333333333333,8|0|8,0:2|3:2|0:2,0:0:0:0:
254,100,34896,2,0,P|250:73|267:42,2,43.3333333333333,0|0|8,0:2|0:2|0:2,0:0:0:0:
205,123,35372,2,0,P|190:100|192:65,2,43.3333333333333,0|8|0,3:2|0:2|0:2,0:0:0:0:
238,163,35848,6,0,B|229:211|229:211|205:235|205:235|194:294,2,130,4|0|0,0:2|0:2|3:2,0:0:0:0:
160,27,37277,1,2,0:2:0:0:
104,82,37515,1,10,0:2:0:0:
117,158,37753,1,0,0:0:0:0:
61,213,37991,2,0,P|44:187|40:143,2,65,8|0|8,0:2|3:2|0:2,0:0:0:0:
137,234,38706,6,0,B|205:278|277:234|221:202|297:154|369:198,1,260,4|0,0:1|0:2,0:0:0:0:
423,252,39896,1,0,0:2:0:0:
479,305,40134,2,0,P|496:331|500:375,2,65,2|6|2,0:2|0:2|0:2,0:0:0:0:
405,328,40848,5,8,0:2:0:0:
389,331,40967,1,0,3:2:0:0:
373,334,41086,2,0,B|337:341|337:341|311:329|311:329|263:337,2,97.5,4|0|8,0:1|3:2|0:2,0:0:0:0:
348,259,42039,1,0,3:2:0:0:
348,259,42277,1,8,0:2:0:0:
403,203,42515,6,0,P|429:186|473:182,1,65,0|8,3:2|0:2,0:0:0:0:
462,102,42991,2,0,P|430:97|402:79,1,65,4|8,3:2|0:2,0:0:0:0:
348,24,43467,1,6,0:2:0:0:
292,79,43706,1,0,3:2:0:0:
276,76,43825,1,0,3:2:0:0:
260,73,43944,6,0,P|205:52|142:9,2,130,2|2|2,1:2|1:2|1:2,0:0:0:0:
407,123,45372,1,2,1:2:0:0:
476,159,45610,1,2,1:2:0:0:
501,232,45848,1,2,1:2:0:0:
476,305,46086,1,2,1:2:0:0:
407,341,46325,6,0,P|383:347|354:346,2,48.75,6|6|6,1:2|1:2|1:2,0:0:0:0:
425,306,46801,2,0,P|388:248|318:256,1,130,2|4,3:2|3:1,0:0:0:0:
160,320,48706,6,0,B|112:329|112:329|88:353|88:353|29:364,2,130,0|0|0,0:2|0:2|0:2,0:0:0:0:
227,359,49896,1,8,0:2:0:0:
256,286,50134,2,0,P|294:237|358:233,1,130,4|0,0:2|0:2,0:0:0:0:
428,266,50848,1,0,3:2:0:0:
465,197,51086,2,0,P|474:160|467:119,1,65,0|0,3:2|0:2,0:0:0:0:
435,64,51563,6,0,P|460:54|494:62,2,43.3333333333333,4|2|2,0:2|0:2|0:2,0:0:0:0:
396,99,52039,2,0,P|392:125|368:151,2,43.3333333333333,2|0|2,0:2|0:2|0:2,0:0:0:0:
385,47,52515,2,0,P|356:27|308:24,1,65,0|0,3:2|3:2,0:0:0:0:
250,34,52991,1,0,3:2:0:0:
197,91,53229,1,0,3:2:0:0:
197,91,53348,1,0,3:2:0:0:
197,91,53467,6,0,P|175:134|177:189,1,86.6666666666667,6|0,0:2|3:2,0:0:0:0:
178,223,53944,2,0,L|188:281,2,32.5,2|2|2,3:2|0:2|0:2,0:0:0:0:
253,204,54420,2,0,P|273:241|277:284,1,86.6666666666667,2|0,0:2|3:2,0:0:0:0:
255,331,54896,5,4,0:1:0:0:
177,331,55134,2,0,L|171:360,3,21.6666666666667,0|0|0|2,3:2|3:2|3:2|3:2,0:0:0:0:
94,356,55610,1,2,0:2:0:0:
38,300,55848,1,10,0:2:0:0:
35,284,55967,1,0,3:2:0:0:
32,268,56086,1,2,3:2:0:0:
87,212,56325,6,0,B|135:221|135:221|159:245|159:245|218:256,1,130,4|0,0:1|0:2,0:0:0:0:
260,198,57039,1,0,0:2:0:0:
276,195,57158,1,8,0:2:0:0:
292,192,57277,1,4,3:2:0:0:
369,180,57515,1,8,0:2:0:0:
400,251,57753,2,0,P|451:268|518:217,2,130,8|2|0,0:2|3:2|3:2,0:0:0:0:
354,79,59182,1,2,3:2:0:0:
282,51,59420,1,0,3:2:0:0:
209,76,59658,1,4,0:2:0:0:
161,137,59896,6,0,L|173:205,2,65,2|0|0,0:2|3:2|3:2,0:0:0:0:
132,64,60610,2,0,P|99:89|83:128,1,65,2|8,3:2|0:2,0:0:0:0:
87,187,61086,2,0,L|93:216,3,21.6666666666667,2|0|0|0,3:2|3:2|0:2|0:2,0:0:0:0:
36,263,61563,2,0,P|71:248|181:283,1,130,12|8,0:2|0:2,0:0:0:0:
228,299,62277,1,0,3:2:0:0:
281,242,62515,1,10,0:2:0:0:
284,226,62634,1,0,3:2:0:0:
287,210,62753,1,0,3:2:0:0:
340,153,62991,5,8,1:2:0:0:
443,207,63348,1,10,1:2:0:0:
402,317,63705,1,10,1:2:0:0:
329,289,63944,2,0,P|297:298|266:328,1,65,4|2,0:2|0:2,0:0:0:0:
231,384,64420,1,4,0:1:0:0:
77,357,64896,5,8,3:2:0:0:
30,294,65134,1,0,3:2:0:0:
43,217,65372,1,8,3:2:0:0:
107,172,65610,1,0,3:2:0:0:
184,178,65848,2,0,L|194:236,2,32.5,4|0|8,3:1|3:2|3:2,0:0:0:0:
239,122,66325,1,8,3:2:0:0:
242,106,66444,1,0,3:2:0:0:
245,90,66563,1,8,3:2:0:0:
318,62,66801,2,0,L|328:120,3,32.5,8|0|8|0,3:2|3:2|3:2|3:2,0:0:0:0:
288,186,67436,6,0,P|313:176|347:184,2,43.3333333333333,2|2|2,0:2|0:2|0:2,0:0:0:0:
188,328,68229,6,0,P|152:351|54:339,1,130,4|0,0:1|0:2,0:0:0:0:
24,281,68944,1,0,3:2:0:0:
21,265,69063,1,0,3:2:0:0:
18,249,69182,1,8,0:2:0:0:
57,181,69420,1,0,0:0:0:0:
126,216,69658,6,0,P|129:153|77:107,1,130,2|8,3:2|0:2,0:0:0:0:
6,97,70372,1,0,3:2:0:0:
54,36,70610,1,2,3:2:0:0:
131,48,70848,1,2,3:2:0:0:
147,51,70967,1,0,3:2:0:0:
163,54,71086,6,0,L|173:112,2,32.5,4|2|2,0:0|0:2|0:2,0:0:0:0:
240,63,71563,2,0,L|250:121,2,32.5,10|0|0,0:2|3:2|3:2,0:0:0:0:
317,72,72039,2,0,L|327:130,2,32.5,10|0|0,0:2|3:2|3:2,0:0:0:0:
372,16,72515,6,0,P|437:47|470:113,1,130,2|10,3:2|0:2,0:0:0:0:
437,167,73229,1,0,3:2:0:0:
421,170,73348,1,0,3:2:0:0:
405,173,73467,1,4,0:1:0:0:
374,245,73706,6,0,B|398:249|398:249|410:261|410:261|439:267,2,65,4|4|0,0:2|0:2|3:2,0:0:0:0:
327,182,74420,2,0,P|317:157|322:123,3,43.3333333333333,8|2|2|14,0:2|0:2|0:2|0:2,0:0:0:0:
317,62,75134,1,0,3:2:0:0:
301,59,75253,1,0,3:2:0:0:
285,56,75372,1,0,3:2:0:0:
209,73,75610,1,0,3:2:0:0:
172,141,75848,2,0,P|173:162|182:182,2,43.3333333333333,6|2|2,3:2|0:2|0:2,0:0:0:0:
134,103,76325,6,0,B|86:94|86:94|62:70|62:70|3:59,2,130,12|8|4,0:2|0:2|3:2,0:0:0:0:
189,47,77515,1,8,0:2:0:0:
253,91,77753,2,0,P|285:90|314:77,1,65,8|0,0:2|0:0,0:0:0:0:
380,34,78229,6,0,L|390:-24,2,32.5,12|0|0,0:2|3:2|3:2,0:0:0:0:
435,89,78706,1,0,3:2:0:0:
438,105,78825,1,0,3:2:0:0:
441,121,78944,1,10,0:2:0:0:
385,176,79182,2,0,L|327:186,2,32.5,0|8|2,3:2|0:2|3:2,0:0:0:0:
460,197,79658,1,4,0:2:0:0:
377,279,80015,6,0,L|319:289,3,32.5,0|0|0|0,3:2|0:2|3:2|3:2,0:0:0:0:
268,271,80610,2,0,B|272:247|272:247|284:235|284:235|290:206,2,65,2|8|10,3:2|0:2|0:2,0:0:0:0:
212,326,81325,1,0,3:2:0:0:
196,323,81444,1,0,3:2:0:0:
180,320,81563,1,12,0:2:0:0:
124,264,81801,2,0,L|114:206,2,32.5,0|0|8,3:2|3:2|0:2,0:0:0:0:
68,319,82277,2,0,L|58:377,2,32.5,0|0|10,3:2|3:2|0:2,0:0:0:0:
12,263,82753,1,0,3:2:0:0:
25,186,82991,5,12,0:2:0:0:
80,130,83229,1,0,3:2:0:0:
96,133,83348,1,0,3:2:0:0:
112,136,83467,1,12,0:2:0:0:
167,191,83706,2,0,L|177:249,2,32.5,0|0|12,3:2|3:2|0:2,0:0:0:0:
222,135,84182,1,0,3:2:0:0:
225,119,84301,1,0,3:2:0:0:
228,103,84420,6,0,P|264:80|362:92,1,130,4|4,0:1|0:2,0:0:0:0:
403,139,85134,1,0,3:2:0:0:
406,155,85253,1,0,3:2:0:0:
409,171,85372,1,8,0:2:0:0:
353,226,85610,1,0,0:0:0:0:
388,295,85848,6,0,P|325:298|279:246,1,130,6|8,3:2|0:2,0:0:0:0:
264,176,86563,1,0,3:2:0:0:
204,125,86801,1,2,3:2:0:0:
129,149,87039,1,2,3:2:0:0:
126,165,87158,1,0,3:2:0:0:
123,181,87277,6,0,L|65:191,2,32.5,4|2|2,0:0|0:2|0:2,0:0:0:0:
114,258,87753,2,0,L|56:268,2,32.5,10|0|0,0:2|3:2|3:2,0:0:0:0:
105,335,88229,2,0,L|47:345,2,32.5,10|0|0,0:2|3:2|3:2,0:0:0:0:
180,355,88706,6,0,P|242:366|306:344,1,130,2|10,3:2|0:2,0:0:0:0:
348,280,89420,1,0,3:2:0:0:
351,264,89539,1,0,3:2:0:0:
354,248,89658,1,4,0:1:0:0:
426,217,89896,6,0,B|430:241|430:241|442:253|442:253|448:282,2,65,4|4|0,0:2|0:2|3:2,0:0:0:0:
370,161,90610,2,0,P|345:151|311:156,3,43.3333333333333,8|2|2|14,0:2|0:2|0:2|0:2,0:0:0:0:
250,151,91325,1,0,3:2:0:0:
247,135,91444,1,0,3:2:0:0:
244,119,91563,1,0,3:2:0:0:
261,43,91801,1,0,3:2:0:0:
329,6,92039,2,0,P|350:7|370:16,2,43.3333333333333,6|6|6,3:2|3:2|3:2,0:0:0:0:
299,49,92515,6,0,B|308:97|308:97|332:121|332:121|343:180,2,130,12|8|4,0:2|0:2|3:2,0:0:0:0:
231,9,93706,1,8,0:2:0:0:
175,64,93944,2,0,P|161:93|160:125,1,65,8|0,0:2|0:0,0:0:0:0:
204,189,94420,6,0,L|262:199,2,32.5,12|0|0,0:2|3:2|3:2,0:0:0:0:
149,244,94896,1,0,3:2:0:0:
133,247,95015,1,0,3:2:0:0:
117,250,95134,1,8,0:2:0:0:
62,194,95372,2,0,L|52:136,2,32.5,2|8|2,3:2|0:2|3:2,0:0:0:0:
41,269,95848,1,4,0:2:0:0:
123,351,96206,6,0,L|181:361,3,32.5,0|0|0|0,3:2|0:2|3:2|3:2,0:0:0:0:
232,343,96801,2,0,B|228:319|228:319|216:307|216:307|210:278,2,65,6|8|10,3:2|0:2|0:2,0:0:0:0:
309,343,97515,1,0,3:2:0:0:
312,327,97634,1,0,3:2:0:0:
315,311,97753,1,12,0:2:0:0:
371,255,97991,2,0,L|429:245,2,32.5,0|0|8,3:2|3:2|0:2,0:0:0:0:
316,200,98467,1,0,3:2:0:0:
313,184,98586,1,0,3:2:0:0:
310,168,98706,2,0,L|252:158,2,32.5,10|0|0,0:2|3:2|3:2,0:0:0:0:
365,112,99182,5,12,0:2:0:0:
421,167,99420,1,0,3:2:0:0:
418,183,99539,1,0,3:2:0:0:
415,199,99658,1,12,0:2:0:0:
470,254,99896,2,0,L|528:244,2,32.5,0|0|12,3:2|3:2|0:2,0:0:0:0:
414,309,100372,1,0,3:2:0:0:
417,325,100491,1,0,3:2:0:0:
420,341,100610,1,12,0:2:0:0:
266,366,101086,5,8,0:2:0:0:
213,308,101325,1,0,3:2:0:0:
136,291,101563,1,8,0:2:0:0:
64,321,101801,1,0,3:2:0:0:
74,243,102039,2,0,L|84:185,3,32.5,12|0|8|0,0:2|3:2|0:2|3:2,0:0:0:0:
107,183,102515,2,0,L|117:125,3,32.5,12|0|8|0,0:2|3:2|0:2|3:2,0:0:0:0:
140,123,102991,2,0,L|150:65,3,32.5,12|0|8|0,0:2|3:2|0:2|3:2,0:0:0:0:
173,63,103467,6,0,B|209:56|209:56|235:68|235:68|283:60,2,97.5,4|2|8,0:1|3:2|0:2,0:0:0:0:
117,118,104420,1,0,3:2:0:0:
172,173,104658,2,0,P|219:202|240:257,1,97.5,8|2,0:2|3:2,0:0:0:0:
255,354,105372,1,8,0:2:0:0:
178,341,105610,1,0,3:2:0:0:
162,338,105729,1,8,0:2:0:0:
146,335,105848,1,0,3:2:0:0:
91,279,106086,6,0,B|84:243|84:243|96:217|96:217|88:169,2,97.5,0|2|8,0:2|3:2|0:2,0:0:0:0:
146,335,107039,1,8,0:2:0:0:
201,279,107277,1,8,0:2:0:0:
298,344,107634,1,8,0:2:0:0:
407,302,107991,2,0,P|423:277|425:231,1,65,8|8,2:2|2:2,0:0:0:0:
427,168,108467,1,8,0:2:0:0:
427,168,108706,1,8,0:2:0:0:
371,113,108944,6,0,B|335:106|335:106|309:118|309:118|261:110,2,97.5,4|2|8,0:1|3:2|0:2,0:0:0:0:
427,168,109896,1,0,3:2:0:0:
427,242,110134,2,0,P|478:220|499:166,1,97.5,8|2,0:2|3:2,0:0:0:0:
484,68,110848,1,8,0:2:0:0:
425,16,111086,1,0,3:2:0:0:
409,19,111206,1,8,0:2:0:0:
393,22,111325,1,0,3:2:0:0:
338,78,111563,6,0,B|331:114|331:114|343:140|343:140|335:188,2,97.5,0|2|8,0:2|3:2|0:2,0:0:0:0:
282,22,112515,1,8,0:2:0:0:
226,77,112753,1,12,0:2:0:0:
116,35,113110,1,12,0:2:0:0:
44,127,113467,2,0,P|69:143|115:145,1,65,0|8,3:2|0:2,0:0:0:0:
185,150,113944,1,8,3:2:0:0:
185,150,114182,1,8,3:2:0:0:
233,210,114420,6,0,B|240:246|240:246|228:272|228:272|236:320,2,97.5,4|2|8,0:1|3:2|0:2,0:0:0:0:
288,154,115372,1,0,3:2:0:0:
288,80,115610,2,0,P|339:102|360:156,1,97.5,8|2,0:2|3:2,0:0:0:0:
364,253,116325,1,8,0:2:0:0:
308,308,116563,1,0,3:2:0:0:
311,324,116682,1,8,0:2:0:0:
314,340,116801,1,0,3:2:0:0:
386,368,117039,6,0,B|422:375|422:375|448:363|448:363|496:371,2,97.5,0|2|8,0:2|3:2|0:2,0:0:0:0:
314,340,117991,1,8,0:2:0:0:
240,367,118229,1,8,0:2:0:0:
157,284,118586,1,8,0:2:0:0:
239,201,118944,2,0,P|255:176|257:130,1,65,8|8,2:2|2:2,0:0:0:0:
259,67,119420,1,8,0:2:0:0:
259,67,119658,1,8,0:2:0:0:
203,12,119896,6,0,B|167:5|167:5|141:17|141:17|93:9,2,97.5,4|2|8,0:1|3:2|0:2,0:0:0:0:
259,67,120848,1,0,3:2:0:0:
203,122,121086,2,0,P|162:147|145:192,1,97.5,8|2,0:2|3:2,0:0:0:0:
153,309,121801,1,8,0:2:0:0:
208,364,122039,1,0,3:2:0:0:
224,361,122158,1,8,0:2:0:0:
240,358,122277,1,0,3:2:0:0:
306,317,122515,6,0,P|342:262|317:182,1,130,4|0,0:1|3:2,0:0:0:0:
289,136,123229,1,0,3:2:0:0:
221,96,123467,1,0,3:2:0:0:
144,110,123706,1,4,0:1:0:0:
97,172,123944,6,0,L|85:240,2,65,0|2|2,0:2|0:2|0:2,0:0:0:0:
144,110,124658,1,2,0:2:0:0:
221,96,124896,1,2,0:2:0:0:
289,136,125134,1,2,2:2:0:0:
332,201,125372,6,0,P|342:226|334:260,2,43.3333333333333,4|2|2,1:2|1:2|1:2,0:0:0:0:
295,237,125848,2,0,P|285:262|293:296,2,43.3333333333333,0|2|0,1:2|1:2|1:2,0:0:0:0:
258,200,126325,2,0,P|233:190|199:198,2,43.3333333333333,0|2|2,1:2|1:2|1:2,0:0:0:0:
294,163,126801,6,0,P|330:109|354:49,2,130,2|2|2,1:2|1:2|1:2,0:0:0:0:
187,277,128229,1,2,1:2:0:0:
240,333,128467,1,2,1:2:0:0:
315,351,128706,1,2,1:2:0:0:
390,333,128944,1,2,1:2:0:0:
436,270,129182,6,0,P|442:246|441:217,2,48.75,6|6|6,1:2|1:2|3:2,0:0:0:0:
401,288,129658,2,0,P|343:251|351:181,1,130,2|4,3:2|0:1,0:0:0:0:
256,192,130362,12,0,135481,0:2:0:0:
