osu file format v14

[General]
AudioFilename: audio.mp3
AudioLeadIn: 0
PreviewTime: 57607
Countdown: 0
SampleSet: Soft
StackLeniency: 0.4
Mode: 0
LetterboxInBreaks: 0
WidescreenStoryboard: 0

[Editor]
DistanceSpacing: 0.9
BeatDivisor: 8
GridSize: 8
TimelineZoom: 1

[Metadata]
Title:Sakharnaya vata
TitleUnicode:Сахарная вата
Artist:pyrokinesis
ArtistUnicode:pyrokinesis
Creator:Astrolis
Version:Lovesick
Source:
Tags:russian pop parad0xa ryxliee froskya revialink hiphop hip-hop hip hop русский рэп хип-хоп хип хоп хипхоп поп пирокинезис пиро paradoxa HACPAHO saharnaya saharnaia
BeatmapID:3649082
BeatmapSetID:1781912

[Difficulty]
HPDrainRate:6
CircleSize:4
OverallDifficulty:8
ApproachRate:9
SliderMultiplier:2.1
SliderTickRate:1

[Events]
//Background and Video events
0,0,"ddddddd.jpg",0,0
//Break Periods
2,57807,66607
2,106207,114307
2,144207,153007
//Storyboard Layer 0 (Background)
//Storyboard Layer 1 (Fail)
//Storyboard Layer 2 (Pass)
//Storyboard Layer 3 (Foreground)
//Storyboard Layer 4 (Overlay)
//Storyboard Sound Samples

[TimingPoints]
7,600,4,2,1,40,1,0
19207,-100,4,2,1,60,0,0
67207,-86.9565217391304,4,2,2,85,0,1
67357,-86.9565217391304,4,2,2,85,0,0
105607,-100,4,2,1,60,0,0
153607,-86.9565217391304,4,2,2,85,0,1
153757,-86.9565217391304,4,2,2,85,0,0
192007,-86.9565217391304,4,2,1,45,0,0

[Colours]
Combo1 : 220,171,222
Combo2 : 166,166,166
Combo3 : 131,153,180
Combo4 : 186,185,141

[HitObjects]
66,23,19207,6,0,P|127:34|151:125,1,157.5,0|2,1:0|0:0,0:0:0:0:
6,173,19807,2,0,P|42:178|67:188,1,52.5,10|2,1:2|0:0,0:0:0:0:
235,260,20107,1,2,0:0:0:0:
187,182,20257,1,2,0:0:0:0:
271,21,20407,2,0,P|281:90|296:145,2,105,2|2|8,1:2|0:0|1:2,0:0:0:0:
271,21,21157,1,2,0:0:0:0:
374,57,21307,2,0,P|405:49|442:54,1,52.5,2|2,0:0|0:0,0:0:0:0:
510,194,21607,6,0,B|492:170|492:170|508:56,1,105,2|2,1:2|0:0,0:0:0:0:
502,95,22057,1,2,0:0:0:0:
364,163,22207,2,0,P|409:185|436:176,1,52.5,10|0,1:2|0:0,0:0:0:0:
374,57,22507,1,2,0:0:0:0:
311,0,22657,1,2,0:0:0:0:
289,124,22807,2,0,P|240:166|188:142,1,105,2|0,1:2|0:0,0:0:0:0:
205,158,23257,1,2,0:0:0:0:
116,140,23407,1,10,1:2:0:0:
26,217,23557,1,2,0:0:0:0:
138,336,23707,2,0,P|123:247|128:200,1,105,2|2,0:0|1:2,0:0:0:0:
8,85,24157,5,2,0:0:0:0:
67,18,24307,2,0,P|117:32|143:38,1,52.5,2|0,0:0|0:0,0:0:0:0:
205,158,24607,2,0,P|253:138|304:124,1,105,10|0,1:2|0:0,0:0:0:0:
304,124,25057,1,2,0:0:0:0:
208,5,25207,2,0,L|200:89,1,52.5,2|2,1:2|0:0,0:0:0:0:
285,237,25507,1,2,0:0:0:0:
338,295,25657,1,2,0:0:0:0:
399,237,25807,2,0,L|391:176,1,52.5,10|2,1:2|0:0,0:0:0:0:
232,304,26107,1,2,0:0:0:0:
285,237,26257,1,2,0:0:0:0:
497,373,26407,6,0,P|437:373|416:376,1,52.5,2|0,1:2|0:0,0:0:0:0:
351,384,26707,2,0,P|321:342|364:283,1,105,2|10,0:0|1:2,0:0:0:0:
338,295,27157,1,2,0:0:0:0:
208,226,27307,2,0,P|180:232|147:234,1,52.5,2|2,0:0|0:0,0:0:0:0:
34,293,27607,1,2,1:2:0:0:
34,293,27757,2,0,P|72:301|95:313,2,52.5,2|2|2,0:0|0:0|0:0,0:0:0:0:
164,371,28207,1,10,1:2:0:0:
164,371,28357,2,0,P|188:361|214:357,2,52.5,2|2|0,0:0|0:0|0:0,0:0:0:0:
2,187,28807,6,0,P|53:200|133:210,1,105,2|2,1:2|0:0,0:0:0:0:
104,207,29257,1,2,0:0:0:0:
268,292,29407,1,10,1:2:0:0:
340,243,29557,1,2,0:0:0:0:
404,317,29707,2,0,B|429:307|456:313|455:327|478:334|528:319,1,105,2|2,0:0|1:2,0:0:0:0:
506,324,30157,1,0,0:0:0:0:
493,194,30307,2,0,L|489:270,2,52.5,2|2|8,0:0|0:0|1:2,0:0:0:0:
428,116,30757,1,2,0:0:0:0:
340,243,30907,2,0,L|337:190,1,52.5,2|2,0:0|0:0,0:0:0:0:
314,5,31207,6,0,P|281:30|252:38,1,52.5,2|0,1:2|0:0,0:0:0:0:
236,159,31507,2,0,P|187:139|136:128,1,105,2|10,0:0|1:2,0:0:0:0:
136,128,31957,1,2,0:0:0:0:
271,34,32107,2,0,P|278:71|291:100,1,52.5,2|2,0:0|0:0,0:0:0:0:
4,58,32407,5,2,1:2:0:0:
103,0,32557,1,2,0:0:0:0:
197,61,32707,1,2,0:0:0:0:
136,128,32857,1,2,0:0:0:0:
142,246,33007,2,0,P|183:237|223:234,1,52.5,10|0,1:2|0:0,0:0:0:0:
65,164,33307,2,0,P|48:217|-5:235,1,105,2|0,0:0|1:0,0:0:0:0:
6,236,33757,5,2,0:0:0:0:
23,349,33907,2,0,P|77:342|110:344,2,52.5,2|2|10,0:0|0:0|1:2,0:0:0:0:
186,374,34357,1,0,0:0:0:0:
186,374,34507,2,0,P|191:306|200:246,1,105,2|0,0:0|1:0,0:0:0:0:
195,269,34957,1,0,0:0:0:0:
139,117,35107,1,0,0:0:0:0:
194,44,35257,1,2,0:0:0:0:
112,3,35407,2,0,P|68:28|6:27,1,105,10|2,1:2|0:0,0:0:0:0:
14,29,35857,1,0,0:0:0:0:
18,122,36007,5,2,1:2:0:0:
299,134,36307,2,0,L|292:74,1,52.5,2|2,0:0|0:0,0:0:0:0:
283,2,36607,1,10,1:2:0:0:
315,136,36907,2,0,L|308:196,1,52.5,2|2,0:0|0:0,0:0:0:0:
299,268,37207,1,2,1:2:0:0:
337,125,37507,6,0,L|331:45,2,52.5,2|2|2,0:3|0:3|0:3,0:0:0:0:
411,43,38007,5,2,0:3:0:0:
283,2,38207,5,2,0:3:0:0:
512,110,38407,6,0,B|436:151|498:191|428:236,1,157.5,2|2,1:3|0:0,0:0:0:0:
347,245,39007,2,0,B|337:216|337:216|369:191,1,52.5,10|2,1:2|0:0,0:0:0:0:
501,285,39307,1,2,0:0:0:0:
482,369,39457,1,2,0:0:0:0:
271,265,39607,2,0,P|292:336|293:346,1,52.5,2|2,1:2|0:0,0:0:0:0:
406,317,39907,1,2,0:0:0:0:
429,235,40057,1,2,0:0:0:0:
358,127,40207,2,0,L|295:132,1,52.5,10|2,1:2|0:0,0:0:0:0:
128,268,40507,2,0,B|173:249|160:218|210:206,1,105,2|0,0:0|1:0,0:0:0:0:
123,277,41107,5,2,0:0:0:0:
56,229,41257,1,2,0:0:0:0:
137,113,41407,2,0,L|129:39,1,52.5,10|2,1:2|0:0,0:0:0:0:
20,147,41707,2,0,L|38:18,1,105,2|2,0:0|1:2,0:0:0:0:
34,43,42157,1,2,0:0:0:0:
140,192,42307,1,2,0:0:0:0:
226,125,42457,1,2,0:0:0:0:
331,262,42607,2,0,P|270:270|222:282,1,105,10|2,1:2|0:0,0:0:0:0:
227,280,43057,1,2,0:0:0:0:
372,187,43207,6,0,P|416:196|444:200,1,52.5,2|2,1:2|0:0,0:0:0:0:
512,165,43507,1,0,0:0:0:0:
512,165,43657,1,2,0:0:0:0:
485,305,43807,2,0,P|441:314|413:318,1,52.5,10|2,1:2|0:0,0:0:0:0:
331,262,44107,1,0,0:0:0:0:
331,262,44257,1,2,0:0:0:0:
328,374,44407,2,0,P|372:383|400:387,1,52.5,2|2,1:2|0:0,0:0:0:0:
258,299,44707,1,2,0:0:0:0:
321,368,44857,1,2,0:0:0:0:
176,384,45007,2,0,P|185:341|187:292,1,52.5,10|0,1:2|0:0,0:0:0:0:
118,256,45307,1,2,0:0:0:0:
183,135,45457,1,2,0:0:0:0:
181,125,45532,1,0,0:0:0:0:
176,113,45607,6,0,P|126:122|117:174,1,105,2|2,1:2|0:0,0:0:0:0:
115,169,46057,1,2,0:0:0:0:
13,250,46207,2,0,P|33:321|34:333,1,52.5,10|2,1:2|0:0,0:0:0:0:
35,167,46507,1,2,0:0:0:0:
95,20,46657,1,2,0:0:0:0:
93,28,46732,1,0,0:0:0:0:
90,37,46807,2,0,L|16:32,1,52.5,2|2,1:2|0:0,0:0:0:0:
149,97,47107,1,2,0:0:0:0:
203,32,47257,1,2,0:0:0:0:
313,116,47407,1,10,1:2:0:0:
408,93,47557,1,2,0:0:0:0:
390,4,47707,2,0,P|321:29|277:38,1,105,2|0,0:0|1:0,0:0:0:0:
290,35,48157,5,2,0:0:0:0:
235,122,48307,2,0,L|244:192,1,52.5,0|2,0:0|0:0,0:0:0:0:
111,264,48607,1,10,1:2:0:0:
163,191,48757,1,2,0:0:0:0:
311,217,48907,2,0,P|356:214|384:208,1,52.5,2|2,0:0|0:0,0:0:0:0:
211,256,49207,1,2,1:2:0:0:
244,337,49357,1,2,0:0:0:0:
458,379,49507,2,0,P|427:337|377:326,1,105,2|8,0:0|1:2,0:0:0:0:
244,337,49957,2,0,P|219:345|193:348,2,52.5,2|2|2,0:0|0:0|0:0,0:0:0:0:
512,219,50407,6,0,L|400:230,1,105,2|2,1:2|0:0,0:0:0:0:
407,229,50857,1,0,0:0:0:0:
310,137,51007,2,0,B|325:114|325:114|357:136,1,52.5,10|2,1:2|0:0,0:0:0:0:
325,245,51307,1,2,0:0:0:0:
248,192,51457,1,0,0:0:0:0:
340,15,51607,2,0,P|369:11|401:4,2,52.5,2|2|2,1:2|0:0|0:0,0:0:0:0:
267,64,52057,1,2,0:0:0:0:
162,11,52207,1,10,1:2:0:0:
101,66,52357,1,2,0:0:0:0:
172,132,52507,1,2,0:0:0:0:
188,123,52657,1,2,0:0:0:0:
0,227,52807,6,0,B|26:213|59:220|52:229|79:234|110:220,1,105,2|2,1:2|0:0,0:0:0:0:
7,89,53257,2,0,P|13:125|14:167,1,52.5,2|10,0:0|1:2,0:0:0:0:
14,140,53557,1,0,0:0:0:0:
101,66,53707,1,2,0:0:0:0:
172,132,53857,1,2,0:0:0:0:
157,292,54007,2,0,P|190:303|226:294,1,52.5,2|2,1:2|0:0,0:0:0:0:
185,219,54307,1,2,0:0:0:0:
258,377,54457,1,2,0:0:0:0:
334,248,54607,2,0,L|325:191,2,52.5,10|2|2,1:2|0:0|0:0,0:0:0:0:
353,376,55057,1,2,0:0:0:0:
512,237,55207,6,0,B|461:267|508:277|449:317,1,105,2|2,1:2|0:0,0:0:0:0:
450,317,55657,1,2,0:0:0:0:
373,96,55807,2,0,P|384:123|402:235,1,105,10|0,1:2|0:0,0:0:0:0:
384,84,56407,5,2,1:2:0:0:
315,17,56557,1,2,0:0:0:0:
236,63,56707,1,2,0:0:0:0:
233,149,56857,1,2,0:0:0:0:
325,196,57007,5,10,1:2:0:0:
239,163,57157,1,2,0:0:0:0:
171,223,57307,1,2,0:0:0:0:
98,169,57457,1,2,0:0:0:0:
107,158,57607,5,2,0:0:0:0:
15,50,67207,6,0,B|120:25|88:90|205:62,1,181.125003454685,4|0,1:0|0:0,0:0:0:0:
322,50,67807,2,0,P|311:107|259:133,1,120.750002303124,8|2,1:2|0:2,0:0:0:0:
249,0,68257,1,2,0:2:0:0:
180,146,68407,2,0,P|193:208|202:273,1,120.750002303124,2|0,1:2|0:0,0:0:0:0:
160,333,68857,1,2,0:0:0:0:
343,186,69007,2,0,P|330:245|321:304,1,120.750002303124,10|0,1:2|0:0,0:0:0:0:
355,376,69457,1,0,0:0:0:0:
160,333,69607,5,0,1:0:0:0:
18,384,69757,2,0,P|25:346|25:298,1,60.3750011515618,2|0,0:0|0:0,0:0:0:0:
1,194,70057,1,2,0:0:0:0:
204,143,70207,2,0,P|152:152|83:160,1,120.750002303124,10|2,1:2|0:0,0:0:0:0:
17,115,70657,1,0,0:0:0:0:
108,384,70807,2,0,P|160:375|229:367,1,120.750002303124,2|2,1:2|0:0,0:0:0:0:
387,336,71257,1,0,0:0:0:0:
362,259,71407,2,0,P|327:244|284:248,1,60.3750011515618,10|0,1:2|0:0,0:0:0:0:
201,264,71707,1,2,0:0:0:0:
503,376,72007,6,0,L|516:241,2,120.750002303124,2|2|8,1:2|0:0|1:2,0:0:0:0:
503,376,72757,1,0,0:0:0:0:
359,198,72907,2,0,L|362:271,1,60.3750011515618,2|0,0:0|0:0,0:0:0:0:
481,62,73207,2,0,P|421:73|389:77,2,90.5625017273426,2|2|2,1:2|0:0|0:0,0:0:0:0:
501,163,73807,2,0,P|465:169|432:175,1,60.3750011515618,10|0,1:2|0:0,0:0:0:0:
291,90,74107,1,2,0:0:0:0:
336,19,74257,1,0,0:0:0:0:
248,167,74407,6,0,P|186:204|141:167,1,120.750002303124,2|0,1:2|0:0,0:0:0:0:
150,183,74857,1,2,0:0:0:0:
67,50,75007,2,0,P|108:62|137:64,1,60.3750011515618,10|0,1:2|0:0,0:0:0:0:
15,237,75307,2,0,P|8:172|-3:107,1,120.750002303124,2|2,0:0|1:2,0:0:0:0:
67,50,75757,1,2,0:0:0:0:
248,167,75907,1,2,0:0:0:0:
95,246,76057,1,2,0:0:0:0:
281,290,76207,2,0,P|233:271|190:335,1,120.750002303124,10|2,1:2|0:0,0:0:0:0:
209,13,76807,6,0,P|271:29|405:34,1,181.125003454685,4|0,1:0|0:0,0:0:0:0:
415,173,77407,2,0,P|471:163|486:108,1,120.750002303124,8|0,1:2|0:0,0:0:0:0:
469,24,77857,1,2,0:2:0:0:
331,197,78007,2,0,P|314:112|304:86,2,90.5625017273426,2|2|2,1:2|0:0|0:0,0:0:0:0:
379,348,78607,2,0,B|313:337|345:289|278:289,1,120.750002303124,10|2,1:2|0:2,0:0:0:0:
280,289,79057,1,0,0:0:0:0:
142,376,79207,6,0,P|228:377|279:381,1,120.750002303124,0|0,1:0|0:0,0:0:0:0:
262,379,79657,1,2,0:0:0:0:
111,289,79807,2,0,B|129:270|125:230|125:230|129:270|165:290,1,120.750002303124,10|2,1:2|0:0,0:0:0:0:
150,280,80257,1,0,0:0:0:0:
196,89,80407,2,0,P|204:170|215:233,2,120.750002303124,2|2|10,1:2|0:0|1:2,0:0:0:0:
23,0,81232,5,2,0:0:0:0:
120,142,81457,5,2,0:0:0:0:
196,89,81607,6,0,B|265:70|265:70|276:31|276:31|343:15,1,181.125003454685,2|0,1:2|0:0,0:0:0:0:
417,125,82207,2,0,B|396:184|396:184|347:141,1,120.750002303124,8|0,1:2|0:0,0:0:0:0:
138,260,82807,2,0,P|187:256|240:305,1,120.750002303124,2|2,1:2|0:0,0:0:0:0:
238,300,83257,1,2,0:0:0:0:
341,377,83407,2,0,P|352:305|351:268,2,90.5625017273426,10|2|2,1:2|0:0|0:0,0:0:0:0:
512,314,84007,5,2,1:2:0:0:
481,223,84157,2,0,L|488:139,1,60.3750011515618,2|0,0:0|0:0,0:0:0:0:
502,54,84457,1,2,0:0:0:0:
430,8,84607,2,0,P|367:27|291:27,2,120.750002303124,10|2|2,1:2|0:0|1:2,0:0:0:0:
502,54,85357,1,2,0:0:0:0:
340,129,85507,1,2,0:0:0:0:
398,218,85657,1,2,0:0:0:0:
275,355,85807,2,0,P|333:368|392:384,1,120.750002303124,10|2,1:2|0:0,0:0:0:0:
147,384,86407,6,0,B|100:356|125:324|66:308,2,107.333335380554,4|2|2,1:0|0:3|0:3,0:0:0:0:
161,377,87007,2,0,P|144:312|148:243,1,120.750002303124,8|2,1:2|0:2,0:0:0:0:
223,185,87457,1,2,0:2:0:0:
188,43,87607,2,0,P|138:2|91:30,1,120.750002303124,2|0,1:2|0:0,0:0:0:0:
65,98,88057,1,2,0:0:0:0:
277,38,88207,2,0,P|327:-3|374:25,1,120.750002303124,10|0,1:2|0:0,0:0:0:0:
402,88,88657,1,0,0:0:0:0:
320,268,88807,5,0,1:0:0:0:
376,197,88957,2,0,P|419:196|452:192,1,60.3750011515618,2|0,0:0|0:0,0:0:0:0:
512,133,89257,1,2,0:0:0:0:
370,19,89407,2,0,B|384:60|364:88|354:73|324:110|351:152,1,120.750002303124,10|2,1:2|0:0,0:0:0:0:
296,192,89857,1,0,0:0:0:0:
123,131,90007,2,0,B|141:110|111:73|101:88|81:60|94:23,1,120.750002303124,2|2,1:2|0:0,0:0:0:0:
3,202,90457,1,0,0:0:0:0:
65,255,90607,2,0,L|133:241,1,60.3750011515618,10|0,1:2|0:0,0:0:0:0:
216,148,90907,1,2,0:0:0:0:
222,384,91207,6,0,P|224:316|237:236,2,120.750002303124,2|2|8,1:2|0:0|1:2,0:0:0:0:
222,384,91957,1,0,0:0:0:0:
11,316,92107,2,0,P|26:304|69:293,1,60.3750011515618,2|0,0:0|0:0,0:0:0:0:
216,148,92407,2,0,P|223:88|213:50,2,90.5625017273426,2|2|2,1:2|0:0|0:0,0:0:0:0:
339,241,93007,2,0,P|337:207|344:172,1,60.3750011515618,10|0,1:2|0:0,0:0:0:0:
449,2,93307,1,2,0:0:0:0:
512,55,93457,1,0,0:0:0:0:
299,87,93607,6,0,P|349:99|432:113,1,120.750002303124,2|0,1:2|0:0,0:0:0:0:
417,111,94057,1,2,0:0:0:0:
470,227,94207,2,0,P|503:210|516:176,1,60.3750011515618,10|0,1:2|0:0,0:0:0:0:
354,300,94507,2,0,P|343:188|333:151,1,120.750002303124,2|2,0:0|1:2,0:0:0:0:
299,87,94957,1,2,0:0:0:0:
135,0,95107,1,2,0:0:0:0:
172,79,95257,1,2,0:0:0:0:
14,23,95407,2,0,P|21:82|30:163,1,120.750002303124,10|2,1:2|0:0,0:0:0:0:
197,382,96007,6,0,B|224:341|224:341|207:184,1,181.125003454685,4|0,1:0|0:0,0:0:0:0:
354,66,96607,2,0,B|348:121|348:121|350:125|350:125|342:192,1,120.750002303124,8|0,1:2|0:0,0:0:0:0:
291,252,97057,1,2,0:2:0:0:
235,120,97207,2,0,P|186:129|136:132,2,90.5625017273426,2|2|2,1:2|0:0|0:0,0:0:0:0:
34,207,97807,2,0,B|19:177|30:145|41:153|58:124|41:84,1,120.750002303124,10|2,1:2|0:2,0:0:0:0:
43,91,98257,1,0,0:0:0:0:
227,38,98407,6,0,P|180:-2|125:20,1,120.750002303124,0|0,1:0|0:0,0:0:0:0:
129,15,98857,1,2,0:0:0:0:
235,120,99007,2,0,B|267:139|267:139|300:123|369:124,1,120.750002303124,10|2,1:2|0:0,0:0:0:0:
348,124,99457,1,0,0:0:0:0:
492,26,99607,2,0,L|502:166,2,120.750002303124,2|2|10,1:2|0:0|1:2,0:0:0:0:
338,5,100432,5,2,0:0:0:0:
240,158,100657,5,2,0:0:0:0:
195,84,100807,6,0,B|251:73|251:73|303:108|303:108|372:97,1,181.125003454685,2|0,1:2|0:0,0:0:0:0:
423,181,101407,2,0,P|478:193|508:145,1,120.750002303124,8|0,1:2|0:0,0:0:0:0:
365,381,102007,2,0,P|373:339|377:251,1,120.750002303124,2|2,1:2|0:0,0:0:0:0:
377,261,102457,1,2,0:0:0:0:
491,308,102607,2,0,B|510:346|510:346|480:383,2,90.5625017273426,10|2|2,1:2|0:0|0:0,0:0:0:0:
266,377,103207,5,2,1:2:0:0:
201,310,103357,2,0,L|192:225,1,60.3750011515618,2|0,0:0|0:0,0:0:0:0:
231,95,103657,1,2,0:0:0:0:
291,23,103807,2,0,P|325:53|407:35,2,120.750002303124,10|2|2,1:2|0:0|1:2,0:0:0:0:
231,95,104557,1,2,0:0:0:0:
98,183,104707,1,2,0:0:0:0:
293,221,104857,1,2,0:0:0:0:
190,20,105007,2,0,P|113:38|57:44,1,120.750002303124,10|2,1:2|0:0,0:0:0:0:
512,0,105607,5,0,0:0:0:0:
168,139,114907,5,2,0:0:0:0:
249,108,115057,1,2,0:0:0:0:
356,196,115207,6,0,P|426:183|495:179,1,105,2|2,1:2|0:0,0:0:0:0:
459,179,115657,1,2,0:0:0:0:
508,90,115807,2,0,P|486:59|449:56,1,52.5,10|2,1:2|0:0,0:0:0:0:
378,9,116107,2,0,P|319:20|299:19,2,52.5,2|2|2,0:0|0:0|1:2,0:0:0:0:
109,5,116707,1,2,0:0:0:0:
50,79,116857,1,2,0:0:0:0:
94,199,117007,2,0,L|85:262,1,52.5,10|2,1:2|0:0,0:0:0:0:
44,330,117232,1,0,0:0:0:0:
50,342,117307,2,0,P|78:357|110:339,1,52.5,2|2,0:0|0:0,0:0:0:0:
189,377,117532,1,0,0:0:0:0:
197,368,117607,6,0,P|205:326|213:301,1,52.5,2|2,1:2|0:0,0:0:0:0:
296,266,117907,2,0,P|332:255|347:212,1,52.5,2|0,0:0|0:0,0:0:0:0:
272,154,118207,2,0,P|300:158|325:165,1,35,8|2,1:2|0:0,0:0:0:0:
317,152,118407,2,0,P|314:106|321:67,1,70,2|0,0:0|0:0,0:0:0:0:
88,17,118807,2,0,P|121:23|168:12,1,52.5,0|2,1:2|0:0,0:0:0:0:
247,44,119107,1,2,0:0:0:0:
333,0,119257,1,2,0:0:0:0:
407,80,119407,2,0,P|487:78|520:70,1,105,8|0,1:2|0:0,0:0:0:0:
511,72,119857,1,2,0:3:0:0:
509,208,120007,6,0,P|472:261|426:251,1,105,2|0,1:2|0:0,0:0:0:0:
411,328,120457,2,0,P|392:279|362:237,1,105,2|0,0:3|0:0,0:0:0:0:
361,236,120907,1,0,0:0:0:0:
289,197,121057,1,0,0:0:0:0:
341,127,121207,2,0,P|343:78|350:52,1,52.5,0|0,1:0|0:0,0:0:0:0:
180,4,121507,1,2,0:0:0:0:
231,66,121657,1,2,0:0:0:0:
174,148,121807,2,0,P|177:174|176:200,1,52.5,10|2,1:2|0:0,0:0:0:0:
137,328,122107,1,2,0:0:0:0:
206,276,122257,1,2,0:0:0:0:
7,286,122407,6,0,P|46:343|65:394,1,105,2|2,1:2|0:0,0:0:0:0:
59,375,122857,1,2,0:0:0:0:
140,246,123007,2,0,P|149:222|160:198,1,52.5,10|2,1:2|0:0,0:0:0:0:
199,383,123307,1,2,0:0:0:0:
137,328,123457,1,2,0:0:0:0:
238,189,123607,2,0,P|224:141|161:118,1,105,2|2,1:2|0:0,0:0:0:0:
178,117,124207,1,10,1:2:0:0:
105,60,124357,2,0,P|106:24|101:-2,2,52.5,2|2|2,0:0|0:0|0:0,0:0:0:0:
1,226,124807,6,0,P|13:117|12:90,1,105,2|0,1:2|0:0,0:0:0:0:
13,121,125257,1,2,0:0:0:0:
186,42,125407,2,0,P|221:36|253:29,2,52.5,10|2|2,1:2|0:0|0:0,0:0:0:0:
103,7,125857,1,2,0:0:0:0:
227,126,126007,2,0,P|279:115|331:107,1,105,2|2,1:2|0:0,0:0:0:0:
380,216,126457,1,2,0:0:0:0:
276,308,126607,2,0,P|308:314|344:320,1,52.5,10|2,1:2|0:0,0:0:0:0:
215,253,126907,1,2,0:0:0:0:
187,330,127057,1,2,0:0:0:0:
44,378,127207,6,0,L|30:307,1,52.5,2|2,1:2|0:0,0:0:0:0:
21,166,127507,1,0,0:0:0:0:
86,227,127657,1,2,0:0:0:0:
122,44,127807,2,0,P|118:96|106:156,1,105,10|0,1:2|0:0,0:0:0:0:
108,147,128257,1,2,0:0:0:0:
229,63,128407,2,0,P|225:37|221:12,1,52.5,2|0,1:2|0:0,0:0:0:0:
292,219,128707,2,0,B|344:186|299:160|360:125,1,105,0|10,0:0|1:2,0:0:0:0:
346,133,129157,1,0,0:0:0:0:
452,220,129307,2,0,P|483:221|505:187,1,52.5,2|2,0:0|0:0,0:0:0:0:
497,12,129607,6,0,P|449:-6|413:45,1,105,2|2,1:2|0:0,0:0:0:0:
414,27,130057,1,2,0:0:0:0:
400,141,130207,2,0,P|449:122|500:110,1,105,10|2,1:2|0:0,0:0:0:0:
500,110,130657,1,2,0:0:0:0:
322,80,130807,2,0,L|331:2,2,78.75,2|2|2,1:2|0:0|0:0,0:0:0:0:
307,108,131332,1,2,0:0:0:0:
290,129,131407,6,0,P|287:161|249:180,1,52.5,10|2,1:2|0:0,0:0:0:0:
310,270,131707,1,2,0:0:0:0:
392,263,131857,1,2,0:0:0:0:
250,379,132007,6,0,L|244:301,1,52.5,2|2,1:2|0:0,0:0:0:0:
197,196,132307,1,2,0:0:0:0:
155,275,132457,1,2,0:0:0:0:
282,180,132607,2,0,P|290:126|295:98,1,52.5,10|2,1:2|0:0,0:0:0:0:
288,192,132907,1,2,0:0:0:0:
343,297,133057,1,2,0:0:0:0:
424,202,133207,2,0,P|416:148|411:120,1,52.5,2|0,1:2|0:0,0:0:0:0:
418,214,133507,1,2,0:0:0:0:
455,74,133657,1,0,0:0:0:0:
306,0,133807,2,0,B|250:14|270:51|224:61,2,105,10|0|0,1:2|0:0|1:0,0:0:0:0:
11,180,134707,5,0,0:0:0:0:
66,126,134857,1,2,0:0:0:0:
160,215,135007,2,0,P|186:211|213:209,1,52.5,10|2,1:2|0:0,0:0:0:0:
98,321,135307,2,0,P|96:358|80:385,2,52.5,0|2|2,0:0|0:0|1:2,0:0:0:0:
52,253,135757,1,2,0:0:0:0:
66,126,135907,2,0,P|64:95|61:60,2,52.5,2|2|10,0:0|0:0|1:2,0:0:0:0:
167,291,136507,1,2,0:0:0:0:
259,116,136807,6,0,P|189:92|169:48,1,105,2|2,1:2|0:0,0:0:0:0:
174,68,137257,1,2,0:0:0:0:
355,13,137407,2,0,P|343:57|343:88,1,52.5,10|0,1:2|0:0,0:0:0:0:
345,204,137707,1,2,0:0:0:0:
266,223,137857,1,2,0:0:0:0:
398,133,138007,2,0,P|446:141|471:144,2,52.5,2|2|2,1:2|0:0|0:0,0:0:0:0:
345,204,138457,1,2,0:0:0:0:
223,285,138607,2,0,B|245:312|229:330|225:325|206:357|226:404,2,105,10|2|2,1:2|0:0|1:2,0:0:0:0:
151,8,139507,5,2,0:0:0:0:
91,78,139657,1,2,0:0:0:0:
162,170,139807,2,0,P|156:217|151:279,1,105,10|0,1:2|0:0,0:0:0:0:
151,274,140257,1,2,0:0:0:0:
1,199,140407,2,0,P|48:192|70:190,1,52.5,2|2,1:2|0:0,0:0:0:0:
2,210,140857,1,2,0:0:0:0:
4,333,141007,2,0,P|51:326|73:324,1,52.5,10|2,1:2|0:0,0:0:0:0:
1,343,141457,1,2,0:0:0:0:
275,360,141607,6,0,P|212:365|146:361,1,105,2|2,1:2|0:0,0:0:0:0:
170,363,142057,1,2,0:0:0:0:
130,176,142207,2,0,B|142:158|141:124|141:124|143:156|170:178,1,105,10|2,1:2|0:0,0:0:0:0:
157,256,142657,1,2,0:0:0:0:
116,23,142807,2,0,P|144:11|174:12,1,52.5,2|0,1:2|0:0,0:0:0:0:
222,67,143107,1,0,0:0:0:0:
512,61,143407,2,0,P|484:73|454:72,1,52.5,10|0,1:2|0:0,0:0:0:0:
420,7,143707,1,0,0:0:0:0:
363,249,144007,5,2,0:0:0:0:
512,141,153607,6,0,B|421:148|452:197|342:204,1,181.125003454685,4|0,1:0|0:0,0:0:0:0:
302,58,154207,2,0,B|322:41|320:3|320:3|328:35|361:49,1,120.750002303124,8|2,1:2|0:2,0:0:0:0:
339,126,154657,1,2,0:2:0:0:
126,28,154807,2,0,P|170:29|216:99,1,120.750002303124,2|0,1:2|0:0,0:0:0:0:
214,162,155257,1,2,0:0:0:0:
434,338,155407,2,0,P|390:337|344:267,1,120.750002303124,10|0,1:2|0:0,0:0:0:0:
346,204,155857,1,0,0:0:0:0:
128,378,156007,5,0,1:0:0:0:
205,307,156157,2,0,P|247:316|279:321,1,60.3750011515618,2|0,0:0|0:0,0:0:0:0:
314,384,156457,1,2,0:0:0:0:
90,266,156607,2,0,B|76:231|90:198|106:214|122:181|112:133,1,120.750002303124,10|2,1:2|0:0,0:0:0:0:
71,84,157057,1,0,0:0:0:0:
327,22,157207,2,0,B|341:57|327:90|311:74|295:107|305:155,1,120.750002303124,2|2,1:2|0:0,0:0:0:0:
464,277,157657,1,0,0:0:0:0:
502,181,157807,2,0,P|467:173|424:190,1,60.3750011515618,10|0,1:2|0:0,0:0:0:0:
352,246,158107,1,2,0:0:0:0:
134,36,158407,6,0,P|193:32|273:6,2,120.750002303124,2|2|8,1:2|0:0|1:2,0:0:0:0:
134,36,159157,1,0,0:0:0:0:
7,129,159307,2,0,P|4:98|0:69,1,60.3750011515618,2|0,0:0|0:0,0:0:0:0:
194,159,159607,2,0,B|157:182|157:182|105:166,2,90.5625017273426,2|2|2,1:2|0:0|0:0,0:0:0:0:
149,302,160207,2,0,P|186:295|232:288,1,60.3750011515618,10|0,1:2|0:0,0:0:0:0:
8,247,160507,1,2,0:0:0:0:
45,331,160657,1,0,0:0:0:0:
281,375,160807,6,0,P|327:337|322:268,1,120.750002303124,2|0,1:2|0:0,0:0:0:0:
328,279,161257,1,2,0:0:0:0:
505,171,161407,2,0,P|469:182|405:189,1,60.3750011515618,10|0,1:2|0:0,0:0:0:0:
208,291,161707,2,0,P|152:281|78:271,1,120.750002303124,2|2,0:0|1:2,0:0:0:0:
77,351,162157,1,2,0:0:0:0:
167,150,162307,1,2,0:0:0:0:
10,172,162457,1,2,0:0:0:0:
1,384,162607,2,0,B|-27:329|41:324|-4:261,1,120.750002303124,10|2,1:2|0:0,0:0:0:0:
100,8,163207,6,0,B|165:24|165:24|194:73|194:73|273:95,1,181.125003454685,4|0,1:0|0:0,0:0:0:0:
58,90,163807,2,0,B|76:148|76:148|169:134,1,120.750002303124,8|0,1:2|0:0,0:0:0:0:
209,165,164257,1,2,0:2:0:0:
336,15,164407,2,0,P|338:58|345:116,2,90.5625017273426,2|2|2,1:2|0:0|0:0,0:0:0:0:
209,165,165007,2,0,P|219:239|225:292,1,120.750002303124,10|2,1:2|0:2,0:0:0:0:
224,284,165457,1,0,0:0:0:0:
332,384,165607,6,0,B|395:371|359:326|425:310,1,120.750002303124,0|0,1:0|0:0,0:0:0:0:
421,310,166057,1,2,0:0:0:0:
470,166,166207,2,0,B|451:109|451:109|422:163,1,120.750002303124,10|2,1:2|0:0,0:0:0:0:
422,162,166657,1,0,0:0:0:0:
241,375,166807,2,0,P|183:382|143:319,2,120.750002303124,2|2|10,1:2|0:0|1:2,0:0:0:0:
295,223,167632,5,2,0:0:0:0:
58,135,167857,5,2,0:0:0:0:
121,78,168007,6,0,P|221:79|317:51,1,181.125003454685,2|0,1:2|0:0,0:0:0:0:
373,202,168607,2,0,P|409:185|399:98,1,120.750002303124,8|0,1:2|0:0,0:0:0:0:
241,375,169207,2,0,P|229:314|211:254,1,120.750002303124,2|2,1:2|0:0,0:0:0:0:
212,257,169657,1,2,0:0:0:0:
127,153,169807,2,0,B|112:129|112:129|126:42,2,90.5625017273426,10|2|2,1:2|0:0|0:0,0:0:0:0:
4,304,170407,5,2,1:2:0:0:
66,373,170557,2,0,P|101:366|145:363,1,60.3750011515618,2|0,0:0|0:0,0:0:0:0:
219,381,170857,1,2,0:0:0:0:
310,262,171007,2,0,P|239:234|206:302,2,120.750002303124,10|2|2,1:2|0:0|1:2,0:0:0:0:
344,335,171757,1,2,0:0:0:0:
290,80,171907,1,2,0:0:0:0:
367,17,172057,1,2,0:0:0:0:
478,199,172207,2,0,P|384:176|336:166,1,120.750002303124,10|2,1:2|0:0,0:0:0:0:
36,93,172807,6,0,B|8:47|8:47|41:0,2,107.333335380554,4|2|2,1:0|0:3|0:3,0:0:0:0:
29,104,173407,2,0,P|86:93|149:86,1,120.750002303124,8|2,1:2|0:2,0:0:0:0:
188,13,173857,1,2,0:2:0:0:
341,181,174007,2,0,P|290:195|258:121,1,120.750002303124,2|0,1:2|0:0,0:0:0:0:
285,73,174457,1,2,0:0:0:0:
91,305,174607,2,0,P|142:319|174:245,1,120.750002303124,10|0,1:2|0:0,0:0:0:0:
147,197,175057,1,0,0:0:0:0:
283,381,175207,5,0,1:0:0:0:
344,312,175357,2,0,P|390:315|420:318,1,60.3750011515618,2|0,0:0|0:0,0:0:0:0:
276,372,175657,1,2,0:0:0:0:
328,206,175807,2,0,P|398:216|468:217,1,120.750002303124,10|2,1:2|0:0,0:0:0:0:
508,159,176257,1,0,0:0:0:0:
283,381,176407,2,0,P|213:371|143:370,1,120.750002303124,2|2,1:2|0:0,0:0:0:0:
7,378,176857,1,0,0:0:0:0:
24,279,177007,2,0,P|61:288|83:325,1,60.3750011515618,10|0,1:2|0:0,0:0:0:0:
229,330,177307,1,2,0:0:0:0:
2,174,177607,6,0,B|37:157|70:176|59:188|86:208|130:197,2,120.750002303124,2|2|8,1:2|0:0|1:2,0:0:0:0:
2,174,178357,1,0,0:0:0:0:
150,54,178507,2,0,P|157:98|163:119,1,60.3750011515618,2|0,0:0|0:0,0:0:0:0:
26,5,178807,2,0,P|15:57|2:98,2,90.5625017273426,2|2|2,1:2|0:0|0:0,0:0:0:0:
221,2,179407,2,0,P|225:46|232:73,1,60.3750011515618,10|0,1:2|0:0,0:0:0:0:
344,202,179707,1,2,0:0:0:0:
409,140,179857,1,0,0:0:0:0:
323,0,180007,6,0,P|316:67|312:123,1,120.750002303124,2|0,1:2|0:0,0:0:0:0:
312,120,180457,1,2,0:0:0:0:
199,261,180607,2,0,P|155:245|143:225,1,60.3750011515618,10|0,1:2|0:0,0:0:0:0:
272,384,180907,2,0,P|309:336|387:332,1,120.750002303124,2|2,0:0|1:2,0:0:0:0:
419,384,181357,1,2,0:0:0:0:
512,195,181507,1,2,0:0:0:0:
512,383,181657,1,2,0:0:0:0:
404,240,181807,2,0,P|395:169|390:102,1,120.750002303124,10|2,1:2|0:0,0:0:0:0:
147,379,182407,6,0,B|121:344|121:344|146:181,1,181.125003454685,4|0,1:0|0:0,0:0:0:0:
211,52,183007,2,0,B|172:5|172:5|116:44,1,120.750002303124,8|0,1:2|0:0,0:0:0:0:
157,119,183457,1,2,0:2:0:0:
318,9,183607,2,0,P|351:28|404:35,2,90.5625017273426,2|2|2,1:2|0:0|0:0,0:0:0:0:
157,119,184207,2,0,P|91:118|6:127,1,120.750002303124,10|2,1:2|0:2,0:0:0:0:
36,122,184657,1,0,0:0:0:0:
2,365,184807,6,0,P|82:358|84:283,1,120.750002303124,0|0,1:0|0:0,0:0:0:0:
95,329,185257,1,2,0:0:0:0:
280,212,185407,2,0,B|261:238|224:235|224:235|189:210|150:225,1,120.750002303124,10|2,1:2|0:0,0:0:0:0:
170,219,185857,1,0,0:0:0:0:
316,384,186007,2,0,P|256:373|196:366,2,120.750002303124,2|2|10,1:2|0:0|1:2,0:0:0:0:
101,253,186832,5,2,0:0:0:0:
181,63,187057,5,2,0:0:0:0:
207,136,187207,6,0,P|282:120|299:17,1,181.125003454685,2|0,1:2|0:0,0:0:0:0:
424,23,187807,2,0,P|417:82|435:140,1,120.750002303124,8|0,1:2|0:0,0:0:0:0:
503,347,188407,2,0,B|471:372|471:372|366:336,1,120.750002303124,2|2,1:2|0:0,0:0:0:0:
395,346,188857,1,2,0:0:0:0:
332,209,189007,2,0,B|342:198|337:167|337:167|351:197|374:199,2,90.5625017273426,10|2|2,1:2|0:0|0:0,0:0:0:0:
224,377,189607,5,2,1:2:0:0:
149,313,189757,2,0,P|158:267|159:235,1,60.3750011515618,2|0,0:0|0:0,0:0:0:0:
133,155,190057,1,2,0:0:0:0:
305,28,190207,2,0,P|252:11|200:45,2,120.750002303124,10|2|2,1:2|0:0|1:2,0:0:0:0:
357,103,190957,1,2,0:0:0:0:
324,290,191107,1,2,0:0:0:0:
215,129,191257,1,2,0:0:0:0:
393,20,191407,2,0,P|452:30|512:33,2,120.750002303124,10|2|0,1:2|0:0|0:0,0:0:0:0:
